This file was generated by Ched 2.7.0.0.
#TITLE ""
#ARTIST ""
#DESIGNER ""
#DIFFICULTY 0
#PLAYLEVEL
#SONGID ""
#WAVE ""
#WAVEOFFSET 0
#JACKET ""
#REQUEST "ticks_per_beat 480"
#00002: 4
#BPM01: 260
#00008: 01
#TIL00: ""
#VOLUME: ""
#HISPEED 00
#MEASUREHS 00
#11212:14000014
#11214:0000001400000000
#11312:0014
#11314:0014000000000000
#11419:15000015
#11417:0000001500000000
#11519:0015
#11517:0015000000000000
#11612:16000016
#11614:0000001600000000
#11714:0016000000000000
#0321f:11
#0321b:0013
#07117:14
#07112:14
#0681a:14
#06815:14
#06615:14
#0661a:14
#05212:14
#05217:14
#00416:00000014
#0041a:14
#11112:14
#1111a:14
#05017:14
#05012:14
#05515:14
#0551a:14
#10314:0014
#1031a:14
#10318:0014
#10218:0014
#10214:00000014
#10212:26
#09618:0000001400000000
#0961a:14000014
#09718:0014000000000000
#0971a:0014
#09517:0015
#09515:14
#09413:0013
#08812:16
#0871b:13
#0861b:1313
#08612:00130013
#08518:1313
#08515:00130013
#08412:0013
#0841b:13
#08315:13000013
#0831b:0013
#08218:0013
#08212:13
#08118:13000013
#08112:0013
#08015:0013
#0801b:13
#08010:41
#07818:00000013
#07815:0013
#07819:25
#07912:13
#06318:0013
#06315:0013
#0631b:13
#06215:00000013
#06218:0013
#06213:25
#04518:0013
#04512:13
#0451b:13
#04714:13
#04719:13
#04613:0013
#0461a:0013
#04612:13
#0461b:13
#04415:0013
#0441b:13
#04412:13
#04318:0013
#04312:13
#0431b:13
#04112:13
#04118:13
#0341b:0013
#03418:13
#0331b:0013
#03318:13
#03712:0013
#03715:13
#03612:0013
#03615:13
#03512:0013
#03515:13
#0391b:13
#03915:13
#03112:1333000000000000
#03115:0000003300330000
#03018:00000013
#03012:0013
#02815:00000013
#0281b:0013
#02618:00000013
#02612:0013
#02415:00000013
#0241b:0013
#02410:41
#02315:1333000000000000
#02312:0000003300330000
#02218:00000013
#02215:0013
#02015:00000013
#02018:0013
#01818:00000013
#01815:0013
#01615:00000013
#01618:0013
#01614:13
#01619:13
#00618:00000014
#00614:0014
#00612:14
#0061a:14
#1181b:00000013
#11815:0013
#11818:26
#11912:13
#11918:00000013
#12012:13
#12015:0013
#1211b:0013
#12115:00000013
#12118:13
#1221b:13
#12218:0013
#12312:0013
#12318:00000013
#12315:13
#12415:13
#12418:0013
#1251b:00130000
#12515:0013
#12518:00000013
#12512:13
#1261b:00130000
#12615:0013
#12618:00000013
#12612:13
#12715:13
#14112:1662
#09812:15000015
#09814:0000001500000000
#09912:0015
#09914:0015000000000000
#10018:16000016
#10016:0000001600000000
#10116:0016000000000000
#00212:0000000000130000
#0021b:13
#00214:0000000000000053
#00213:00000053
#00218:0000005300000000
#00219:00530000
#0021a:0053000000000000
#00015:0000000000130000
#00018:13
#00013:0000000000000053
#00014:00000053
#0001b:0000005300000000
#0001a:00530000
#00019:0053000000000000
#0481f:21
#04812:24
#0481a:24
#01418:00000023
#01415:0023
#0141b:00230000
#01412:23
#01215:00000023
#01218:0023
#01212:00230000
#0121b:23
#0101b:00230023
#01012:2323
#00812:00230023
#0081b:2323
#00810:41
#01515:0000002300000000
#01518:00230000
#01512:23
#01318:0000002300000000
#01315:00230000
#0131b:23
#01115:2300002300000000
#01118:00230000
#00918:2300002300000000
#00915:00230000
#1041a:24
#10412:24
#10410:41
#0641a:24
#06412:24
#12815:23
#1281b:23
#12818:0023
#12812:0023
#12810:41
#12915:23000023
#12918:00230000
#1311b:23
#13112:00000023
#13118:00230000
#13115:0023
#13018:0023
#13015:00000023
#13218:23230000
#1321b:00000023
#13315:23230000
#13318:00000023
#13512:23
#1351b:00000023
#13515:00230000
#13518:0023
#13415:0023
#13418:00000023
#13615:23
#13618:00230000
#13612:00000026
#07712:0035000000000000
#07612:0000003500003500
#0751a:0034000034000000
#0741a:0000003400003400
#07312:0033000033000000
#07212:0000003300003300
#06914:0034
#07018:0034
#06719:0034
#06514:0034
#05113:0034
#0291b:0000003300000000
#02919:0000000000330000
#02712:0000003300000000
#02714:0000000000330000
#0251b:0000003300000000
#02519:0000000000330000
#02118:0000003300000000
#0211a:0000000000330000
#01915:0000003300000000
#01913:0000000000330000
#01718:0000003300000000
#0171a:0000000000330000
#04918:0034
#04910:41
#05318:0034
#05414:0034
#06118:0035000000000000
#06018:0000003500003500
#05914:0034000034000000
#05814:0000003400003400
#05718:0033000033000000
#05618:0000003300003300
#00315:53
#00112:53
#11752:00000016
#11754:0066000000000000
#07752:00000015
#0715a:0014
#07155:0014
#07157:54
#07152:54
#11158:0014
#11154:0014
#11152:54
#1115a:64
#05552:0014
#05557:0014
#05555:64
#0555a:64
#07955:0013
#07952:53
#06158:00000015
#04255:13
#0425b:13
#04058:13
#04052:13
#03855:13
#03155:00000013
#03152:53
#02958:0000000000000013
#02755:0000000000000013
#02558:0000000000000013
#02352:00000013
#02355:63
#0215b:0000000000000013
#01952:0000000000000013
#0175b:0000000000000013
#00754:0014
#1045a:14
#10452:14
#07859:15
#0645a:14
#06452:14
#06253:15
#04852:14
#0485a:14
#11252:54000054
#11254:0000006400000000
#11352:0054
#11354:0064000000000000
#11459:65000065
#11457:0000005500000000
#11559:0065
#11557:0055000000000000
#11652:56000056
#11654:0000006600000000
#0685a:64
#06855:64
#06655:64
#0665a:64
#05252:54
#05257:54
#00456:00000024
#0045a:64
#05057:54
#05052:54
#10354:0064
#1035a:64
#10358:0054
#09658:0000005400000000
#0965a:64000064
#09758:0054000000000000
#0975a:0064
#08852:66
#0875b:63
#06358:0053
#06355:0063
#0635b:63
#04152:53
#04158:53
#0325b:0063
#0345b:0063
#03458:53
#0335b:0063
#03358:53
#03752:0053
#03755:63
#03652:0053
#03655:63
#03552:0053
#03555:63
#0395b:63
#03955:63
#12752:0013
#12755:63
#12955:00000063
#13358:00000053
#11858:16
#11952:53
#14152:66
#10158:00000016
#10156:0056000000000000
#10252:16
#09852:55000055
#09854:0000006500000000
#09952:0055
#09954:0065000000000000
#10058:66000066
#10056:0000005600000000
#0043a0:14
#004360:00000054
#0053a0:0024
#007340:1424
#017380:1300003300000000
#0173a0:0000000000330000
#0173b0:0000000000000023
#019350:1300003300000000
#019330:0000000000330000
#019320:0000000000000023
#021380:1300003300000000
#0213a0:0000000000330000
#0213b0:0000000000000023
#023350:1333000000000000
#023320:0000003300332300
#0253b0:1300003300000000
#025390:0000000000330000
#025380:0000000000000023
#027320:1300003300000000
#027340:0000000000330000
#027350:0000000000000023
#0293b0:1300003300000000
#029390:0000000000330000
#029380:0000000000000023
#031320:1333000000000000
#031350:0000003300332300
#0323b0:0013
#033380:33
#0333b0:0033
#034380:33
#0343b0:0033
#035380:23
#035351:13
#035321:0033
#036351:33
#036321:0033
#037351:33
#037321:0033
#038351:23
#0393b1:13
#040381:23
#039350:13
#040320:23
#041320:13
#042350:23
#041381:13
#0423b1:23
#0493a1:14
#049381:0034
#050371:34
#0503a1:0024
#050320:14
#050350:0024
#051350:14
#051330:0034
#052320:34
#052350:0024
#052371:14
#0523a1:0024
#0533a1:14
#053381:0034
#054371:24
#054320:14
#054340:0034
#055350:34
#055320:0024
#0553a1:14
#055371:0024
#0563b1:13
#056381:0000003300003300
#057381:0033000033000000
#058381:23
#058320:14
#058340:0000003400003400
#059340:0034000034000000
#060340:24
#060391:15
#060381:0000003500003500
#061381:0035000000002500
#0633b1:13
#063381:0033
#0643a1:24
#063350:0013
#064320:24
#065320:14
#065340:0034
#066350:34
#066320:0024
#0663a1:14
#066371:0024
#067371:14
#067391:0034
#0683a1:34
#068371:0024
#068350:14
#068320:0024
#069320:14
#069340:0034
#070350:24
#0703a1:14
#070381:0034
#071371:34
#0713a1:0024
#071320:14
#071350:0024
#072350:13
#072320:0000003300003300
#073320:0033000033000000
#074320:23
#074381:14
#0743a1:0000003400003400
#0753a1:0034000034000000
#0763a1:24
#076330:15
#076320:0000003500003500
#077320:0035000000002500
#079320:13
#079350:0023
#0873b0:13
#087380:0023
#088320:16
#094320:22
#0963a0:14000034
#096380:0000003400000000
#097380:0034000000000000
#0973a0:0034
#098380:24
#098321:15000035
#098341:0000003500000000
#099341:0035000000000000
#099321:0035
#100331:25
#100380:16000036
#100360:0000003600000000
#101360:0036000000000000
#101380:00000026
#1033a0:14
#103380:0034
#1043a0:24
#103341:0014
#104321:24
#1053a1:14
#105371:0034
#1063a1:34
#106361:0024
#106360:14
#106320:0024
#107320:14
#107350:0034
#108320:34
#108360:0024
#108361:14
#1083a1:0024
#1093a1:14
#109371:0034
#1103a1:24
#110320:14
#110350:0034
#111320:34
#111340:0024
#1113a1:14
#111381:0024
#112321:14000034
#112341:0000003400000000
#113341:0034000000000000
#113321:0034
#114341:24
#114390:15000035
#114370:0000003500000000
#115370:0035000000000000
#115390:0035
#116380:25
#116321:16000036
#116341:0000003600000000
#117341:0036000000000000
#117321:00000026
#119321:13
#119351:0023
#127351:13
#127321:0023
#129351:00000013
#130321:00230000
#133381:00000013
#1343b1:00230000
#136321:00000016
#141321:5622
#000980:13
#0009b0:000000000000000000000000000000000000000000000000000000000000000000000000000000000000000000000000000000000000000000000000000000000000000000000000000000000000000000000000000000000000000000000000000000000000000000000000000000000000000000000000000000000000000000000000000000000000000000000000000000000000000000000000000000000000000000000000000000000000000000000000000000000000000000000000000000000000000000000000000000000000000000000000000000000000000000000000000000000000000000000000000000000000000000000000000000000000000000000000000000000000000000000000000000000000000000000000000000000000000000000000000000000000000000000000000000000000000000000000000000000000000000000000000000000000000000000000000000000000000000000000000000000000000000000000000000000000000000000000000000000000000000000000000000000000000000000000000000000000000000000000000000000000000000000000000000000000000000000000000000000000000000000000000000000000000000000000000000000000000000000000000000000000000000000000000000000000000000000000000000000000000000000000000000000000000000000000000000000000000000000000000000000000000000000000000000000000000000000000000000000000000000000000000000000000000000000000000000000000000000000000000000000000000000000000000000000000000000000000000000000000000000000000000000000000000000000000000000000000000000000000000000000000000000000000000000000000000000000000000000000000000000000000000000000000000000000000000000000000000000000053230000000000000000000000000000000000000000000000000000000000000000000000000000000000000000000000000000000000000000000000000000000000000000000000000000000000000000000000000000000000000000000000000000000000000000000000000000000000000000000000000000000000000000000000000000000000000000000000000000000000000000000000000000000000000000000000000000000000000000000000000000000000000000000000000000000000000000000000000000000000000000000000000000000000000000000000000000000000000000000000000000000000000000000000000000000000000000000000000000000000000000000000000000000000000000000000000000000000000000000000000000000000000000000000000000000000000000000000000000000000000000000000000000000000000000000000000000000000000000000000000000000000000000000000000000000000000000000000000000000000000000000000000000000000000000000000000000000000000000000000000000000000000000000000000000000000000000000000000000000000000000000000000000000000000000000000000000000000000000000000000000000000000000000000000000000000000000000000000000000000000000000000000000000000000000000000000000000000000000000000000000000000000000000000000000000000000000000000000000000000000000000000000000000000000000000000000000000000000000000000000000000000000000000000000000000000000000000000000000000000000000000000000000000000000000000000000000000000000000000000000000000000000000000000000000000000000000000000000000000000000000000000000000000000000000000000000000000000000000000000000000000000000000000000000000000000000000000000000000000000000000000000000000000000000000000000000000000000000000000000000000000000000000000000000000000000000000000000000000000000000000000000000000000000000000000000000000000000000000000000000000000000000000000000000000000000000000000000000000000000000000000000000000000000000000000000000000000000000000000000000000000000000000000000000000000000000000000000000000000000000000000000000000000000000000000000000000000000000000000000000000000000000000000000000000000000000000000000000000000000000000000000000000000000000000000000000000000000000000000000000000000000000000000000000000000000000000000000000000000000000000000000000000000000000000000000000000000000000000000000000000000000000000000000000000000000000000000000000000000000000000000000000000000000000000000000000000000000000000000000000000000000000000000000000000000000000000000000000000000000000000000000000000000000000000000000000000000000000000000000
#000950:0000000000130000
#000920:000000000000000000000000000000000000000000000000000000000000000000000000000000000000000000000000000000000000000000000000000000000000000000000000000000000000000000000000000000000000000000000000000000000000000000000000000000000000000000000000000000000000000000000000000000000000000000000000000000000000000000000000000000000000000000000000000000000000000000000000000000000000000000000000000000000000000000000000000000000000000000000000000000000000000000000000000000000000000000000000000000000000000000000000000000000000000000000000000000000000000000000000000000000000000000000000000000000000000000000000000000000000000000000000000000000000000000000000000000000000000000000000000000000000000000000000000000000000000000000000000000000000000000000000000000000000000000000000000000000000000000000000000000000000000000000000000000000000000000000000000000000000000000000000000000000000000000000000000000000000000000000000000000000000000000000000000000000000000000000000000000000000000000000000000000000000000000000000000000000000000000000000000000000000000000000000000000000000000000000000000000000000000000000000000000000000000000000000000000000000000000000000000000000000000000000000000000000000000000000000000000000000000000000000000000000000000000000000000000000000000000000000000000000000000000000000000000000000000000000000000000000000000000000000000000000000000000000000000000000000000000000000000000000000000000000000000000000000000000000000000000000000000000000000000000000000000000000000000000000000000000000000000000000000000000000000000000000000000000000000000000000000000000000000000000000000000000000000000000000000000000000000000000000000000000000000000000000000000000000000000000000000000000000000000000000000000000000000000000000000000000000000000000000000000000000000000000000000000000000000000000000000000000000000000000000000000000000000000000000000000000000000000000000000000000000000000000000000000000000000000000000000000000000000000000000000000000000000000000000000000000000000000000000000000000000000000000000000000000000000000000000000000000000000000000000000000000000000000000000000000000000000000000000000000000000000000000000000000000000000000000000000000000000000000000000000000000000000000000000000000000000000000000000000000000000000000000000000000000000000000000000000000000000000000000000000000000000000000000000000000000000000000000000000000000000000000000000000000000000000000000000000000000000000000000000000000000000000000000000000000000000000000000000000000000000000000000000000000000000000000000000000000000000000000000000000000000000000000000000000000000000000000000000000000000000000000000000000000000000000000000000000000000000000000000000000000000000000000000000000000000000000000000000000000000000000000000000000000000000000000000000000000000000000000000000000000000000000000000000000000000000000000000000000000000000000000000000000000000000000000000000000000000000000000000000000000000000000000000000000000000000000000000000000000000000000000000000000000000000000000000000000000000000000000000000000000000000000000000000000000000000000000000000000000000000000000000000000000000000000000000000000000000000000000000000000000000000000000000000000000000000000000000000000000000000000000000000000000000000000000000000000000000000000000000000000000000000000000000000000000000000000000000000000000000000000000000000000000000000000000000000000000000000000000000000000000000000000000000000000000000000000000000000000000000000000000000000000000000000000000000000000000000000000000000000000000000000000000000000000000000000000000000000000000000000000000000000000000000000000000000000000000000000000000000000000000000000000000000000000000000000000000000000000000000000000000000000000000000000000000000000000000000000000000000000000000000000000000000000000000000000000000000000000000000000000000000000000000000000053
#001920:23
#0029b0:13
#002980:000000000000000000000000000000000000000000000000000000000000000000000000000000000000000000000000000000000000000000000000000000000000000000000000000000000000000000000000000000000000000000000000000000000000000000000000000000000000000000000000000000000000000000000000000000000000000000000000000000000000000000000000000000000000000000000000000000000000000000000000000000000000000000000000000000000000000000000000000000000000000000000000000000000000000000000000000000000000000000000000000000000000000000000000000000000000000000000000000000000000000000000000000000000000000000000000000000000000000000000000000000000000000000000000000000000000000000000000000000000000000000000000000000000000000000000000000000000000000000000000000000000000000000000000000000000000000000000000000000000000000000000000000000000000000000000000000000000000000000000000000000000000000000000000000000000000000000000000000000000000000000000000000000000000000000000000000000000000000000000000000000000000000000000000000000000000000000000000000000000000000000000000000000000000000000000000000000000000000000000000000000000000000000000000000000000000000000000000000000000000000000000000000000000000000000000000000000000000000000000000000000000000000000000000000000000000000000000000000000000000000000000000000000000000000000000000000000000000000000000000000000000000000000000000000000000000000000000000000000000000000000000000000000000000000000000000000000000000000000000053230000000000000000000000000000000000000000000000000000000000000000000000000000000000000000000000000000000000000000000000000000000000000000000000000000000000000000000000000000000000000000000000000000000000000000000000000000000000000000000000000000000000000000000000000000000000000000000000000000000000000000000000000000000000000000000000000000000000000000000000000000000000000000000000000000000000000000000000000000000000000000000000000000000000000000000000000000000000000000000000000000000000000000000000000000000000000000000000000000000000000000000000000000000000000000000000000000000000000000000000000000000000000000000000000000000000000000000000000000000000000000000000000000000000000000000000000000000000000000000000000000000000000000000000000000000000000000000000000000000000000000000000000000000000000000000000000000000000000000000000000000000000000000000000000000000000000000000000000000000000000000000000000000000000000000000000000000000000000000000000000000000000000000000000000000000000000000000000000000000000000000000000000000000000000000000000000000000000000000000000000000000000000000000000000000000000000000000000000000000000000000000000000000000000000000000000000000000000000000000000000000000000000000000000000000000000000000000000000000000000000000000000000000000000000000000000000000000000000000000000000000000000000000000000000000000000000000000000000000000000000000000000000000000000000000000000000000000000000000000000000000000000000000000000000000000000000000000000000000000000000000000000000000000000000000000000000000000000000000000000000000000000000000000000000000000000000000000000000000000000000000000000000000000000000000000000000000000000000000000000000000000000000000000000000000000000000000000000000000000000000000000000000000000000000000000000000000000000000000000000000000000000000000000000000000000000000000000000000000000000000000000000000000000000000000000000000000000000000000000000000000000000000000000000000000000000000000000000000000000000000000000000000000000000000000000000000000000000000000000000000000000000000000000000000000000000000000000000000000000000000000000000000000000000000000000000000000000000000000000000000000000000000000000000000000000000000000000000000000000000000000000000000000000000000000000000000000000000000000000000000000000000000000000000000000000000000000000000000000000000000000000000000000000000000000000000000000000000000000000000
#002920:0000000000130000
#002950:000000000000000000000000000000000000000000000000000000000000000000000000000000000000000000000000000000000000000000000000000000000000000000000000000000000000000000000000000000000000000000000000000000000000000000000000000000000000000000000000000000000000000000000000000000000000000000000000000000000000000000000000000000000000000000000000000000000000000000000000000000000000000000000000000000000000000000000000000000000000000000000000000000000000000000000000000000000000000000000000000000000000000000000000000000000000000000000000000000000000000000000000000000000000000000000000000000000000000000000000000000000000000000000000000000000000000000000000000000000000000000000000000000000000000000000000000000000000000000000000000000000000000000000000000000000000000000000000000000000000000000000000000000000000000000000000000000000000000000000000000000000000000000000000000000000000000000000000000000000000000000000000000000000000000000000000000000000000000000000000000000000000000000000000000000000000000000000000000000000000000000000000000000000000000000000000000000000000000000000000000000000000000000000000000000000000000000000000000000000000000000000000000000000000000000000000000000000000000000000000000000000000000000000000000000000000000000000000000000000000000000000000000000000000000000000000000000000000000000000000000000000000000000000000000000000000000000000000000000000000000000000000000000000000000000000000000000000000000000000000000000000000000000000000000000000000000000000000000000000000000000000000000000000000000000000000000000000000000000000000000000000000000000000000000000000000000000000000000000000000000000000000000000000000000000000000000000000000000000000000000000000000000000000000000000000000000000000000000000000000000000000000000000000000000000000000000000000000000000000000000000000000000000000000000000000000000000000000000000000000000000000000000000000000000000000000000000000000000000000000000000000000000000000000000000000000000000000000000000000000000000000000000000000000000000000000000000000000000000000000000000000000000000000000000000000000000000000000000000000000000000000000000000000000000000000000000000000000000000000000000000000000000000000000000000000000000000000000000000000000000000000000000000000000000000000000000000000000000000000000000000000000000000000000000000000000000000000000000000000000000000000000000000000000000000000000000000000000000000000000000000000000000000000000000000000000000000000000000000000000000000000000000000000000000000000000000000000000000000000000000000000000000000000000000000000000000000000000000000000000000000000000000000000000000000000000000000000000000000000000000000000000000000000000000000000000000000000000000000000000000000000000000000000000000000000000000000000000000000000000000000000000000000000000000000000000000000000000000000000000000000000000000000000000000000000000000000000000000000000000000000000000000000000000000000000000000000000000000000000000000000000000000000000000000000000000000000000000000000000000000000000000000000000000000000000000000000000000000000000000000000000000000000000000000000000000000000000000000000000000000000000000000000000000000000000000000000000000000000000000000000000000000000000000000000000000000000000000000000000000000000000000000000000000000000000000000000000000000000000000000000000000000000000000000000000000000000000000000000000000000000000000000000000000000000000000000000000000000000000000000000000000000000000000000000000000000000000000000000000000000000000000000000000000000000000000000000000000000000000000000000000000000000000000000000000000000000000000000000000000000000000000000000000000000000000000000000000000000000000000000000000000000000000000000000000000000000000000000000000000000000000000000000000000000000000000000000000000000000000000000000000000000000000000000000000000000000000000000000000053
#003950:23
