This file was generated by Ched 2.7.0.0.
#TITLE ""
#ARTIST ""
#DESIGNER ""
#DIFFICULTY 0
#PLAYLEVEL
#SONGID ""
#WAVE ""
#WAVEOFFSET 0
#JACKET ""
#REQUEST "ticks_per_beat 480"
#00002: 4
#BPM01: 135
#00008: 01
#TIL00: ""
#VOLUME: ""
#HISPEED 00
#MEASUREHS 00
#0251f:11
#02512:14141414
#0251b:0000000000000013
#02519:00000000000000000000001300000000
#02517:0000001313000000
#03716:0000000000001414
#03718:0013001316000000
#03715:00000000001300130000000000000000
#03712:00000013000000000000160000000000
#0371b:13
#03918:00000013000000130000130013000000
#03915:00001300000013000000001300001300
#03912:0013
#0391b:00000000001300000000000000000000
#03515:00000013000000130000130013000000
#03518:00001300000013000000001300001300
#0351b:0013
#03512:00000000001300000000000000000000
#03510:41
#01415:00000000000000130000000000000000
#01412:00001400240000000013000023001400
#01418:0000000000130000
#0141b:0000001300002300
#01416:00000000000000000000000000000014
#0141a:14
#01417:00000014000000000000000000000000
#01218:00000000000000130013000000000000
#01215:00000000000013000000130000000014
#0121a:0014240000000014
#01212:14000023
#01214:00000014000000000000000000000000
#0121b:00000023
#01015:00000000000000130013000000000000
#01018:00000000000013000000130000000014
#0101a:14
#01019:00000014000000000000000000000000
#01012:0014240000002314
#0101b:00000023
#0061b:00001300130000530000530000000013
#00612:00000014
#00615:00000013000000000000000000001300
#00618:13
#00619:00000000000053000053000053000000
#00415:00001300130000530000530000000000
#00416:00000014
#0041b:00000013000000000000000000000000
#00412:13000000000000000000000000000013
#00418:0000000000000013
#00413:00000000000053000053000053000000
#0421b:13
#04212:0026000013000000
#04218:00132613
#04215:0000001300130013
#05517:000000000000000000000000000000000000000000000000000000000000000000000000000000000000000000000000000000000000000000000000000000000000000000000000000000000000000000000000000000000000000000000000000000000000000000000000000000000000000000000000000000000000000000000000000000000000000000000000000000000000000000000000000000000000000000000000000000000000000000000000000000000000000000000000000000000000000000000000000000000000000000000000000000000000000000000000000000000000000000000000000000000000000000000000000000000000000000000000000000000000000000000000000000000000000000000000000000000000000000000000000000000000000000000000000000000000000000000000000000000000000000000000000000000000000000000000000000000000000000000000000000000000000000000000000000000000000000000000000000000000000000000000000000000000000000000000000000000000000000000000000000000000000000000000000000000000000000000000000000000000000000000000000000000000000000000000000000000000000000000000001400000000000000000000000000000000000000000000000000000000000000000000000000000000000000000000000000000000000000000000000000000000000000000000000000000000000000000000000000000000000000000000000000000000000000000000000000000000000000000000000000000000000000000000000000000000000000000000000000000000000000000000000000000000000000000000000000000000000000000000000000000000000000000000000000000000000000000000000000000000000000000000000000000000000000000000000000000000000000000000000000000000000000000000000000000000000000000000000000000000000000000000000000000000000000000000000000000000000000000000000000000000000000000000000000000000000000000000000000000000000000000000000000000000000000000000000000000000000000000000000000000000000000000000000000000000000000000000000000000000000000000000000000000000000000000000000000000000000000000000000000000000000000000000000000000000000000000000000000000000000000000000000000000000000000000000000000000000000000000000000000000000000000000000000000000000000000000000000000000000000000000000000000000000000000000000000000000000000000000000000000000000000000000000000000000000000000000000000000000000000000000000000000000000000000000000000000000000000000000000000000000000000000000000000000000000000000000000000000000000000000000000000000000000000000000000000000000000000000000000000000000000000000000000000000000000000000000000000000000000000000000000000000000000000000000000000000000000000000000000000000000000000000000000000000000000000000000000000000000000000000000000000000000000000000000000000000000000000000000000000000000000000000000000000000000000000000000000000000000000000000000000000000000000000000000000000000000000000000000000000000000000000000000000000000000000000000000000000000000000000000000000000000000000000000000000000000000000000000000000000000000000000000000000000000000000000000000000000000000000000000000000000000000000000000000000000000000000000000000000000000000000000000000000000000000000000000000000000000000000000000000000000000000000000000000000000000000000000000000000000000000000000000000000000000000000000000000000000000000000000000000000000000000000000000000000000000000000000000000000000000000000000000000000000000000000000000000000000000000000000000000000000000000000000000000000000000000000000000000000000000000000000000000000000000000000000000000000000000000000000000000000000000000000000000000000000000000000000000000000000000000000000000000000000000000000000000000000000000000000000000000000000000000000000000000000000000000000000000000000000000000000000000000000000000000000000000000000000000000000000000000000000000000000000000000000000000000000000000000000000000000000000000000000000000000000000000000000000000000000000000000000000000000000000000000000000000000000000000000000000000000000000000000000000000000000000000000000000000000000000000000000000000000000000000000000000000000000000000000000
#05515:00140000
#05512:14
#0551a:24
#05115:000000000000000000000000000000000000000000000000000000000000000000000000000000000000000000000000000000000000000000000000000000000000000000000000000000000000000000000000000000000000000000000000000000000000000000000000000000000000000000000000000000000000000000000000000000000000000000000000000000000000000000000000000000000000000000000000000000000000000000000000000000000000000000000000000000000000000000000000000000000000000000000000000000000000000000000000000000000000000000000000000000000000000000000000000000000000000000000000000000000000000000000000000000000000000000000000000000000000000000000000000000000000000000000000000000000000000000000000000000000000000000000000000000000000000000000000000000000000000000000000000000000000000000000000000000000000000000000000000000000000000000000000000000000000000000000000000000000000000000000000000000000000000000000000000000000000000000000000000000000000000000000000000000000000000000000000000000000000000000000000001400000000000000000000000000000000000000000000000000000000000000000000000000000000000000000000000000000000000000000000000000000000000000000000000000000000000000000000000000000000000000000000000000000000000000000000000000000000000000000000000000000000000000000000000000000000000000000000000000000000000000000000000000000000000000000000000000000000000000000000000000000000000000000000000000000000000000000000000000000000000000000000000000000000000000000000000000000000000000000000000000000000000000000000000000000000000000000000000000000000000000000000000000000000000000000000000000000000000000000000000000000000000000000000000000000000000000000000000000000000000000000000000000000000000000000000000000000000000000000000000000000000000000000000000000000000000000000000000000000000000000000000000000000000000000000000000000000000000000000000000000000000000000000000000000000000000000000000000000000000000000000000000000000000000000000000000000000000000000000000000000000000000000000000000000000000000000000000000000000000000000000000000000000000000000000000000000000000000000000000000000000000000000000000000000000000000000000000000000000000000000000000000000000000000000000000000000000000000000000000000000000000000000000000000000000000000000000000000000000000000000000000000000000000000000000000000000000000000000000000000000000000000000000000000000000000000000000000000000000000000000000000000000000000000000000000000000000000000000000000000000000000000000000000000000000000000000000000000000000000000000000000000000000000000000000000000000000000000000000000000000000000000000000000000000000000000000000000000000000000000000000000000000000000000000000000000000000000000000000000000000000000000000000000000000000000000000000000000000000000000000000000000000000000000000000000000000000000000000000000000000000000000000000000000000000000000000000000000000000000000000000000000000000000000000000000000000000000000000000000000000000000000000000000000000000000000000000000000000000000000000000000000000000000000000000000000000000000000000000000000000000000000000000000000000000000000000000000000000000000000000000000000000000000000000000000000000000000000000000000000000000000000000000000000000000000000000000000000000000000000000000000000000000000000000000000000000000000000000000000000000000000000000000000000000000000000000000000000000000000000000000000000000000000000000000000000000000000000000000000000000000000000000000000000000000000000000000000000000000000000000000000000000000000000000000000000000000000000000000000000000000000000000000000000000000000000000000000000000000000000000000000000000000000000000000000000000000000000000000000000000000000000000000000000000000000000000000000000000000000000000000000000000000000000000000000000000000000000000000000000000000000000000000000000000000000000000000000000000000000000000000000000000000000000000000000000000000000000000000000
#05117:00140000
#0511a:14
#05112:24
#0561a:00140024
#05616:24240014
#05612:2424
#05212:00140024
#05216:24240014
#0521a:2424
#03218:13
#03215:13
#06518:00000000000000000000000000000016
#06512:00000000000000150000000000001600
#06517:0000001525000000
#06515:24
#06416:00000000000000120000120000000000
#06418:13000013000012000012000000000000
#06412:0013000000001400
#06415:0000130000000014
#0641a:00000014
#06419:00000000000000000000000000000014
#06318:00000000000000130000000013000000
#06312:0000001300000000
#06315:00000000130000000000000000000013
#0631b:0000000000000013
#06215:00000013000000000000000000000013
#0621b:0000130000000013
#06218:00001300000000120000120000000000
#06216:00000000000012000012000000000000
#0621a:00000014
#06212:13000014
#06115:00000000000000130000000000001300
#06118:00000000000013000000000000000013
#06112:00000013
#0611b:00130000
#06018:00000013000012000012000000000013
#06015:0000000000000013
#06016:00000000000000120000120000000000
#06012:0013130000001400
#0601a:00000014
#0601b:13
#05812:12000012
#05814:0000000000120000
#05816:0012
#05818:0000001200000000
#0581a:00120000
#0581c:0012000000000000
#05815:00000000000000000000000000000013
#0581b:0000000000000013
#05918:00000000000000130000000013000000
#05912:0000001300000000
#05915:00000000130000000000000000000013
#0591b:0000000000000013
#00718:00000000000000130000000013000000
#00712:0000001300000000
#00715:0000000000000013
#0071b:00000000130000000000000000000013
#0031b:00000000000000130000000013000000
#00315:0000001300000000
#00318:00000000130000000000000000000013
#00312:0000000000000013
#00218:00001300130000530000530000000013
#00212:00000013000000000000000000001300
#00216:00000014
#0021b:13
#0021a:00000000000053000053000053000000
#00515:00000000000000130000000013000000
#0051b:0000001300000000
#00518:0000000000000013
#00512:00000000130000000000000000000013
#00112:00000000000000130000000013000000
#00118:0000001300000000
#00115:00000000130000000000000000000013
#0011b:0000000000000013
#01615:0000130000160000
#01618:00000013000000001600000000000000
#01616:00000000000014000000000000000014
#01612:14000026
#0161a:0000000000000014
#0091a:1400000000000014
#00913:00000000000000000000000000000014
#0091b:0000000000130000
#00912:0013001414000000
#00919:00000000000000140000000000000000
#00915:00260026
#00910:41
#0081a:0000000000000014
#00813:00000000000000000000000000000014
#00818:00260000
#00812:00260000
#01512:1400000000130014
#01516:00000000000000140000000000000014
#0151a:0000001414000000
#0151b:0013000000000000
#01515:00260026
#01510:41
#0131a:1400000000000014
#01315:00000000260000000000000026000014
#0131b:0000000000130000
#01312:0013001414000000
#01317:00000000000000140000000000000000
#01112:1400000000130014
#01118:00000000000000000000000000000014
#0111a:0000001414000000
#01114:00000000000000140000000000000000
#0111b:0013000000000000
#01115:00260026
#0311a:14
#03115:00000013000000000000001300000000
#03118:00000000000000130000130000000000
#03112:0000001300000000
#0311b:0013000000000000
#03015:0000000000000013
#03012:14000000000000000000001300000000
#03018:00000014
#0301b:13
#03016:0014
#03014:00140000
#02912:14141414
#0291b:0000000000000013
#02919:00000000000000000000001300000000
#02917:0000001313000000
#0281b:00000013
#0281a:14
#02812:13
#02814:00000014
#02816:0014
#02818:00140000
#0271a:14141414
#02712:0000000000000013
#02714:00000000000000000000001300000000
#02716:0000001313000000
#02612:14000013
#0261b:13
#02618:00000014
#02616:0014
#02614:00140000
#0241b:00000013
#02416:00000013
#02412:13
#02417:13
#02415:0026
#04912:15230000
#04919:15
#04915:00260000
#04814:0000140000000015
#04817:0000001400001500
#0481a:0014
#04812:1314
#0481b:13
#04715:0000000000000013
#04718:00000013
#04716:0013
#0471b:1313
#04714:0000001300000000
#04712:13130000
#04719:0013000000000000
#04717:00130000
#04612:0026000013000000
#04618:00132613
#04615:0000001300130013
#0461b:13
#04610:41
#04516:00130013
#04517:0013
#04512:1313
#04519:0000001300000000
#0451b:13130000
#04514:0013000000000000
#04317:00130013
#04316:0013
#04314:0000001300000000
#04312:13130000
#0431b:1313
#04319:0013000000000000
#0441b:0013
#04415:00130013
#04418:0026001300130013
#04412:1326
#04018:00000000130000000000000000130013
#04015:0000000000001313
#04012:24130000
#0401b:00000000000000130000000000000000
#0401a:24
#0381b:0013
#03818:00130013
#03815:0000230000130000
#03812:24000000000000130000000000000000
#0381a:24
#03412:2413
#03415:00000000130000000000001300000000
#03418:0000230000130000
#0341b:00000000000000130000000000000000
#0341f:21
#0341a:24
#02012:0000000013001314
#02016:13000000000000000000000000000014
#02019:0013
#02013:0000001300000000
#02014:00130000
#0201b:13
#02018:0000000000130000
#02017:00000013
#02314:00000013
#02319:00000013
#0231a:0000000000130000
#02313:0000000000000013
#02316:1413
#0231b:00131300
#02216:0000000000001414
#0221a:00000000000000000000000000000014
#02219:0000141414000000
#02215:00000000000000140000000000000000
#02214:14
#02114:0000000000001414
#02117:0000141414000000
#02118:00000000000000000000000000000014
#02113:00000000000000140000000000000000
#02112:14
#02110:41
#01919:00000013
#01914:00000013
#01913:0000000000130000
#0191a:0000000000000013
#01917:0013
#01912:00131300
#01916:14
#01816:0000000000001414
#01812:00000000000000000000000000000014
#01813:0000141414000000
#01817:00000000000000140000000000000000
#01818:14
#01718:0000000000001414
#01715:0000141414000000
#01714:00000000000000000000000000000014
#01719:00000000000000140000000000000000
#0171a:14
#00015:00000000000000000000000000000013
#0001b:0000000000000013
#0361b:00130000
#03612:24000000000000130000000000000000
#03615:00130000
#0361a:24
#0411b:0000000000230000
#04112:24000023
#04114:0028
#04118:0000002500000000
#04113:00250000
#0411a:0024000000000000
#05416:2424
#05418:00000024
#05414:00240000
#05410:41
#05016:2424
#05014:00000024
#05018:00240000
#05716:24242800
#05316:24240000
#05312:0028
#06612:26
#0545a:0014
#05452:14
#05456:5464
#05558:0016
#05552:5416
#0555a:64
#05557:000000000000000000000000000000000000000000000000000000000000000000000000000000000000000000000000000000000000000000000000000000000000000000000000000000000000000000000000000000000000000000000000000000000000000000000000000000000000000000000000000000000000000000000000000000000000000000000000000000000000000000000000000000000000000000000000000000000000000000000000000000000000000000000000000000000000000000000000000000000000000000000000000000000000000000000000000000000000000000000000000000000000000000000000000000000000000000000000000000000000000000000000000000000000000000000000000000000000000000000000000000000000000000000000000000000000000000000000000000000000000000000000000000000000000000000000000000000000000000000000000000000000000000000000000000000000000000000000000000000000000000000000000000000000000000000000000000000000000000000000000000000000000000000000000000000000000000000000000000000000000000000000000000000000000000000000000000000000000000000000005400000000000000000000000000000000000000000000000000000000000000000000000000000000000000000000000000000000000000000000000000000000000000000000000000000000000000000000000000000000000000000000000000000000000000000000000000000000000000000000000000000000000000000000000000000000000000000000000000000000000000000000000000000000000000000000000000000000000000000000000000000000000000000000000000000000000000000000000000000000000000000000000000000000000000000000000000000000000000000000000000000000000000000000000000000000000000000000000000000000000000000000000000000000000000000000000000000000000000000000000000000000000000000000000000000000000000000000000000000000000000000000000000000000000000000000000000000000000000000000000000000000000000000000000000000000000000000000000000000000000000000000000000000000000000000000000000000000000000000000000000000000000000000000000000000000000000000000000000000000000000000000000000000000000000000000000000000000000000000000000000000000000000000000000000000000000000000000000000000000000000000000000000000000000000000000000000000000000000000000000000000000000000000000000000000000000000000000000000000000000000000000000000000000000000000000000000000000000000000000000000000000000000000000000000000000000000000000000000000000000000000000000000000000000000000000000000000000000000000000000000000000000000000000000000000000000000000000000000000000000000000000000000000000000000000000000000000000000000000000000000000000000000000000000000000000000000000000000000000000000000000000000000000000000000000000000000000000000000000000000000000000000000000000000000000000000000000000000000000000000000000000000000000000000000000000000000000000000000000000000000000000000000000000000000000000000000000000000000000000000000000000000000000000000000000000000000000000000000000000000000000000000000000000000000000000000000000000000000000000000000000000000000000000000000000000000000000000000000000000000000000000000000000000000000000000000000000000000000000000000000000000000000000000000000000000000000000000000000000000000000000000000000000000000000000000000000000000000000000000000000000000000000000000000000000000000000000000000000000000000000000000000000000000000000000000000000000000000000000000000000000000000000000000000000000000000000000000000000000000000000000000000000000000000000000000000000000000000000000000000000000000000000000000000000000000000000000000000000000000000000000000000000000000000000000000000000000000000000000000000000000000000000000000000000000000000000000000000000000000000000000000000000000000000000000000000000000000000000000000000000000000000000000000000000000000000000000000000000000000000000000000000000000000000000000000000000000000000000000000000000000000000000000000000000000000000000000000000000000000000000000000000000000000000000000000000000000000000000000000000000000000000000000000000000000000000000000000000000000000
#05555:00640000
#05052:0014
#0505a:14
#05056:6454
#05152:5416
#05158:0016
#05155:000000000000000000000000000000000000000000000000000000000000000000000000000000000000000000000000000000000000000000000000000000000000000000000000000000000000000000000000000000000000000000000000000000000000000000000000000000000000000000000000000000000000000000000000000000000000000000000000000000000000000000000000000000000000000000000000000000000000000000000000000000000000000000000000000000000000000000000000000000000000000000000000000000000000000000000000000000000000000000000000000000000000000000000000000000000000000000000000000000000000000000000000000000000000000000000000000000000000000000000000000000000000000000000000000000000000000000000000000000000000000000000000000000000000000000000000000000000000000000000000000000000000000000000000000000000000000000000000000000000000000000000000000000000000000000000000000000000000000000000000000000000000000000000000000000000000000000000000000000000000000000000000000000000000000000000000000000000000000000000000006400000000000000000000000000000000000000000000000000000000000000000000000000000000000000000000000000000000000000000000000000000000000000000000000000000000000000000000000000000000000000000000000000000000000000000000000000000000000000000000000000000000000000000000000000000000000000000000000000000000000000000000000000000000000000000000000000000000000000000000000000000000000000000000000000000000000000000000000000000000000000000000000000000000000000000000000000000000000000000000000000000000000000000000000000000000000000000000000000000000000000000000000000000000000000000000000000000000000000000000000000000000000000000000000000000000000000000000000000000000000000000000000000000000000000000000000000000000000000000000000000000000000000000000000000000000000000000000000000000000000000000000000000000000000000000000000000000000000000000000000000000000000000000000000000000000000000000000000000000000000000000000000000000000000000000000000000000000000000000000000000000000000000000000000000000000000000000000000000000000000000000000000000000000000000000000000000000000000000000000000000000000000000000000000000000000000000000000000000000000000000000000000000000000000000000000000000000000000000000000000000000000000000000000000000000000000000000000000000000000000000000000000000000000000000000000000000000000000000000000000000000000000000000000000000000000000000000000000000000000000000000000000000000000000000000000000000000000000000000000000000000000000000000000000000000000000000000000000000000000000000000000000000000000000000000000000000000000000000000000000000000000000000000000000000000000000000000000000000000000000000000000000000000000000000000000000000000000000000000000000000000000000000000000000000000000000000000000000000000000000000000000000000000000000000000000000000000000000000000000000000000000000000000000000000000000000000000000000000000000000000000000000000000000000000000000000000000000000000000000000000000000000000000000000000000000000000000000000000000000000000000000000000000000000000000000000000000000000000000000000000000000000000000000000000000000000000000000000000000000000000000000000000000000000000000000000000000000000000000000000000000000000000000000000000000000000000000000000000000000000000000000000000000000000000000000000000000000000000000000000000000000000000000000000000000000000000000000000000000000000000000000000000000000000000000000000000000000000000000000000000000000000000000000000000000000000000000000000000000000000000000000000000000000000000000000000000000000000000000000000000000000000000000000000000000000000000000000000000000000000000000000000000000000000000000000000000000000000000000000000000000000000000000000000000000000000000000000000000000000000000000000000000000000000000000000000000000000000000000000000000000000000000000000000000000000000000000000000000000000000000000000000000000000000000000000000000000000000000000000
#05157:00540000
#0515a:64
#05752:1414
#0575a:00140000
#05756:54645800
#05656:54001464
#05652:1454
#0565a:00640000
#0535a:1414
#05352:00146800
#05356:64540000
#05256:64001454
#0525a:1464
#05252:00540000
#0455b:00000013
#04556:00000063
#04557:0053
#04352:00000013
#04357:00000053
#04356:0063
#0415b:00000013
#04152:14000013
#04154:0018
#04158:0000001500000000
#04153:00150000
#0415a:0014000000000000
#0395b:13
#03952:1313
#03552:13
#0355b:1313
#02357:00140000
#02356:54
#0225a:00000014
#02255:00140000
#02259:0054
#02254:54
#02158:00000014
#02153:00140000
#02157:0054
#02152:54
#01955:00140000
#01956:64
#01852:00000014
#01857:00140000
#01853:0064
#01858:64
#01754:00000014
#01759:00140000
#01755:0064
#0175a:64
#00858:00160000
#00852:00160000
#01652:00000016
#01355:00160000
#00955:00160000
#03452:1453
#0345a:14
#03455:00630000
#04955:00560000
#04952:65130000
#04959:15
#04052:14530000
#0405a:14
#0385a:14
#03852:14
#0385b:0063
#03858:00530000
#0365a:14
#03652:14
#0365b:00630000
#02455:0016
#0245b:00000063
#02452:53
#03258:53
#03255:63
#0285b:00000063
#02652:00000053
#04852:0014
#0485b:13
#04756:0063
#03758:0016
#03752:00000013000000000000160000000000
#0375b:13
#0205b:63
#0013b0:13230000
#001380:00001323
#003320:13230000
#003350:00001323
#005380:13230000
#0053b0:00001323
#007350:13230000
#007320:00001323
#008350:13
#008320:00260000
#0173a0:14
#017390:00240000
#017350:0014
#017340:00000024
#018380:14
#018370:00240000
#018330:0014
#018320:00000024
#019360:14
#019350:00240000
#0203b0:13
#020390:00230000
#021320:14
#021330:00240000
#021370:0014
#021380:00000024
#022340:14
#022350:00240000
#022390:0014
#0223a0:00000024
#023360:14
#023370:00240000
#024320:13
#024350:0026
#0243b0:00000013
#025370:23
#026320:00000013
#027360:23
#0283b0:00000013
#029370:23
#031350:1323000000000000
#0313b0:0000132300000000
#031320:0000000013230000
#031380:0000000000001323
#031351:0000000000000013
#032351:33
#033321:3500000035000000350000003500000035000000000000000054000000000000
#033341:0000340000003400000034000000340000540000000000003400000000000000
#034321:24
#032380:13
#033390:3535353535000000
#033380:0000340000003400000034000000340000540000000000003400000000000000
#0333a0:0000000000000000000000000000000000000000000000000054000000000000
#0343a0:24
#034350:00130000
#034320:00000000000000230000000000000000
#034320:0013
#034350:0000000000230000
#0343b0:00000013
#0353b0:23
#034321:0000000000000013
#035321:23
#0363b1:00130000
#036381:00000000000000230000000000000000
#036381:0000000013230000
#036320:0000000000132300
#0363b1:0000000000001323
#036350:0000000000000013
#037350:23
#038380:00130000
#0383b0:00000000000000230000000000000000
#0383b0:0013
#038380:0000000000230000
#038320:00000013
#039320:23
#0383b1:0000000000000013
#0393b1:23
#040321:00130000
#040351:00000000000000230000000000000000
#040351:0000000013230000
#0403b0:0000000000132300
#0413b0:0000000000132300
#043360:0013
#043320:00000023
#043371:00000013
#0443b1:23
#045371:0013
#0453b1:00000023
#045360:00000013
#046320:23
#047360:0013
#047320:00000023
#049320:15230000
#049351:00160000
#0503a1:24
#050360:14
#050320:0024
#050361:0014
#0513a1:34
#051371:00340000
#051381:0026
#051320:1426
#051350:000000000000000000000000000000000000000000000000000000000000000000000000000000000000000000000000000000000000000000000000000000000000000000000000000000000000000000000000000000000000000000000000000000000000000000000000000000000000000000000000000000000000000000000000000000000000000000000000000000000000000000000000000000000000000000000000000000000000000000000000000000000000000000000000000000000000000000000000000000000000000000000000000000000000000000000000000000000000000000000000000000000000000000000000000000000000000000000000000000000000000000000000000000000000000000000000000000000000000000000000000000000000000000000000000000000000000000000000000000000000000000000000000000000000000000000000000000000000000000000000000000000000000000000000000000000000000000000000000000000000000000000000000000000000000000000000000000000000000000000000000000000000000000000000000000000000000000000000000000000000000000000000000000000000000000000000000000000000000000000000003400000000000000000000000000000000000000000000000000000000000000000000000000000000000000000000000000000000000000000000000000000000000000000000000000000000000000000000000000000000000000000000000000000000000000000000000000000000000000000000000000000000000000000000000000000000000000000000000000000000000000000000000000000000000000000000000000000000000000000000000000000000000000000000000000000000000000000000000000000000000000000000000000000000000000000000000000000000000000000000000000000000000000000000000000000000000000000000000000000000000000000000000000000000000000000000000000000000000000000000000000000000000000000000000000000000000000000000000000000000000000000000000000000000000000000000000000000000000000000000000000000000000000000000000000000000000000000000000000000000000000000000000000000000000000000000000000000000000000000000000000000000000000000000000000000000000000000000000000000000000000000000000000000000000000000000000000000000000000000000000000000000000000000000000000000000000000000000000000000000000000000000000000000000000000000000000000000000000000000000000000000000000000000000000000000000000000000000000000000000000000000000000000000000000000000000000000000000000000000000000000000000000000000000000000000000000000000000000000000000000000000000000000000000000000000000000000000000000000000000000000000000000000000000000000000000000000000000000000000000000000000000000000000000000000000000000000000000000000000000000000000000000000000000000000000000000000000000000000000000000000000000000000000000000000000000000000000000000000000000000000000000000000000000000000000000000000000000000000000000000000000000000000000000000000000000000000000000000000000000000000000000000000000000000000000000000000000000000000000000000000000000000000000000000000000000000000000000000000000000000000000000000000000000000000000000000000000000000000000000000000000000000000000000000000000000000000000000000000000000000000000000000000000000000000000000000000000000000000000000000000000000000000000000000000000000000000000000000000000000000000000000000000000000000000000000000000000000000000000000000000000000000000000000000000000000000000000000000000000000000000000000000000000000000000000000000000000000000000000000000000000000000000000000000000000000000000000000000000000000000000000000000000000000000000000000000000000000000000000000000000000000000000000000000000000000000000000000000000000000000000000000000000000000000000000000000000000000000000000000000000000000000000000000000000000000000000000000000000000000000000000000000000000000000000000000000000000000000000000000000000000000000000000000000000000000000000000000000000000000000000000000000000000000000000000000000000000000000000000000000000000000000000000000000000000000000000000000000000000000000000000000000000000000000000000000000000000000000000000000000000000000000000000000000000000000000000000000000000000000
#052360:1424
#052320:00340000
#0523a1:0014
#052361:00000034
#0533a1:24
#053360:14
#053320:00240000
#053361:00140000
#0533a1:0024
#053320:0018
#054320:24
#054361:14
#0543a1:0024
#054360:0014
#055320:3426
#055350:00340000
#0553a1:14
#055371:000000000000000000000000000000000000000000000000000000000000000000000000000000000000000000000000000000000000000000000000000000000000000000000000000000000000000000000000000000000000000000000000000000000000000000000000000000000000000000000000000000000000000000000000000000000000000000000000000000000000000000000000000000000000000000000000000000000000000000000000000000000000000000000000000000000000000000000000000000000000000000000000000000000000000000000000000000000000000000000000000000000000000000000000000000000000000000000000000000000000000000000000000000000000000000000000000000000000000000000000000000000000000000000000000000000000000000000000000000000000000000000000000000000000000000000000000000000000000000000000000000000000000000000000000000000000000000000000000000000000000000000000000000000000000000000000000000000000000000000000000000000000000000000000000000000000000000000000000000000000000000000000000000000000000000000000000000000000000000000000003400000000000000000000000000000000000000000000000000000000000000000000000000000000000000000000000000000000000000000000000000000000000000000000000000000000000000000000000000000000000000000000000000000000000000000000000000000000000000000000000000000000000000000000000000000000000000000000000000000000000000000000000000000000000000000000000000000000000000000000000000000000000000000000000000000000000000000000000000000000000000000000000000000000000000000000000000000000000000000000000000000000000000000000000000000000000000000000000000000000000000000000000000000000000000000000000000000000000000000000000000000000000000000000000000000000000000000000000000000000000000000000000000000000000000000000000000000000000000000000000000000000000000000000000000000000000000000000000000000000000000000000000000000000000000000000000000000000000000000000000000000000000000000000000000000000000000000000000000000000000000000000000000000000000000000000000000000000000000000000000000000000000000000000000000000000000000000000000000000000000000000000000000000000000000000000000000000000000000000000000000000000000000000000000000000000000000000000000000000000000000000000000000000000000000000000000000000000000000000000000000000000000000000000000000000000000000000000000000000000000000000000000000000000000000000000000000000000000000000000000000000000000000000000000000000000000000000000000000000000000000000000000000000000000000000000000000000000000000000000000000000000000000000000000000000000000000000000000000000000000000000000000000000000000000000000000000000000000000000000000000000000000000000000000000000000000000000000000000000000000000000000000000000000000000000000000000000000000000000000000000000000000000000000000000000000000000000000000000000000000000000000000000000000000000000000000000000000000000000000000000000000000000000000000000000000000000000000000000000000000000000000000000000000000000000000000000000000000000000000000000000000000000000000000000000000000000000000000000000000000000000000000000000000000000000000000000000000000000000000000000000000000000000000000000000000000000000000000000000000000000000000000000000000000000000000000000000000000000000000000000000000000000000000000000000000000000000000000000000000000000000000000000000000000000000000000000000000000000000000000000000000000000000000000000000000000000000000000000000000000000000000000000000000000000000000000000000000000000000000000000000000000000000000000000000000000000000000000000000000000000000000000000000000000000000000000000000000000000000000000000000000000000000000000000000000000000000000000000000000000000000000000000000000000000000000000000000000000000000000000000000000000000000000000000000000000000000000000000000000000000000000000000000000000000000000000000000000000000000000000000000000000000000000000000000000000000000000000000000000000000000000000000000000000000000000000000000000000000000000
#055381:0026
#056361:1424
#0563a1:00340000
#056320:0014
#056360:00000034
#057320:24
#057361:14
#0573a1:00240000
#057360:00140000
#057320:0024
#057361:0018
#0583c1:22
#0593b1:13230000
#059321:00001323
#061321:13230000
#0613b1:00001323
#063381:13230000
#063351:00001323
#065351:14
#065321:0055000000000000000000002500000000000000000000000000000000000000
#065371:0015
#065381:0000000000000000000000000000000000560000000000000000000026000000
#002980:00000000130000530000530000000000
#0029a0:000000000000000000000000000000000000000000000000000000000000000000000000000000000000000000000000000000000000000000000000000000000000000000000000000000000000000000000000000000000000000000000000000000000000000000000000000000000000000000000000000000000000000000000000000000000000000000000000000000000000000000000000000000000000000000000000000000000000000000000000000000000000000000000000000000000000000000000000000000000000000000000000000000000000000000000000000000000000000000000000000000000000000000000000000000000000000000000000000000000000000000000000000000000000000000000000000000000000000000000000000000000000000000000000000000000000000000000000000000000000000000000000000000000000000000000000000000000000000000000000000000000000000000000000000000000000000000000000000000000000000000000000000000000000000000000000000000000000000000000000000000000000000000000000000000000000000000000000000000000000000000000000000000000000000000000000000000000000000000000000000000000000000000000000000000000000000000000000000000000000000000000000000000000000000000000000000000000000000000000000000000000000000000000000000000000000000000000000000000000000000000000000000000000000000000000000000000000000000000000000000000000000000000000000000000000000000000000000000000000000000000000000000000000000000000000000000000000000000000000000000000000000000000000000000000000000000000000000000000000000000000000000000000000000000000000000000000000000000000000000530000000000000000000000000000000000000000000000000000000000000000000000000000000000000000000000000000000000000000000000000000000000000000000000000000000000000000000000000000000000000000000000000000000000000000000000000000000000000000000000000000000000000000000000000000000000000000000000000000000000000000000000000000000000000000000000000000000000000000000000000000000000000000000000000000000000000000000000000000000000000000000000000000000000000000000000000000000000000000000000000000000000000000000000000000000000000000000000000000000000000000000000000000000000000000000000000000000000000000000000000000000000000000000000000000000000000000000000000000000000000000000000000000000000000000000000000000000000000000000000530000000000000000000000000000000000000000000000000000000000000000000000000000000000000000000000000000000000000000000000000000000000000000000000000000000000000000000000000000000000000000000000000000000000000000000000000000000000000000000000000000000000000000000000000000000000000000000000000000000000000000000000000000000000000000000000000000000000000000000000000000000000000000000000000000000000000000000000000000000000000000000000000000000000000000000000000000000000000000000000000000000000000000000000000000000000000000000000000000000000000000000000000000000000000000000000000000000000000000000000000000000000000000000000000000000000000000000000000000000000000000000000000000000000000000000000000000000000005353535353230000000000000000000000000000000000000000000000000000000000000000000000000000000000000000000000000000000000000000000000000000000000000000000000000000000000000000000000000000000000000000000000000000000000000000000000000000000000000000000000000000000000000000000000000000000000000000000000000000000000000000000000000000000000000000000000000000000000000000000000000000000000000000000000000000000000000000000000000000000000000000000000000000000000000000000000000000000000000000000000000000000000000000000000000000000000000000000000000000000000000000000000000000000000000000000000000000000000000000000000000000000000000000000000000000000000000000000000000000000000000000000000000000000000000000000000000000000000000000000000000000000000000000000000000000000000000000000000000000000000000000000000000000000000000000000000000000000000000000000000000000000000000000000000000000000000000000000000000000000000000000000000000000000000000000000000000000000000000000000000
#004950:00000000130000530000530000000000
#004930:000000000000000000000000000000000000000000000000000000000000000000000000000000000000000000000000000000000000000000000000000000000000000000000000000000000000000000000000000000000000000000000000000000000000000000000000000000000000000000000000000000000000000000000000000000000000000000000000000000000000000000000000000000000000000000000000000000000000000000000000000000000000000000000000000000000000000000000000000000000000000000000000000000000000000000000000000000000000000000000000000000000000000000000000000000000000000000000000000000000000000000000000000000000000000000000000000000000000000000000000000000000000000000000000000000000000000000000000000000000000000000000000000000000000000000000000000000000000000000000000000000000000000000000000000000000000000000000000000000000000000000000000000000000000000000000000000000000000000000000000000000000000000000000000000000000000000000000000000000000000000000000000000000000000000000000000000000000000000000000000000000000000000000000000000000000000000000000000000000000000000000000000000000000000000000000000000000000000000000000000000000000000000000000000000000000000000000000000000000000000000000000000000000000000000000000000000000000000000000000000000000000000000000000000000000000000000000000000000000000000000000000000000000000000000000000000000000000000000000000000000000000000000000000000000000000000000000000000000000000000000000000000000000000000000000000000000000000000000000000000530000000000000000000000000000000000000000000000000000000000000000000000000000000000000000000000000000000000000000000000000000000000000000000000000000000000000000000000000000000000000000000000000000000000000000000000000000000000000000000000000000000000000000000000000000000000000000000000000000000000000000000000000000000000000000000000000000000000000000000000000000000000000000000000000000000000000000000000000000000000000000000000000000000000000000000000000000000000000000000000000000000000000000000000000000000000000000000000000000000000000000000000000000000000000000000000000000000000000000000000000000000000000000000000000000000000000000000000000000000000000000000000000000000000000000000000000000000000000000000000530000000000000000000000000000000000000000000000000000000000000000000000000000000000000000000000000000000000000000000000000000000000000000000000000000000000000000000000000000000000000000000000000000000000000000000000000000000000000000000000000000000000000000000000000000000000000000000000000000000000000000000000000000000000000000000000000000000000000000000000000000000000000000000000000000000000000000000000000000000000000000000000000000000000000000000000000000000000000000000000000000000000000000000000000000000000000000000000000000000000000000000000000000000000000000000000000000000000000000000000000000000000000000000000000000000000000000000000000000000000000000000000000000000000000000000000000000000000005353535353230000000000000000000000000000000000000000000000000000000000000000000000000000000000000000000000000000000000000000000000000000000000000000000000000000000000000000000000000000000000000000000000000000000000000000000000000000000000000000000000000000000000000000000000000000000000000000000000000000000000000000000000000000000000000000000000000000000000000000000000000000000000000000000000000000000000000000000000000000000000000000000000000000000000000000000000000000000000000000000000000000000000000000000000000000000000000000000000000000000000000000000000000000000000000000000000000000000000000000000000000000000000000000000000000000000000000000000000000000000000000000000000000000000000000000000000000000000000000000000000000000000000000000000000000000000000000000000000000000000000000000000000000000000000000000000000000000000000000000000000000000000000000000000000000000000000000000000000000000000000000000000000000000000000000000000000000000000000000000000000
#0069b0:00000000130000530000530000000000
#006990:000000000000000000000000000000000000000000000000000000000000000000000000000000000000000000000000000000000000000000000000000000000000000000000000000000000000000000000000000000000000000000000000000000000000000000000000000000000000000000000000000000000000000000000000000000000000000000000000000000000000000000000000000000000000000000000000000000000000000000000000000000000000000000000000000000000000000000000000000000000000000000000000000000000000000000000000000000000000000000000000000000000000000000000000000000000000000000000000000000000000000000000000000000000000000000000000000000000000000000000000000000000000000000000000000000000000000000000000000000000000000000000000000000000000000000000000000000000000000000000000000000000000000000000000000000000000000000000000000000000000000000000000000000000000000000000000000000000000000000000000000000000000000000000000000000000000000000000000000000000000000000000000000000000000000000000000000000000000000000000000000000000000000000000000000000000000000000000000000000000000000000000000000000000000000000000000000000000000000000000000000000000000000000000000000000000000000000000000000000000000000000000000000000000000000000000000000000000000000000000000000000000000000000000000000000000000000000000000000000000000000000000000000000000000000000000000000000000000000000000000000000000000000000000000000000000000000000000000000000000000000000000000000000000000000000000000000000000000000000000000530000000000000000000000000000000000000000000000000000000000000000000000000000000000000000000000000000000000000000000000000000000000000000000000000000000000000000000000000000000000000000000000000000000000000000000000000000000000000000000000000000000000000000000000000000000000000000000000000000000000000000000000000000000000000000000000000000000000000000000000000000000000000000000000000000000000000000000000000000000000000000000000000000000000000000000000000000000000000000000000000000000000000000000000000000000000000000000000000000000000000000000000000000000000000000000000000000000000000000000000000000000000000000000000000000000000000000000000000000000000000000000000000000000000000000000000000000000000000000000000530000000000000000000000000000000000000000000000000000000000000000000000000000000000000000000000000000000000000000000000000000000000000000000000000000000000000000000000000000000000000000000000000000000000000000000000000000000000000000000000000000000000000000000000000000000000000000000000000000000000000000000000000000000000000000000000000000000000000000000000000000000000000000000000000000000000000000000000000000000000000000000000000000000000000000000000000000000000000000000000000000000000000000000000000000000000000000000000000000000000000000000000000000000000000000000000000000000000000000000000000000000000000000000000000000000000000000000000000000000000000000000000000000000000000000000000000000000000005353535353230000000000000000000000000000000000000000000000000000000000000000000000000000000000000000000000000000000000000000000000000000000000000000000000000000000000000000000000000000000000000000000000000000000000000000000000000000000000000000000000000000000000000000000000000000000000000000000000000000000000000000000000000000000000000000000000000000000000000000000000000000000000000000000000000000000000000000000000000000000000000000000000000000000000000000000000000000000000000000000000000000000000000000000000000000000000000000000000000000000000000000000000000000000000000000000000000000000000000000000000000000000000000000000000000000000000000000000000000000000000000000000000000000000000000000000000000000000000000000000000000000000000000000000000000000000000000000000000000000000000000000000000000000000000000000000000000000000000000000000000000000000000000000000000000000000000000000000000000000000000000000000000000000000000000000000000000000000000000000000000
