This file was generated by Ched 2.7.0.0.
#TITLE ""
#ARTIST ""
#DESIGNER ""
#DIFFICULTY 0
#PLAYLEVEL
#SONGID ""
#WAVE ""
#WAVEOFFSET 0
#JACKET ""
#REQUEST "ticks_per_beat 480"
#00002: 4
#BPM01: 135
#00008: 01
#TIL00: ""
#VOLUME: ""
#HISPEED 00
#MEASUREHS 00
#0441b:1323
#04418:00130013
#04415:0000001300130000
#04412:0023000000000013
#05814:12
#05815:00000000000000000000000000000013
#0581a:00120000
#05816:00001212
#05818:0000000000120013
#00215:13
#00212:0000130000000013
#00218:0013000000000000
#0001b:0000000000000013
#0011b:0000000000000013
#00118:0000001300000000
#03512:1400001600000000
#03518:0000000016000013
#03515:00000013
#03516:0014000000000000
#0351a:00140000
#03510:41
#04315:0013000013000000
#04318:00130000
#04312:13
#0431b:0000001300000000
#02515:0000001300000000
#02512:13
#0251b:1300000000000033
#02518:0013
#0251f:11
#0251a:00000000000000000000003300000000
#00915:13000013
#0091b:1300000000000013
#00918:00131300
#00912:0000001313000000
#00910:41
#0081b:1300000000000013
#00815:00260000
#01615:00130000
#01618:1600001300002600
#01612:2600000016000013
#01614:00000000000000000000000000000033
#06018:13
#06015:00000000130000000000000000000013
#0601b:0000000000000013
#06012:0013000000000000
#0591b:0000000000000013
#05915:0000001313000000
#05918:13000000000000130000000000000000
#00418:1300000000000013
#0041b:00130000
#00415:0013000000000000
#00312:0000000000000013
#00315:0000001300000000
#00612:13
#00615:0000130000000013
#0061b:0013000000000000
#00518:0000000000000013
#0051b:0000001300000000
#00715:0000000000000013
#00712:0000001300000000
#01015:0013
#01018:00000013
#01012:0013130000000013
#0101b:13
#0111b:1300001300000000
#01115:1300130000000013
#01112:0013
#01118:00001313
#01218:0013000013000013
#01215:00000013
#0121b:00130000
#01212:13
#01315:1300001300001300
#0131b:1300000000000013
#01318:00131300
#01312:0013
#01418:1313
#0141b:00000013
#01415:0000130000000014
#01412:0013000000000000
#01515:0000000000000016
#01512:24130000
#0151b:00000013
#01516:0000001500000000
#01513:0015
#01518:14
#01519:0025
#01510:41
#02718:0000001300000000
#0271b:13
#02712:1300000000000033
#02715:0013
#02713:00000000000000000000003300000000
#02616:00000014
#02912:1300001313000000
#0291b:1300001313000000
#02914:00000000000000000000003300000000
#02915:0000000000000033
#02919:00000000000000000000003300000000
#02918:0000000000000033
#02816:00000014
#03012:00000000000000000000001300000000
#0301b:00000000000000000000001300000000
#03018:0000000000000033
#03015:0000000000000033
#03112:0000000033130000
#0311b:0000330000130000
#03118:3313000000003313
#03115:3300001300003313
#0311a:00000033000000000000000000000000
#03113:00000000000000330000000000000000
#03119:00000000000000000000003300000000
#03114:00000000000000000000003300000000
#0321a:14
#03212:14
#0331a:00000014
#03312:00000014
#03318:0015
#03313:0015
#03415:0000000000130000
#03418:24000000130000000000001300000000
#03412:00000013
#0341b:0000000000000013
#03414:24
#0341f:21
#0371b:0000000000130000
#03715:0000001300001300
#03718:00000000000000130000000000001300
#03712:1413
#0371a:00000014000000000000000000000000
#03612:24130000
#0361b:0000000000130000
#03615:00000013
#03618:0000000000000013
#0361a:24
#0401b:00130000
#04012:2400000000130000
#04018:00000013
#04015:0000000000000013
#04015:0000000000000013
#0401a:24
#03815:00130013
#03818:0000000000130000
#0381b:0000000000000013
#03812:24
#0381a:24
#03918:0013001600001300
#03915:00000013000000000000000000001300
#03912:1316
#04215:00130013
#04218:0000001300130000
#0421b:0023000000000013
#04212:1323
#04518:0013000013000000
#04515:00130000
#0451b:13
#04512:0000001300000000
#04612:1323
#04615:00130013
#04618:0000001300130000
#0461b:0023000000000013
#04610:41
#04718:0000130000000013
#04712:13
#04715:0013000013000000
#0471b:0000001300001300
#04814:14
#04812:00130000
#04815:0000001400000000
#04819:0014
#0481a:00000014
#04816:0000000000000014
#04912:14
#0491a:00240000
#06217:14
#06215:00000000140000000000000000000013
#06212:0013000000000000
#0621b:0000000000000013
#0611b:1300000000000013
#06112:0000001313000000
#06118:00000000000000130000000000000000
#06416:14140000
#06412:0014000000000000
#06418:0000000000000014
#06414:00000000000000000000000000000014
#0631a:0000000000000014
#06312:0000001300000000
#06318:13000000000000130000000000000000
#06315:0013
#06513:0000001525000000
#06518:24000000000000150000000000001600
#06512:00000000000000000000000000000016
#02416:00000014
#02415:13
#02412:0024
#02318:00000013
#02315:0000000000130000
#0231b:0000000000000013
#02312:0013
#02317:33
#02012:00000016
#0201b:0000000000000013
#02018:1313
#02015:0000001300000000
#02019:00000000000000000000000000000033
#0221b:0000000033000013
#02217:3300001300000000
#02219:00000000000000330000000000000033
#0211b:0000000033000013
#02117:3300001300000000
#02119:00000000000000330000000000000033
#02110:41
#01812:0000000033000013
#01816:3300001300000000
#01814:00000000000000330000000000000033
#01712:0000000033000013
#01716:3300001300000000
#01714:00000000000000330000000000000033
#01915:00000013
#01918:0000000000130000
#01912:0000000000000013
#0191b:0013
#01916:33
#0521a:2424
#05212:2424
#05218:00240000
#05214:00000024
#05118:00240000
#05114:24
#0411a:24
#04112:0024002500002300
#04119:00250000
#04118:0026
#0411b:00000023
#06618:26
#05012:24
#0501a:0024
#0531a:24
#05319:00240000
#05318:0024
#05312:24
#05313:00240000
#05314:0024
#05612:2424
#0561a:2424
#05614:00240000
#05618:00000024
#0541a:24
#05412:0024
#05410:41
#05712:24
#05713:00240000
#05714:0024
#0571a:24
#05719:00240000
#05718:0024
#05514:00240000
#05518:24
#03558:0016
#04352:00000013
#04355:0063
#03454:14
#03458:14530000
#00855:00160000
#0085b:63
#0265b:13
#02852:13
#03055:13
#03052:00000000000000000000005300000000
#0305b:00000000000000000000006300000000
#03058:13
#02558:0053
#02755:0063
#02952:0053
#0295b:0063
#03152:0000000000530000
#0315b:0000000000630000
#03158:0053000000000053
#03155:0000006300000063
#0325a:64
#03252:54
#0335a:00000064
#03352:00000054
#03358:0055
#03353:0065
#03652:14530000
#0365a:14
#03752:14
#0375a:00000014000000000000000000000000
#03852:14
#0385a:14
#03855:00630000
#0405b:00630000
#04052:14
#0405a:14
#0415a:14
#04152:0014001500001300
#04159:00150000
#04158:0016
#0415b:00000013
#04558:0053
#0455b:00000013
#03952:0016
#0495a:00640000
#05158:0014
#05154:0014
#05354:0014
#05358:0014
#05754:0014
#05758:0014
#02452:0014
#02455:63
#01658:00000016
#01652:0000000000000053
#02052:00000016
#0205b:0000000000000063
#02058:53
#0225b:0000000000000063
#02257:0000005300000000
#0215b:0000000000000063
#02157:0000005300000000
#01852:0000000000000053
#01856:0000006300000000
#01752:0000000000000053
#01756:0000006300000000
#05558:0014
#05554:0014
#001350:13230000
#001320:00001323
#003380:13230000
#0033b0:00001323
#005320:13230000
#005350:00001323
#0073b0:13230000
#007380:00001323
#0083b0:13
#008350:00260000
#016320:0000000000000013
#016340:00000000000000000000000000000033
#017360:3300533300000000
#017340:00000000000000330000000000000033
#017320:0000000033005333
#018360:3300533300000000
#018340:00000000000000330000000000000033
#018320:0000000033005333
#019360:33230000
#020380:13
#0203b0:00230000
#0203b0:0000000000000013
#020390:00000000000000000000000000000033
#021370:3300533300000000
#021390:00000000000000330000000000000033
#0213b0:0000000033005333
#022370:3300533300000000
#022390:00000000000000330000000000000033
#0223b0:0000000033005333
#023370:33230000
#024350:13
#024320:0024
#025380:0013
#0253a0:00000000000000000000003300000000
#0253b0:0000000000000033
#0263b0:23
#027350:0013
#027330:00000000000000000000003300000000
#027320:0000000000000033
#028320:23
#029320:0013
#029340:00000000000000000000003300000000
#029350:0000000000000033
#030350:23
#0293b1:0013
#029391:00000000000000000000003300000000
#029381:0000000000000033
#030381:23
#030321:00000000000000000000001300000000
#030351:0000000000000033
#031351:3300003300003333
#031331:00000000000000330000000000000000
#031321:0000000033330000
#031341:00000000000000000000003300000000
#032321:34
#033331:3535353535000000
#033321:00350035003500350000000034000000
#034341:24
#0303b0:00000000000000000000001300000000
#030380:0000000000000033
#031380:3333000000003333
#0313a0:00000033000000000000000000000000
#0313b0:0000330000330000
#031390:00000000000000000000003300000000
#0323a0:34
#033380:3535353535000000
#033390:00350035003500350000000000000000
#0333a0:00000034
#034380:24
#034380:00130000
#0343b0:0023
#036320:00130000
#036350:0023
#038350:00130000
#038320:0023
#0403b0:00130000
#040380:0023
#043350:0013
#043320:00000023
#045380:0013
#0453b0:00000023
#0493a0:00140000
#050360:24
#050321:1424
#0503a0:0014
#0513a0:24
#051341:1424
#051380:00142400
#0543a0:1424
#054321:0014
#055321:24
#055380:1424
#055341:00142400
