This file was generated by Ched 2.7.0.0.
#TITLE ""
#ARTIST ""
#DESIGNER ""
#DIFFICULTY 0
#PLAYLEVEL
#SONGID ""
#WAVE ""
#WAVEOFFSET 0
#JACKET ""
#REQUEST "ticks_per_beat 480"
#00002: 4
#BPM01: 135
#00008: 01
#TIL00: ""
#VOLUME: ""
#HISPEED 00
#MEASUREHS 00
#02418:14
#03312:0016
#03314:00000016
#00214:14
#00218:00140000
#00418:14
#00414:00140000
#00612:14
#00618:00140000
#0081a:14
#00814:00240000
#0091a:1414
#00912:00140014
#00910:41
#0101a:14
#01012:00140000
#01118:1414
#01114:00140014
#01218:14
#01214:00140000
#0131a:1414
#01314:00140014
#0141a:14
#01414:00140000
#01518:1414
#01512:00140014
#01510:41
#01618:14
#01614:00140000
#0161a:0014
#01612:00000024
#02018:00140014
#02014:1414
#01914:0014
#01918:00000014
#02318:0014
#02314:00000014
#01718:0014
#0171a:14
#01818:0014
#0181a:14
#02114:0014
#02112:14
#02110:41
#02214:0014
#02212:14
#02512:1414
#02518:00140000
#0251f:11
#0261a:1414
#02614:00140000
#02712:14
#02718:00140000
#02714:0014
#0281a:14
#02814:00140000
#02818:0014
#02914:14
#02918:00140000
#02912:0014
#03018:14
#03014:00140000
#0301a:0014
#03114:14
#03118:00140015
#03113:0015
#03212:16
#03213:0014
#03418:00140000
#03414:0014
#0341a:00000014
#03412:2600000000000014
#0341f:21
#03518:00000014
#0351a:14
#03512:0014
#03516:00140000
#03514:0000000000000014
#03510:41
#03614:00140000
#03618:2614
#03612:00000014
#0361a:0000000000000014
#03714:00000014
#03712:14
#0371a:0014
#03716:00140000
#03718:0000000000000014
#0381a:00140000
#03812:2614
#03818:00000014
#03814:0000000000000014
#03918:00000014
#03914:0000000000000014
#0391a:14
#03912:0014
#03916:00140000
#04012:00140000
#0401a:0014
#04014:00000014
#04018:2600000000000014
#06512:14
#0651a:0014
#06518:24
#06514:0024
#06612:15
#06619:25
#0411a:00000014
#04114:2434343400000000
#04312:14000014
#04316:00140000
#0431a:0014
#0451a:14000014
#04516:00140000
#04512:0014
#04712:14
#04716:00140000
#0471a:0014
#04714:00000014
#04718:0000000000000014
#04814:14
#04819:00141400
#04813:0000001400000000
#04812:00000014
#0481a:0000000000000014
#04614:14
#04618:0014
#04610:41
#05016:0014
#0501a:24
#05416:0014
#05412:24
#05410:41
#0601a:14
#06014:00140000
#06212:14
#06218:00140000
#06418:14
#06412:00140000
#05212:2626
#05218:00260026
#05312:26
#05318:0026
#05315:00260000
#05112:00250000
#05118:0026
#04912:00240000
#05618:2626
#05612:00260026
#05718:26
#05712:0026
#05715:00260000
#05519:00250000
#05512:0026
#03452:16
#00854:00140000
#02458:54
#0245a:0014
#03658:16
#03352:0056
#03354:00000066
#01758:0054
#0175a:64
#01858:0054
#0185a:64
#02154:0064
#02152:54
#02254:0064
#02252:54
#03252:56
#03253:0024
#03852:16
#04058:16
#0415a:00000014
#04152:0018
#04654:64
#04658:0054
#05056:0054
#0505a:64
#05456:0064
#05452:54
#05358:0016
#05152:00150000
#05158:0016
#0515a:14
#04952:00140000
#05752:0016
#05559:00150000
#05552:1416
#0013a0:1424
#003320:1424
#005380:1424
#007340:1424
#0173a0:14
#017380:0034
#0183a0:34
#018380:0034
#0193a0:24
#021320:14
#021340:0034
#022320:34
#022340:0034
#023320:24
#024380:14
#0243a0:0024
#032320:16
#032330:0054
#033320:3636363636000000
#033330:00340034003400340000000000000000
#033340:00000036
#034320:26
#041340:1434343400000000
#041320:0028
#042340:14240000
#042380:00001424
#044380:14240000
#044340:00001424
#046340:14
#046320:00240000
#046380:0014
#0463a0:00000024
#049320:14240000
#0503a0:14
#050360:0034
#0513a0:24
#054320:14
#054360:0034
#055320:24
#058380:14343424
#059320:14
#059340:0024
#0613a0:14
#061380:0024
#063340:14
#063320:0024
