This file was generated by Ched 2.7.0.0.
#TITLE ""
#ARTIST ""
#DESIGNER ""
#DIFFICULTY 0
#PLAYLEVEL
#SONGID ""
#WAVE ""
#WAVEOFFSET 0
#JACKET ""
#REQUEST "ticks_per_beat 480"
#00002: 4
#BPM01: 141
#00008: 01
#TIL00: "74'1919:10000.0, 75'0:1.0"
#VOLUME: ""
#HISPEED 00
#MEASUREHS 00
#00612:14
#0071a:14
#00812:14
#00918:14
#00910:41
#01018:14
#01114:14
#01214:14
#01718:14
#01714:0014
#02212:0016
#02218:26
#02210:41
#02412:16
#02418:0016
#02512:16
#02518:0016
#02812:1616
#02918:1616
#03018:0016
#03012:26
#03218:16
#03212:0016
#03210:41
#03318:16
#03312:0016
#03618:16
#03612:0016
#03718:16
#03716:0016
#03912:16
#04018:16
#04112:16
#04110:0041
#04218:14
#0421f:11
#04318:14
#04414:14
#04514:14
#05012:0016
#05018:26
#0501f:00210000
#05010:0041
#05118:16
#05112:0016
#05418:1616
#05512:1616
#05618:16
#05612:0016
#05818:0016
#05812:26
#05912:16
#05918:0016
#06212:1616
#06210:41
#06318:1616
#06412:16
#06418:0016
#06618:16
#06612:0016
#07018:1414
#07114:1414
#06912:1414
#0721a:1414
#07214:00000024
#0051a:24
#01914:24
#01918:0024
#02012:24
#05218:26
#05312:26
#05718:26
#02052:54
#03758:56
#03756:0026
#0013a0:14
#0023a0:24
#003320:14
#004320:24
#0133a0:14
#013380:0034
#014380:34
#0143a0:0024
#015320:14
#015340:0034
#016340:34
#016320:0024
#0183a0:1424
#020320:14
#021340:3424
#023380:1626
#026320:1626
#027380:1626
#031320:1626
#034380:1626
#035320:1626
#037380:16
#037360:0056
#038380:26
#0463a0:14
#047380:24
#048320:14
#049340:24
#052380:1626
#053320:1626
#057380:1626
#060320:1626
#061380:1626
#065320:1626
#067380:16
#068360:00000028
#0759d0:112100000000000000000000000000000000000000000000000000000000000000000000000000000000000000000000000000000000000000000000000000000000000000000000000000000000000000000000000000000000000000000000000000000000000000000000000000000000000000000000000000000000000000000000000000000000000000000000000000000000000000000000000000000000000000000000000000000000000000000000000000000000000000000000000000000000000000000000000000000000000000000000000000000000000000000000000000000000000000000000000000000000000000000000000000000000000000000000000000000000000000000000000000000000000000000000000000000000000000000000000000000000000000000000000000000000000000000000000000000000000000000000000000000000000000000000000000000000000000000000000000000000000000000000000000000000000000000000000000000000000000000000000000000000000000000000000000000000000000000000000000000000000000000000000000000000000000000000000000000000000000000000000000000000000000000000000000000000000000000000000000000000000000000000000000000000000000000000000000000000000000000000000000000000000000000000000000000000000000000000000000000000000000000000000000000000000000000000000000000000000000000000000000000000000000000000000000000000000000000000000000000000000000000000000000000000000000000000000000000000000000000000000000000000000000000000000000000000000000000000000000000000000000000000000000000000000000000000000000000000000000000000000000000000000000000000000000000000000000000000000000000000000000000000000000000000000000000000000000000000000000000000000000000000000000000000000000000000000000000000000000000000000000000000000000000000000000000000000000000000000000000000000000000000000000000000000000000000000000000000000000000000000000000000000000000000000000000000000000000000000000000000000000000000000000000000000000000000000000000000000000000000000000000000000000000000000000000000000000000000000000000000000000000000000000000000000000000000000000000000000000000000000000000000000000000000000000000000000000000000000000000000000000000000000000000000000000000000000000000000000000000000000000000000000000000000000000000000000000000000000000000000000000000000000000000000000000000000000000000000000000000000000000000000000000000000000000000000000000000000000000000000000000000000000000000000000000000000000000000000000000000000000000000000000000000000000000000000000000000000000000000000000000000000000000000000000000000000000000000000000000000000000000000000000000000000000000000000000000000000000000000000000000000000000000000000000000000000000000000000000000000000000000000000000000000000000000000000000000000000000000000000000000000000000000000000000000000000000000000000000000000000000000000000000000000000000000000000000000000000000000000000000000000000000000000000000000000000000000000000000000000000000000000000000000000000000000000000000000000000000000000000000000000000000000000000000000000000000000000000000000000000000000000000000000000000000000000000000000000000000000000000000000000000000000000000000000000000000000000000000000000000000000000000000000000000000000000000000000000000000000000000000000000000000000000000000000000000000000000000000000000000000000000000000000000000000000000000000000000000000000000000000000000000000000000000000000000000000000000000000000000000000000000000000000000000000000000000000000000000000000000000000000000000000000000000000000000000000000000000000000000000000000000000000000000000000000000000000000000000000000000000000000000000000000000000000000000000000000000000000000000000000000000000000000000000000000000000000000000000000000000000000000000000000000000000000000000000000000000000000000000000000000000000000000000000000000000000000000000000000000000000000000000000000000000000000000000000000000000000000000000000000000000000000000000000000000000000000000000000000000000000000000000000000000000000000000000000000000000000
