This file was generated by Ched 2.7.0.0.
#TITLE ""
#ARTIST ""
#DESIGNER ""
#DIFFICULTY 0
#PLAYLEVEL
#SONGID ""
#WAVE ""
#WAVEOFFSET 0
#JACKET ""
#REQUEST "ticks_per_beat 480"
#00002: 4
#BPM01: 141
#00008: 01
#TIL00: "73'480:1, 72'1801:10000, 74'1919:10000.0, 75'0:1.0"
#VOLUME: ""
#HISPEED 00
#MEASUREHS 00
#00116:0000001200000012
#0011a:0012
#00114:0000000000120000
#00118:12000012
#0021a:1200001200000000
#00218:0012000000000000
#00216:00121200
#00318:1200000012000012
#00314:0012000000120000
#0031a:00120000
#00316:0000001200001200
#0051b:0000000013130000
#00515:00000000000000330013001300001300
#00512:26130000
#00518:0026000000000000
#00513:00000000003300000000000000000000
#00514:0000003300000000
#00612:0026000013130000
#00618:26000000000000330013001300001300
#0061b:00130000
#0061a:00000000003300000000000000000000
#00619:0000003300000000
#0071b:0000000013130000
#00715:00000000000000330013001300000000
#00712:26000000130000000000000000130000
#00718:0026000000001300
#00713:00000000003300000000000000000000
#00714:0000003300000000
#00812:00000015
#00819:00000015
#00818:2323
#00815:0023
#00813:00330033000000000000000000000000
#0081a:00000000003300330000000000000000
#00918:0000131313000000
#00912:00000000001300130000000000130000
#00919:00000000000000000053000000001300
#00914:00000000000000000000000000000013
#00910:41
#0091a:0000000000530000
#0091b:00000000000000000000005300000000
#01015:0000131313000000
#0101b:00000000001300130000000000000000
#01017:00000000000000000000001400000000
#01014:00000000000000000053000000000000
#01013:0000000000530000
#01012:00000000000000000000005300000000
#01112:0013000013130000
#01118:00000013000000130013000000000000
#01115:00000000130013000000000000130000
#0111b:00000000001300000000000000000000
#01218:0013000013000000
#01215:00000013000000130000000014000000
#0121b:0000131300130000
#01212:23000000000000000013000000000000
#01418:13130000
#01412:00130000001300000000240000000000
#0141b:0013001300000000
#01415:00000013000000130000000000000000
#01417:0024
#01615:13132400
#0161b:00130000001300000000000000000000
#01612:0013001300000000
#01618:00000013000000130000000000000000
#0161a:0000000000240000
#01719:15150015
#01718:00000000000000130000130000000000
#01715:00130013
#01712:2525
#01812:15150015
#01818:00000013000013000000000013000000
#01815:00001300000000130000130000000000
#01819:2525
#0191b:13
#01918:00000016
#01919:0015
#0191a:00140000
#01912:23242526
#0201a:000000005400000000140000000000000000000000000000
#02015:0000000013130000
#02018:00000000000000000013000000000000
#02012:240000006400000000240000000000000000240000000000
#02116:000000000000000000000000000000000000000000000000000000000000000000000000000000000000000000000000000000000000000000000000000000000000000000000000000000000000000000000000000000000000000000000000000000000000000000000000000000000000000000000000000000000000000000000000000000000000000000000000000000000000000000000000000000000000000000000000000000000000000000000000000000000000000000000000000000000000000000000000000000000000000000000000000000000000000000000000000000000000000000000000001300000000000000000000000000000000000000000000000000000000000000000000000000000000000000000000000000000000000000000000000000000000000000000000000000000000000000000000000000000000000000000000000000000000000000000000000000000000000000000000000000000000000000000000000000000000000000000000000000000000000000000000000000000000000000000000000000000000000000000000000000000000000000000000000000000000000000000000000000000000000000000000000000000000000000000000000000000000000000000000000000000000000000000000000000000000000000000000000000000000000000000000000000000000000000000000000000000000000000000000000000000000000000000000000000000000000000000000000000000000000000000000000000000000000000000000000000000000000000000000000000000000000000000000000000000000000000000000000000000000000000000000000000000000000000000000000000000000000000000000000000000000000000000000000000000000000000000000000000000000000000000000000000000000000000000000000000000000000000000000000000000000000000000000000000000000000000000000000000000000000000000000000000000000000000000000000000000000000000000000000000000000000000000000000000000000000000000000000000000000000000000000000000000000000000000000000000000000000000000000000000000000000000000000000000000000000000000000000000000000000000000000000000000000000000000000000000000000000000000000000000000000000000000000000000000000000000000000000000000000000000000000000000000000000000000000000000000000000000000000
#02112:14
#02117:00130000
#0211a:14
#02115:00000013
#02118:0000000000000013
#0221b:13
#02212:26130000
#0221a:0000001400000014
#02217:00001414
#02214:0000000000140000
#02210:41
#02312:1414
#0231a:0014
#02315:0014000000000000
#02317:0000001400000000
#02412:0013001300000000
#0241b:0013001300000000
#02418:13130000
#02415:2300130000130000
#02414:00000013
#02413:0000000000000013
#0251b:0013000000000000
#02512:0000001313000000
#02515:0000000000140023
#0251a:00000014
#0261b:00000013000000000000130000000000
#02618:1300000013000013
#02615:0000001300001300
#02612:1300000000130000
#02712:0013000000130000
#02715:13000000000000001300000000130000
#0271b:1300001300000000
#02718:0000130000001313
#02818:00000000000014000000540000140000
#02814:00005400001400000000000000001400
#02812:14002424
#0281a:24241400
#02813:00540000000000000000000000000000
#02815:00000054000000000000000000000000
#02816:00540054
#02819:00000000000000000054000000000000
#02817:00000000000000000000005400000000
#02912:00000000000023000016000000000000
#02918:23000000000000000016000000000000
#02915:13
#02919:0013000000002400
#02913:00130024
#0291b:0000001300000000
#02914:0023000022000000
#0291a:00232200
#03012:1300001400000014
#0301b:00130000
#03018:26001414
#03014:0000000000140000
#03117:0014000000000000
#03115:0000001400000000
#0311a:14
#03218:0013001300000013
#03215:0013001300000000
#03212:13130000
#0321b:23130000
#0321a:0000000000130000
#03219:00000013
#03210:41
#03316:0013000000000000
#03317:0000001313000000
#0331a:0000000000140000
#03312:00000014
#03318:0000000000000023
#03412:00000013000000000000130000000000
#03415:1300000013000013
#03418:0000001300001300
#0341b:1300000000130000
#0351b:0013000000000000
#03518:1300130000000013
#03515:00130013
#03512:13
#03614:14
#0361a:1400001414000014
#03617:0014000000140000
#03612:0014140000141400
#03615:0000001400000014
#03716:0000001400000014
#03718:14141414
#0371a:0014000000140000
#03712:0000000000000014
#03714:24242424
#03717:00000000000000000000000000340034
#03713:00000000000000000000000000340034
#03815:00000013000000130000000000001300
#03818:2400131300000000
#03812:00000000001300000000000000000000
#0381b:0023000013131300
#03816:00000000000000000014001400000000
#03814:24
#03918:26000013000000130000000000001300
#03915:0000131300000000
#0391b:00000000001300000000000000000000
#03912:0023000013131300
#03916:00000000000000000014001400000000
#04012:26130000
#04018:0000001300000000
#04015:00000000000000130000000000001300
#0401b:0023000013131300
#04016:00000000000000000014001400000000
#04118:23001300000000130000000000000000
#04115:00130013000013000000000000000000
#04112:00002414
#0411a:00240000
#04110:0041
#04215:00000013000013000000000013535300
#04218:00130000130000130000135353000000
#04212:24000000000000001353530000000000
#0421b:0000000013000013
#0421f:11
#04312:1400000013000013
#04315:00001300001300130000135353000000
#04318:00000000130013000000000013535300
#0431b:00000000000000001353530000000000
#0431a:24
#0441a:14
#04418:00001300000013000013001300130000
#0441b:0000130000000013
#04412:24000000001300000000000000001300
#04415:00000013000000000000130013000000
#04512:14
#0451a:24
#04518:0024242424242525
#04514:00000000000000240024002400000000
#04513:00000000000000000000000000250025
#04616:0000001200120012
#04618:26000012
#0461a:0024
#0471a:1224
#04716:00120000
#04712:0000000000000000000000000000000000000000000000000000000000000000000000000000000000000000000000000000000000000000000000000000000000000000000000000000000000000000000000000000000000000000000000002400000000000000000000000000000000000000000000000000000000160000
#04713:0000000000000000000000000000000000000000000000000000000000000000000000000000000000000000000000000000000000000000000000000000000000000000000000000000000000000000000000000000000000000000000000000000000000000000000000000000001500000000000000000000000000000000
#04812:0000000000000000000000000000000000000000000000000000000000000000240000000000000000000000000000000000000000000000000000000016000000000000000000000000000000000000000000000000000000000000000000001400000000000000000000000000000000000000000000000000000000000000
#04818:2400000000000000000000000000000000000000000000000000000000160000000000000000000000000000000000000000000000000000000000000000000024000000000000000000000000000000000000000000000000000000001600000000000000000000140000000000000000000000000000000000000000000000
#04814:0000000000000014
#0481a:00000000000000000000000000000014
#04819:0000000000000000000000000000001500000000000000000000000000000000640000000000000000000000000000000000000000000000000000000000000000000000000000000000000000000015000000000000000000000000000000006400000000000000000000000000000000000000000000000000000000000000
#04813:6400000000000000000000000000000000000000000000000000000000000000000000000000000000000000000000150000000000000000000000000000000064000000000000000000000000000000000000000000000000000000000000000000000000000000000000000000000000000000000000000000000000000000
#04914:0000002500001414
#04918:00000000000000000000260000140014
#04916:0024000000000000
#0501a:0000001400000000
#05018:0014
#05016:0000000000140000
#05014:00000014
#05012:0000000000000014
#05019:25
#0501f:00210000
#05010:0041
#05112:0016
#05118:0000000016130000
#05115:0000000000130000
#05212:0013002300002300
#0521b:0023001300000023
#05215:2323
#05218:2300230000230000
#05316:0000000000140000
#05315:0000000000000026
#05312:2300002323000000
#0531b:0023230000000000
#0531a:00000024
#05416:00000014000000000000000000000000
#0541a:14
#05418:0000000013000013
#0541b:0000000000130000
#05415:0000001300001300
#05412:1400000000130000
#05618:00000000000000000000000000130000
#05615:0000000023000013
#0561b:63000000230000000000000000000013
#05617:0013000000000000
#05612:00001300000000000000001300000000
#05616:23000000001400000000000000000000
#05712:00000000000023000017000026000000
#05717:00000000000000000000001700000000
#05716:24
#05714:0023000023000000
#0571a:00230000
#05719:0023000023230000
#0571b:0000002300000000
#05713:00230000
#05812:13001414
#0581b:00130000
#0581a:0000000000140000
#05818:26
#05815:0000002400240000
#05817:00002424
#05915:13
#05918:00130000130000001300000000000000
#05912:0013001300000000
#06012:0013001300130013
#0601b:0013001300130013
#06018:13130013
#06015:13132313
#06218:0000001300001300
#06215:2400000013000013
#06212:0000000000130000
#0621b:0000000000130000
#0621a:24
#06210:41
#06318:23000000130000000000000000130000
#0631b:0013000000000000
#0631a:0000000000130000
#06315:0000230000001313
#06313:0000000000130000
#06312:23
#0551b:13000023
#05512:001400000000000000000000140000000000000000000000
#05514:220000000000000000000000000000000016000000000000620000000000000000000000000000000000000000000000000000000000000000000000000000000000000000000000000000000000000000000000000000000000000000000000
#05516:000000000000001400000000000000000000000000000000
#05518:000000000000000000000000000000000000000000000000220000000000000000000000000000000016000000000000620000000000000000000000000000000000000000000000000000000000000000000000000000000000000000000000
#05519:00000000000000000000000000630063
#05517:0000000000000063
#0611b:0000000000130000
#06115:00230013
#06118:2300000023000023
#06116:0024002400000000
#06418:1400001400140000
#06414:0014000014000014
#06412:24000000000000000000000000000000000000000000000000000000000000000054000000000000000000000000000000000000000000000000000000000000
#0641a:00540000000000000000000000000000000000000000000000000000000000002400000000000000000000000000000000000000000000000000000000000000
#06416:00240024
#06518:14000016
#06512:1416
#0651a:00540000000000000000000000000000000000000000000014000000000000000000000000000000000000000000000000000000000000000000000000000000
#06712:16
#06716:0000000000000013
#06718:16
#06717:000000000000000000000000000000000000000000000000000000000000000000000000000000000000000000000000000000000000000000000000000000000000000000000000000000000000000000000000000000000000000000000000000000000000000000000000000000000000000000000000000000000000000000000000000000000000000000000000000000000000000000000000000000000000000000000000000000000000000000000000000000000000000000000000000000000000000000000000000000000000000000000000000000000000000000000000000000000000000000000000000000000000000000000000000000000000000000000000000000000000000000000000000000000000000000000000000000000000000000000000000000000000000000000000000000000000000000000000000000000000000000000000000000000000000000000000000000000000000000000000000000000000000000000000000000000000000000000000000000000000000000000000000000000000000000000000000000000000000000000000000000000000000000000000000000000000000000000000000000000000000000000000000000000000000000000000000000000000000000000000000000000000000000000000000000000000000000000000000000000000000000000000000000000000000000000000000000000000000000000000000000000000000000000000000000000000000000000000000000000000000000000000000000000000000000000000000000000000000000000000000000000000000000000000000000000000000000000000000000000000000000000000000000000000000000000000000000000000000000000000000000000000000000000000000000000000000000000000000000000000000000000000000000000000000000000000000000000000000000000000000000000000000000000000000000000000000000000000000000000000000000000000000000000000000000000000000000000000000000000000000000000000000000000000000000000000000000000000000000000000000000000000000000000000000000000000000000000000000000000013000000000000000000000000000000000000000000000000000000000000000000000000000000000000000000000000000000000000000000000000000000000000000000000000000000000000000000000000000000000000000000000000000000000000000000000000000000000000000000000000
#06815:0000000000000013
#06812:00000016
#06818:0000000000001613
#06912:00140014
#06914:0000001414140014
#06913:25
#06918:25000000000000240024000000000024
#0691a:00240024
#0701a:00140014
#07018:0026001414140014
#07012:26240024
#07014:00000000000000240024000000000024
#07112:0026140000001400
#07114:0000001414140014
#07118:26000000000000240024000000000024
#0711a:00240024
#07214:0000141414000000
#07218:00000000001400140000130013001300
#07215:00000000000000000000001300130013
#07212:260000000000000000000000000000000000000000000000000000000000000000000000000000000000000000000000005400000000000000000000000000000000000000000000000000000000000000000000000000000000000000000000
#0721a:0000000024646464640000000000000000000000000000000000000000000000
#01315:00001300000000240000000000000000
#01312:24
#01317:24
#01318:00000024000000000000000000000000
#01314:00000000002400000000000000000000
#0131a:00000000000000240000000000000000
#01319:00000000002400000000000000000000
#01518:00001300002400000000000000000000
#0151a:24
#01515:24
#01517:00000000000000240000000000000000
#01512:00000000000000240000000000000000
#01513:00000000002400000000000000000000
#01514:00000024000000000000000000000000
#06618:0024000000250026
#0661a:0000002400000000
#00415:00000059
#00256:0062
#00552:16530000
#00558:0016000000000000
#0065b:00630000
#00658:16
#00652:0016000000000000
#00752:16530000
#00758:0016000000000000
#00858:1313
#00855:0013
#00852:00000055
#00859:00000065
#00952:15
#00959:15
#0095b:00000000000000000000001300000000
#0115b:13
#01057:00000000000000000000005400000000
#0125b:0000000000130000
#01255:00000054
#01352:14000014
#01357:14000014
#01452:00000014
#01457:00000014
#0155a:14000014
#01555:14000014
#0165a:00000014
#01655:00000014
#01759:00150015
#01852:00150015
#02156:000000000000000000000000000000000000000000000000000000000000000000000000000000000000000000000000000000000000000000000000000000000000000000000000000000000000000000000000000000000000000000000000000000000000000000000000000000000000000000000000000000000000000000000000000000000000000000000000000000000000000000000000000000000000000000000000000000000000000000000000000000000000000000000000000000000000000000000000000000000000000000000000000000000000000000000000000000000000000000000000002300000000000000000000000000000000000000000000000000000000000000000000000000000000000000000000000000000000000000000000000000000000000000000000000000000000000000000000000000000000000000000000000000000000000000000000000000000000000000000000000000000000000000000000000000000000000000000000000000000000000000000000000000000000000000000000000000000000000000000000000000000000000000000000000000000000000000000000000000000000000000000000000000000000000000000000000000000000000000000000000000000000000000000000000000000000000000000000000000000000000000000000000000000000000000000000000000000000000000000000000000000000000000000000000000000000000000000000000000000000000000000000000000000000000000000000000000000000000000000000000000000000000000000000000000000000000000000000000000000000000000000000000000000000000000000000000000000000000000000000000000000000000000000000000000000000000000000000000000000000000000000000000000000000000000000000000000000000000000000000000000000000000000000000000000000000000000000000000000000000000000000000000000000000000000000000000000000000000000000000000000000000000000000000000000000000000000000000000000000000000000000000000000000000000000000000000000000000000000000000000000000000000000000000000000000000000000000000000000000000000000000000000000000000000000000000000000000000000000000000000000000000000000000000000000000000000000000000000000000000000000000000000000000000000000000000000000000000000000000000
#02152:6436
#02157:00230000
#0215a:54
#02158:0046
#02252:16
#0225b:23
#02352:0054
#0235a:0054
#02355:00000013
#02358:00000013
#02452:0023002300000000
#0245b:0023002300000000
#02458:53530000
#02455:53630000
#02558:1313
#02555:0000130000240000
#02552:0053
#0265b:00000023000000000000000000000000
#02658:53
#02652:13
#02752:0023000000230000
#02755:6363
#0275b:0000002300000000
#02758:00530000
#02854:0000000000000014
#02953:00000014
#02959:00000014
#02952:00000000000000000056000000000000
#02954:0022
#02958:00000000000000000066000000000000
#0295a:0022
#03052:23
#03058:16004444
#03054:0000000000340000
#03258:0023002300000000
#03255:0023002300000000
#03252:53530000
#0325b:53630000
#0335a:0000000000240000
#03357:0063
#0335b:00130000
#03352:1313
#03452:00000023000000000000000000000000
#03455:63
#0345b:13
#0355b:0023000013000000
#03558:53530000
#03555:00630000
#03552:0013
#03152:00000014
#0315a:00000014
#03654:1414
#03658:00140014
#0365a:5454
#03657:0024000000240000
#03652:00640064
#03655:0000002400000024
#03754:14000054
#03758:54545454
#0375a:0024000000240000
#03756:0000002400000024
#03752:0000000000000024
#03854:14
#03858:14
#0385b:00000013
#03855:0000000000000013
#03952:00000013
#03958:1600000000000013
#04052:16530000
#04055:0000000000000063
#0405b:00000063
#0415a:00140000
#04152:0014
#04658:16
#0475a:52
#04756:00520000
#04752:0000000000000000000000000000000000000000000000000000000000000000000000000000000000000000000000000000000000000000000000000000000000000000000000000000000000000000000000000000000000000000000000005400000000000000000000000000000000000000000000000000000000260000
#04753:0000000000000000000000000000000000000000000000000000000000000000000000000000000000000000000000000000000000000000000000000000000000000000000000000000000000000000000000000000000000000000000000000000000000000000000000000000005500000000000000000000000000000000
#05052:00150000
#05059:00150000
#05152:00005636
#05158:0000000056234600
#05155:0000000000230000
#05252:0023000000006300
#0525b:0000002300000053
#05255:5353
#05258:0000630000630000
#05356:0000000000240000
#05355:00140000
#05357:1414
#05352:6363
#0535b:00530000
#05456:00000024000000000000000000000000
#0545a:54
#05452:14
#05752:00000000000000000057000016000000
#05757:00000000000000000000006700000000
#05754:0023
#05759:0000000000230000
#05852:23001414
#05858:16
#0585a:0000000000140000
#06052:0000000000230023
#0605b:0023002300000000
#06058:53530000
#06055:00005363
#06358:63530000
#0635b:0023000013000000
#06355:00530000
#06352:0013
#0595b:00000013
#05952:0053005300000000
#05958:00535300
#05955:00000013
#06158:00136300
#06155:1313
#0615b:0000000000230000
#05554:520000000000000000000000000000000066000000000000000000000000000000000000000000000000000000000000000000000000000000000000000000000000000000000000000000000000000000000000000000000000000000000000
#05552:002400000000000000000000140000000000000000000000
#05556:000000000000002400000000000000000000000000000000
#05558:000000000000000000000000000000000000000000000000520000000000000000000000000000000066000000000000000000000000000000000000000000000000000000000000000000000000000000000000000000000000000000000000
#0625a:14
#06552:5436
#06558:00000046
#06752:56
#06756:0000000000000023
#06758:66
#06757:000000000000000000000000000000000000000000000000000000000000000000000000000000000000000000000000000000000000000000000000000000000000000000000000000000000000000000000000000000000000000000000000000000000000000000000000000000000000000000000000000000000000000000000000000000000000000000000000000000000000000000000000000000000000000000000000000000000000000000000000000000000000000000000000000000000000000000000000000000000000000000000000000000000000000000000000000000000000000000000000000000000000000000000000000000000000000000000000000000000000000000000000000000000000000000000000000000000000000000000000000000000000000000000000000000000000000000000000000000000000000000000000000000000000000000000000000000000000000000000000000000000000000000000000000000000000000000000000000000000000000000000000000000000000000000000000000000000000000000000000000000000000000000000000000000000000000000000000000000000000000000000000000000000000000000000000000000000000000000000000000000000000000000000000000000000000000000000000000000000000000000000000000000000000000000000000000000000000000000000000000000000000000000000000000000000000000000000000000000000000000000000000000000000000000000000000000000000000000000000000000000000000000000000000000000000000000000000000000000000000000000000000000000000000000000000000000000000000000000000000000000000000000000000000000000000000000000000000000000000000000000000000000000000000000000000000000000000000000000000000000000000000000000000000000000000000000000000000000000000000000000000000000000000000000000000000000000000000000000000000000000000000000000000000000000000000000000000000000000000000000000000000000000000000000000000000000000000000000000000023000000000000000000000000000000000000000000000000000000000000000000000000000000000000000000000000000000000000000000000000000000000000000000000000000000000000000000000000000000000000000000000000000000000000000000000000000000000000000000000000
#06855:0000000000000023
#06852:00000066
#06858:0000000000005623
#06958:45
#06953:35
#07052:16
#07058:0016000000000000
#07158:16
#07152:0016000000000000
#07252:16
#07255:00000000000000000000000000000013
#00158:52
#05652:00000000000000000000001300000000
#04858:5400000000000000000000000000000000000000000000000000000000260000000000000000000000000000000000000000000000000000000000000000000054000000000000000000000000000000000000000000000000000000002600000000000000000000000000000000000000000000000000000000000000000000
#04859:0000000000000000000000000000005500000000000000000000000000000000000000000000000000000000000000000000000000000000000000000000000000000000000000000000000000000055000000000000000000000000000000000000000000000000000000000000000000000000000000000000000000000000
#04852:0000000000000000000000000000000000000000000000000000000000000000540000000000000000000000000000000000000000000000000000000026000000000000000000000000000000000000000000000000000000000000000000000000000000000000000000000000000000000000000000000000000000000000
#04853:0000000000000000000000000000000000000000000000000000000000000000000000000000000000000000000000550000000000000000000000000000000000000000000000000000000000000000000000000000000000000000000000000000000000000000000000000000000000000000000000000000000000000000
#001380:12
#0013a0:00220000
#002360:0012
#002340:00000022
#0043a0:12
#004350:00000029
#005320:00130000
#005330:00000000003300000000000000000000
#005340:0000003300000000
#005350:00000000000000332300000000000000
#0053b0:0000000000001323
#0063b0:00130000
#0063a0:00000000003300000000000000000000
#006390:0000003300000000
#006380:00000000000000332300000000000000
#006320:0000000000001323
#007320:00130000
#007330:00000000003300000000000000000000
#007340:0000003300000000
#007350:00000000000000332300000000000000
#007380:0000000000000013
#008380:23
#008351:13230000
#008331:00330033000000000000000000000000
#008321:0033000000000000
#008380:00132300
#0083a0:00000000003300330000000000000000
#0083b0:0000003300000000
#008320:00000000000000000000000000000000000000000000000000000000000000000000000000000000000000000000000015000055555555555555555555555555
#008330:0000000000000000000000000000000000000000000000000000000000000000000000000000000000000000000000000000000000000000000000000000000000000000000000000000000000000000000000000000000000000000000000000000000000530053005300530053005300530053005300530053005300530053
#009320:25
#008391:00000000000000000000000000000000000000000000000000000000000000000000000000000000000000000000000015000055555555555555555555555555
#0083a1:0000000000000000000000000000000000000000000000000000000000000000000000000000000000000000000000000000000000000000000000000000000000000000000000000000000000000000000000000000000000000000000000000000000000530053005300530053005300530053005300530053005300530053
#009391:25
#010371:13
#010381:00330000000000000000000000000000
#010391:0033000000000000
#0103a1:00000033000000000000000000000000
#0103b1:00230000
#010371:00000000000000000000001400000000
#0113b1:23
#011381:00000000000000000000001300230000
#0113b1:0000000000000013
#0123b1:23
#012351:00000014
#013321:24
#013351:00000000000000140000000000000000
#013321:00000000000000000034340024000000
#0133a0:00000000000000140000000000000000
#013370:00000000000000000034340024000000
#014370:00000000000000001434340024000000
#014321:0000000000142400
#015371:00000000000000140000000000000000
#0153a1:00000000000000000034340024000000
#015320:00000000000000140000000000000000
#015350:00000000000000000034340024000000
#016350:00000000000000001434340024000000
#0163a1:0000000000142400
#0203a1:143424000000000000000000
#020320:143424000000000000000000
#0203a0:000000000000000000143434
#0213a0:34
#021370:00530000
#021380:0026
#020321:000000000000000000143434
#021321:3426
#021361:000000000000000000000000000000000000000000000000000000000000000000000000000000000000000000000000000000000000000000000000000000000000000000000000000000000000000000000000000000000000000000000000000000000000000000000000000000000000000000000000000000000000000000000000000000000000000000000000000000000000000000000000000000000000000000000000000000000000000000000000000000000000000000000000000000000000000000000000000000000000000000000000000000000000000000000000000000000000000000000000005300000000000000000000000000000000000000000000000000000000000000000000000000000000000000000000000000000000000000000000000000000000000000000000000000000000000000000000000000000000000000000000000000000000000000000000000000000000000000000000000000000000000000000000000000000000000000000000000000000000000000000000000000000000000000000000000000000000000000000000000000000000000000000000000000000000000000000000000000000000000000000000000000000000000000000000000000000000000000000000000000000000000000000000000000000000000000000000000000000000000000000000000000000000000000000000000000000000000000000000000000000000000000000000000000000000000000000000000000000000000000000000000000000000000000000000000000000000000000000000000000000000000000000000000000000000000000000000000000000000000000000000000000000000000000000000000000000000000000000000000000000000000000000000000000000000000000000000000000000000000000000000000000000000000000000000000000000000000000000000000000000000000000000000000000000000000000000000000000000000000000000000000000000000000000000000000000000000000000000000000000000000000000000000000000000000000000000000000000000000000000000000000000000000000000000000000000000000000000000000000000000000000000000000000000000000000000000000000000000000000000000000000000000000000000000000000000000000000000000000000000000000000000000000000000000000000000000000000000000000000000000000000000000000000000000000000000000000000000000000
#0223b1:13
#022371:00230000
#023371:14
#0233a1:00540000240000000000000000000000
#023350:00140023
#023320:00000000005400003400000000000000
#0233a1:0014
#023381:00000023
#024381:13333300
#0243b1:0033003300000000
#025381:23
#024350:13332300
#024320:0033003300000000
#025320:13
#025350:0033230000000000
#0253b1:00130000
#025381:0000003323000000
#025320:00001324
#025350:0000000000540000
#026380:1300002300000000
#0263b0:00000053000000000000000000000000
#027350:13230000
#027320:0053000000000000
#027381:00132300
#0273b1:0000005300000000
#027350:00001323
#027320:0000000000530000
#029340:0000000012220000
#029320:00000000000000000056000000000000
#0293a1:0000000012220000
#029381:00000000000000000056000000000000
#030321:13
#030361:00230000
#031351:14
#031321:00540000240000000000000000000000
#031370:00140000
#0313a0:00000000005400003400000000000000
#031320:00000024
#031321:0014
#031361:0000000000340000
#0313a1:00000024
#0323b1:13332300
#032381:0033003300000000
#032320:13333300
#032350:0033003300000000
#033320:23
#033371:13
#0333b1:0033230000000000
#033360:00130000
#033320:0000003323000000
#033371:0013
#0333a1:0000000000540000
#033361:00000024
#034351:1300002300000000
#034321:00000053000000000000000000000000
#035381:13330000
#0353b1:0053000023000000
#035350:00130000
#035320:0023
#0363a0:14
#036370:0034000000000000
#036380:00240000
#036321:00140000
#036351:0000003400000000
#036341:0024
#0363a0:0014
#036370:0000000000340000
#036380:00000024
#036321:00000014
#036351:0000000000000034
#037341:24
#037380:14343434
#0373a0:0054000000540000
#037360:0000005400000034
#037370:00000000000000000000000000340034
#038380:24
#037341:00000014
#037331:00000000000000000000000000340034
#037321:0000000000000034
#038341:24
#040321:00130000
#040351:0000002300000000
#0403b1:00000013
#040381:0000000000000023
#040350:0000000000000013
#041320:23
#041360:00000015
#0413a0:00000000000000000000000000000000000000000000000000000000000000000000000000000000000000000000000000000000545454545454545454545454
#041390:0000000000000000000000000000000000000000000000000000000000000000000000000000000000000000000000000000000000000000000000000000000000000000000000000000000000000000000000000000000000000000000000000000000000000000005400540054005400540054005400540054005400540054
#0423a0:24
#044350:00000000000000130023000000000000
#0473a0:12
#047380:00220000
#047361:00120000
#047341:0022
#047321:0000000000000000000000000000000000000000000000000000000000000000000000000000000000000000000000000000000000000000000000000000000000000000000000000000000000000000000000000000000000000000000000001400000000000000000000000000000000005600000000000000000000560000
#047341:000000000000000000000000000000000000000000000000000000000000000000000000000000000000000000000000000000000000000000000000000000000000000000000000000000000000000000000000000000000000000000000000000000000000000000000000000000000000000000000000000000000000000000000000000000000000000000000000000000000000000000000000000000000000000000000000000000000000000000000000000000000000000000000000000000000000000000000000000000000000000000000000000000000000000000000000000000000000000000000000000000000000000000000000000000000000000000000000000000000000000000000000000000000000000000000000000000000000000000000000000000000000000000000000000000000000000000000000000000000000000000000000000000000000000000000000000000000000000000000000000000000000000000000000000000540000000000000000000000000000000000000000000000000000000000000000000000000000000054000000000000000000000000000000000000000000000000000000000000000000000000000000000000000000000000000000000000000000000000000000
#047331:0000000000000000000000000000000000000000000000000000000000000000000000000000000000000000000000000000000000000000000000000000000000000000000000000000000000000000000000000000000000000000000000000000000000000000000000000000005500000000000000000000000000000000
#048331:24
#048380:1400000000000000000000000000000000005600000000000000000000560000000000000000000000000000000000000000000000000000000000000000000000000000000000000000000000000000000000000000000000000000000000000000000000000000000000000000000000000000000000000000000000000000
#0483a0:000000000000000000000000000000540000000000000000000000000000000000000000000000000000000000000000000000000000000054000000000000000000000000000000000000000000000000000000000000000000000000000000000000000000000000000000000000000000000000000000000000000000000000000000000000000000000000000000000000000000000000000000000000000000000000000000000000000000000000000000000000000000000000000000000000000000000000000000000000000000000000000000000000000000000000000000000000000000000000000000000000000000000000000000000000000000000000000000000000000000000000000000000000000000000000000000000000000000000000000000000000000000000000000000000000000000000000000000000000000000000000000000000000000000000000000000000000000000000000000000000000000000000000000000000000000000000000000000000000000000000000000000000000000000000000000000000000000000000000000000000000000000000000000000000000000000000000000000000000000000000000000000000000000000000000000000000000000000000000000000
#048390:0000000000000000000000000000005500000000000000000000000000000000240000000000000000000000000000000000000000000000000000000000000000000000000000000000000000000000000000000000000000000000000000000000000000000000000000000000000000000000000000000000000000000000
#048321:0000000000000000000000000000000000000000000000000000000000000000140000000000000000000000000000000000560000000000000000000056000000000000000000000000000000000000000000000000000000000000000000000000000000000000000000000000000000000000000000000000000000000000
#048341:000000000000000000000000000000000000000000000000000000000000000000000000000000000000000000000000000000000000000000000000000000000000000000000000000000000000000000000000000000000000000000000000000000000000000000000000000000000000000000000000000000000000000000000000000000540000000000000000000000000000000000000000000000000000000000000000000000000000000054000000000000000000000000000000000000000000000000000000000000000000000000000000000000000000000000000000000000000000000000000000000000000000000000000000000000000000000000000000000000000000000000000000000000000000000000000000000000000000000000000000000000000000000000000000000000000000000000000000000000000000000000000000000000000000000000000000000000000000000000000000000000000000000000000000000000000000000000000000000000000000000000000000000000000000000000000000000000000000000000000000000000000000000000000000000000000000000000000000000000000000000000000000000000000000000000000000000000000000000000000000
#048331:0000000000000000000000000000000000000000000000000000000000000000000000000000000000000000000000550000000000000000000000000000000024000000000000000000000000000000000000000000000000000000000000000000000000000000000000000000000000000000000000000000000000000000
#048380:0000000000000000000000000000000000000000000000000000000000000000000000000000000000000000000000000000000000000000000000000000000014000000000000000000000000000000000056000000000000000000005600000000000000000000000000000000000000000000000000000000000000000000
#0483a0:000000000000000000000000000000000000000000000000000000000000000000000000000000000000000000000000000000000000000000000000000000000000000000000000000000000000000000000000000000000000000000000000000000000000000000000000000000000000000000000000000000000000000000000000000000000000000000000000000000000000000000000000000000000000000000000000000000000000000000000000000000000000000000000000000000000000000000000000000000000000000000000000000000000000000000000000000000000000000000000000000000000000000000000000000000540000000000000000000000000000000000000000000000000000000000000000000000000000000054000000000000000000000000000000000000000000000000000000000000000000000000000000000000000000000000000000000000000000000000000000000000000000000000000000000000000000000000000000000000000000000000000000000000000000000000000000000000000000000000000000000000000000000000000000000000000000000000000000000000000000000000000000000000000000000000000000000000000000000000000000
#048390:0000000000000000000000000000000000000000000000000000000000000000000000000000000000000000000000000000000000000000000000000000000000000000000000000000000000000055000000000000000000000000000000002400000000000000000000000000000000000000000000000000000000000000
#049320:1424000000000000
#049390:0000152500000000
#049320:0000000016260000
#050320:155555555555250000000000000000000000000000000000
#050330:005500550055005500550055000000000000000000000000000000000000000000000000000000000000000000000000
#050391:155555555555250000000000000000000000000000000000
#050381:005500550055005500550055000000000000000000000000000000000000000000000000000000000000000000000000
#051381:1323000000000000
#051340:0014240000000000
#051381:0000152500000000
#051320:0000001636002600
#051350:0000000000530000
#051381:0000000016532600
#052351:13230000
#052321:0033000000000000
#052380:00132300
#0523b0:0000003300000000
#052351:0013
#052321:0000000000230000
#052380:0000000000130000
#0523b0:00000023
#052321:00000013
#052351:0000000000000023
#0523b0:0000000000000013
#053370:24
#053321:13
#053351:0034240000000000
#0533b0:00130000
#053370:0000003424000000
#053321:00001324
#053361:0000000000540000
#0543a1:1400002400000000
#054361:00000054000000000000000000000000
#055341:120000000000000000000000000000000000000000000000000000000000000000000000000000000000000000000000000000000000000000000000000000000000000000000000000000000000000000000000000000000000000000000000000000000000000000000000000000000000000000000000000000000000000000000000000000000000000000000000000000000000000000000000000000005200000000000000000000000000000000000000000000000000000000000000000000000000000000000000000000000000000000000000000000000000000000000000000000000000000000000000000000000000000000000000000000000000000000000000000000000000000000000000000000000000000000000000000000000000000000000000000000000000000000000000000000000000000000000000000000000000000000000000000000525600000000000000000000000000000000000000000000000000000000000000000000000000000000000000000000000000000000000000000000000000000000000000000000000000000000000000000000000000000000000000000000000000000000000000000000000000000000000000000000000000000000000000000000000000000000000000220000000000000000000000000000000000000000000000000000000000000000000000000000000000000000000000000000000000000000000000000000000000000000000000000000000000000000000000000000000000000000000000000000000000000000000000000000000000000000000000000000000000000000000000000000000000000000000000000000000000000000000000000000000000000000000000000000000000000000000000000000000000000000000000000000000000000000000000000000000000000000000000000000000000000000000000000000000000000000000000000000000000000000000000000000000000000000000000000000000000000000000000000000000000000000000000000000000000000000000000000000000000000000000000000000000000000000000000000000000000000000000000000000000000000000000000000000000000000000000000000000000000000000000000000000000000000000000000000000000000000000000000000000000000000000000000000000000000000000000000000000000000000000000000000000000000000000000000000000000000000000000000000000000000000000000000000000000000000000000000000000000000000000000000000000000000000000000000000000000000000000000000000000000000000000000000000000000000000000000000000000000000000000000000000000000000000000000000000000000000000000000000000000000000000000000000000000000000000000000000000000000000000000000000000000000000000000000000000000000000000000000000000000000000000000000000000000000000000000000000000000000000000000000000000000000000000000000000000000000000000000000000000000000000000000000000000000000000000000000000000000000000000000000000000000000000000000000000000000000000000000000000000000000000000000000000000000000000000000000000000000000000000000000000000000000000000000000000000000000000000000000000000000000000000000000000000000000000000000000000000000000000000000000000000000000000000000000000000000000000000000000000000000000000000000000000000000000000000000000000000000000000000000000000000000000000000000000000000000000000000000000000000000000000000000000000000000000000000000000000000000000000000000000000000000000000000000000000000000000000000000000000000000000000000000000000000000000000000000000000000000000000000000000000000000000000000000000000000000000000000000000000000000000000000000000000000000000000000000000000000000000000000000000000000000000000000000000000000000000000000000000000000000000000000000000000000000000000000000000000000000000000000000000000000000000000000000000000000000000000000000000000000000000000000000000000000000000000000000000000000000000000000000000000000000000000000000000000000000000000000000000000000000000000000000000000000000000000000000000000000000000000000000000000000000000000000000000000000000000000000000000000000000000000000000000000000000000000000000000000000000000000000000000000000000000000000000000000000000000000000000000000000000000000000000000000000000000000000000000000000000000000000000000000000000000000000000000000000000000000000000000000000000000000000000000000000000000000000000000000
#055321:005400000000000000000000000000000000000000000000
#055380:000000000000000000000000000000000000000000000000000000000000000000000000000000000000000000000000000000000000000000000000000000000000000000000000000000000000000000000000000000000000000000000000000000000000000000000000000000000000000000000000000000000000000000000000000000000000000000000000000000000000000000000000000000000000000000000000000000000000000000000000000000000000000000000000000000000000000000000000000000000000000000000000000000000000000000000000000000000000000000000000000000000000000000000000000000000000000000000000000000000000000000000000000000000000000000000000000000000000000000000000000000000000000000000000000000000000000000000000000000000000000000000000000000000000000000000000000000000000000000000000000000000000000000000000000000000000000000000000000000000000000000000000000000000000000000000000000000000000000000000000000000000000000000000000000000000000000000000000000000000000000000000000000000000000000000000000000000000000000000000000120000000000000000000000000000000000000000000000000000000000000000000000000000000000000000000000000000000000000000000000000000000000000000000000000000000000000000000000000000000000000000000000000000000000000000000000000000000000000000000000000000000000000000000000000000000000000000000000000000000000000000000000000000005200000000000000000000000000000000000000000000000000000000000000000000000000000000000000000000000000000000000000000000000000000000000000000000000000000000000000000000000000000000000000000000000000000000000000000000000000000000000000000000000000000000000000000000000000000000000000000000000000000000000000000000000000000000000000000000000000000000000000000000525600000000000000000000000000000000000000000000000000000000000000000000000000000000000000000000000000000000000000000000000000000000000000000000000000000000000000000000000000000000000000000000000000000000000000000000000000000000000000000000000000000000000000000000000000000000000000220000000000000000000000000000000000000000000000000000000000000000000000000000000000000000000000000000000000000000000000000000000000000000000000000000000000000000000000000000000000000000000000000000000000000000000000000000000000000000000000000000000000000000000000000000000000000000000000000000000000000000000000000000000000000000000000000000000000000000000000000000000000000000000000000000000000000000000000000000000000000000000000000000000000000000000000000000000000000000000000000000000000000000000000000000000000000000000000000000000000000000000000000000000000000000000000000000000000000000000000000000000000000000000000000000000000000000000000000000000000000000000000000000000000000000000000000000000000000000000000000000000000000000000000000000000000000000000000000000000000000000000000000000000000000000000000000000000000000000000000000000000000000000000000000000000000000000000000000000000000000000000000000000000000000000000000000000000000000000000000000000000000000000000000000000000000000000000000000000000000000000000000000000000000000000000000000000000000000000000000000000000000000000000000000000000000000000000000000000000000000000000000000000000000000000000000000000000000000000000000000000000000000000000000000000000000000000000000000000000000000000000000000000000000000000000000000000000000000000000000000000000000000000000000000000000000000000000000000000000000000000000000000000000000000000000000000000000000000000000000000000000000000000000000000000000000000000000000000000000000000000000000000000000000000000000000000000000000000000000000000000000000000000000000000000000000000000000000000000000000000000000000000000000000000000000000000000000000000000000000000000000000000000000000000000000000000000000000000000000000000000000000000000000000000000000000000000000000000000000000000000000000000000000000000000000000000000000000000000000000000000000000000000000000000000000000000000000000000000000000
#055360:000000000000005400000000000000000000000000000000
#0563b0:0000001323000000
#056380:00000000000000000013002300000000
#057340:0000000013230000
#057320:00000000000000000057000000000000
#057391:0000000000132300
#057371:00000000000000000000005700000000
#058321:13
#058361:00230000
#0583b1:0000000000000013
#0593b1:23
#059321:0013000000000000
#059351:00230000
#059380:00130000
#0593b0:0000002300000000
#059321:0000001300000000
#059351:0023
#059380:0013
#0593b0:0000000000332300
#059351:0000000000132300
#060381:13332300
#0603b1:0033003300000000
#060350:00001333
#060320:0000000000330033
#061350:23
#061381:13230000
#0613b1:0033000000000000
#061350:00132300
#061320:0000003300000000
#061381:00001323
#0613b1:0000000000530000
#062351:14
#062321:00540000000024000000000000000000
#063381:13330000
#0633b1:0053000023000000
#063350:00130000
#063320:0023
#065320:14
#065360:0000542400000000
#066340:1424000000000000
#066381:0014240000000000
#066320:0000142400000000
#0663a1:0000001424000000
#066330:0000000015250000
#066381:0000000000152500
#066320:0000000000001626
#066381:0000000000000016
#067381:36
#067371:000000000000000000000000000000000000000000000000000000000000000000000000000000000000000000000000000000000000000000000000000000000000000000000000000000000000000000000000000000000000000000000000000000000000000000000000000000000000000000000000000000000000000000000000000000000000000000000000000000000000000000000000000000000000000000000000000000000000000000000000000000000000000000000000000000000000000000000000000000000000000000000000000000000000000000000000000000000000000000000000000000000000000000000000000000000000000000000000000000000000000000000000000000000000000000000000000000000000000000000000000000000000000000000000000000000000000000000000000000000000000000000000000000000000000000000000000000000000000000000000000000000000000000000000000000000000000000000000000000000000000000000000000000000000000000000000000000000000000000000000000000000000000000000000000000000000000000000000000000000000000000000000000000000000000000000000000000000000000000000000000000000000000000000000000000000000000000000000000000000000000000000000000000000000000000000000000000000000000000000000000000000000000000000000000000000000000000000000000000000000000000000000000000000000000000000000000000000000000000000000000000000000000000000000000000000000000000000000000000000000000000000000000000000000000000000000000000000000000000000000000000000000000000000000000000000000000000000000000000000000000000000000000000000000000000000000000000000000000000000000000000000000000000000000000000000000000000000000000000000000000000000000000000000000000000000000000000000000000000000000000000000000000000000000000000000000000000000000000000000000000000000000000000000000000000000000000000000000000000000053000000000000000000000000000000000000000000000000000000000000000000000000000000000000000000000000000000000000000000000000000000000000000000000000000000000000000000000000000000000000000000000000000000000000000000000000000000000000000000000000
#068381:0000000000003653
#069381:25
#067320:16
#067360:0000000000000053
#068320:00000036
#068350:0000000000000053
#069330:25
#009980:0013
#0099b0:00000000000000000000002300000000
#010950:0013
#010920:00000000000000000000002300000000
#028920:14
#028960:00240000
#0289a0:0014
#028960:00000024
#042920:0000000013230000
#042981:0000000000132300
#042950:0000000000001323
#0439b0:0000000013230000
#043951:0000000000132300
#043980:0000000000001323
#0559b0:00000013
#055970:0000000000000053
#0569b0:23
#064980:14
#0649a0:00240000000000000000000000000000000000000000000000000000000000000000000000000000000000000000000000000000000000000000000000000000
#064940:0014
#064920:00000000000000000000000000000000000000000000000000000000000000000024000000000000000000000000000000000000000000000000000000000000
#065980:14
#0659a0:00240000000000000000000000000000000000000000000000000000000000000000000000000000000000000000000000000000000000000000000000000000
#0729a0:0014240000000000
#072940:0014
#072920:000000000000000000000000000000000000000000000000000000000000000000000000000000000000000000000000002400000000000000000000000000000000000000000000000000000000000000000000000000000000000000000000
#0759d0:112100000000000000000000000000000000000000000000000000000000000000000000000000000000000000000000000000000000000000000000000000000000000000000000000000000000000000000000000000000000000000000000000000000000000000000000000000000000000000000000000000000000000000000000000000000000000000000000000000000000000000000000000000000000000000000000000000000000000000000000000000000000000000000000000000000000000000000000000000000000000000000000000000000000000000000000000000000000000000000000000000000000000000000000000000000000000000000000000000000000000000000000000000000000000000000000000000000000000000000000000000000000000000000000000000000000000000000000000000000000000000000000000000000000000000000000000000000000000000000000000000000000000000000000000000000000000000000000000000000000000000000000000000000000000000000000000000000000000000000000000000000000000000000000000000000000000000000000000000000000000000000000000000000000000000000000000000000000000000000000000000000000000000000000000000000000000000000000000000000000000000000000000000000000000000000000000000000000000000000000000000000000000000000000000000000000000000000000000000000000000000000000000000000000000000000000000000000000000000000000000000000000000000000000000000000000000000000000000000000000000000000000000000000000000000000000000000000000000000000000000000000000000000000000000000000000000000000000000000000000000000000000000000000000000000000000000000000000000000000000000000000000000000000000000000000000000000000000000000000000000000000000000000000000000000000000000000000000000000000000000000000000000000000000000000000000000000000000000000000000000000000000000000000000000000000000000000000000000000000000000000000000000000000000000000000000000000000000000000000000000000000000000000000000000000000000000000000000000000000000000000000000000000000000000000000000000000000000000000000000000000000000000000000000000000000000000000000000000000000000000000000000000000000000000000000000000000000000000000000000000000000000000000000000000000000000000000000000000000000000000000000000000000000000000000000000000000000000000000000000000000000000000000000000000000000000000000000000000000000000000000000000000000000000000000000000000000000000000000000000000000000000000000000000000000000000000000000000000000000000000000000000000000000000000000000000000000000000000000000000000000000000000000000000000000000000000000000000000000000000000000000000000000000000000000000000000000000000000000000000000000000000000000000000000000000000000000000000000000000000000000000000000000000000000000000000000000000000000000000000000000000000000000000000000000000000000000000000000000000000000000000000000000000000000000000000000000000000000000000000000000000000000000000000000000000000000000000000000000000000000000000000000000000000000000000000000000000000000000000000000000000000000000000000000000000000000000000000000000000000000000000000000000000000000000000000000000000000000000000000000000000000000000000000000000000000000000000000000000000000000000000000000000000000000000000000000000000000000000000000000000000000000000000000000000000000000000000000000000000000000000000000000000000000000000000000000000000000000000000000000000000000000000000000000000000000000000000000000000000000000000000000000000000000000000000000000000000000000000000000000000000000000000000000000000000000000000000000000000000000000000000000000000000000000000000000000000000000000000000000000000000000000000000000000000000000000000000000000000000000000000000000000000000000000000000000000000000000000000000000000000000000000000000000000000000000000000000000000000000000000000000000000000000000000000000000000000000000000000000000000000000000000000000000000000000000000000000000000000000000000000000000000000000000000000000000000000000000000000000000000000000000000000000000000000000000000000000000000000000000
