This file was generated by Ched 2.7.0.0.
#TITLE ""
#ARTIST ""
#DESIGNER ""
#DIFFICULTY 0
#PLAYLEVEL
#SONGID ""
#WAVE ""
#WAVEOFFSET 0
#JACKET ""
#REQUEST "ticks_per_beat 480"
#00002: 4
#BPM01: 141
#00008: 01
#TIL00: "74'1919:10000.0, 75'0:1.0"
#VOLUME: ""
#HISPEED 00
#MEASUREHS 00
#00412:14
#00514:0014
#00518:26000014
#00618:0014
#00614:00000014
#00612:26
#00714:0014
#00718:26000014
#00818:0014
#00814:00000014
#00812:26
#0091a:1414
#00910:41
#01014:1414
#01118:1414
#01212:1414
#01318:14
#01414:14
#01418:0014
#01514:14
#01618:14
#01614:0014
#0171a:14
#01718:0014
#01714:00240024
#0181a:14
#01818:0014
#01814:00240024
#0191a:1414
#01912:00140014
#02114:14
#02214:0014
#0221a:24
#02210:41
#0231a:14
#02314:00140000
#02318:0014
#02412:14
#02418:0014
#02512:14
#02518:00140000
#02514:0014
#0281a:14
#02814:00140000
#02818:0014
#02812:00000014
#02918:14
#02914:00140000
#0301a:0014
#03012:24
#03114:14
#03118:00140000
#03112:0014
#0321a:14
#03212:0014
#03210:41
#03318:14
#03314:00140000
#0331a:0014
#03612:14
#03618:00140000
#03614:0014
#0361a:00000014
#0381a:0014
#03812:26000014
#03912:0014
#0391a:00000014
#03918:26
#0401a:0014
#04012:26000014
#04112:0014
#0411a:00000014
#04118:26
#04110:0041
#04214:2414
#04218:00140000
#0421f:11
#04318:2414
#04314:00140000
#04414:2414
#0441a:00140000
#04512:00140000
#04518:2414
#04514:00000014
#0461a:14
#04712:14
#0481a:14
#04818:00343400
#04912:14
#04914:00343400
#05014:0014
#05018:26000014
#0501f:00210000
#05010:0041
#05112:14
#05116:00140000
#05412:14
#0541a:00000014
#05514:14
#05518:00140000
#05512:0014
#0551a:00000014
#0621a:14
#06212:00000014
#06210:41
#06318:14
#06314:00140000
#0631a:0014
#06312:00000014
#05212:14
#0521a:00140000
#05214:0024
#05218:00000024
#05818:0014
#05814:00000014
#05812:16
#0591a:14
#05916:00140000
#0601a:14
#06012:00140000
#06018:0024
#06014:00000024
#06418:14
#06414:0014
#06518:14
#06512:00000014
#06618:1415
#06614:00140000
#06613:00000015
#06715:0000000000000016
#06718:26
#06918:0014
#06912:26000014
#07014:0014
#0701a:00000014
#07018:26
#07118:0014
#07112:26000014
#07214:0014
#07218:26000014
#05312:24
#05316:00240000
#0531a:0024
#0571a:24
#0611a:24
#06116:00240000
#06112:0024
#00452:54
#00558:16
#00652:16
#00758:16
#00852:16
#0135a:00000014
#01358:54
#01554:64
#01552:00000014
#02152:0014
#02154:54
#0225a:14
#03052:14
#03852:16
#03958:16
#04052:16
#04158:16
#0465a:54
#04752:64
#0485a:54
#04952:64
#05058:00160000
#05452:64
#05758:00000014
#0625a:54
#0515a:00000014
#0535a:0014
#06152:0014
#05952:00000014
#05852:16
#06458:54
#06454:0064
#06558:54
#0655a:0014
#06552:00000014
#06755:0000000000000026
#06758:56
#06952:16
#07058:16
#07152:16
#07258:16000014
#07254:0014
#0013a0:14
#001380:0034
#0023a0:34
#002380:0024
#003320:14
#003340:0034
#004320:34000026
#013380:14
#0133a0:00000024
#015340:14
#015320:00000024
#020380:14003424
#021340:14
#021320:0024
#0263a0:14240000
#026340:00001424
#027380:14240000
#027320:00001424
#0293a0:00001424
#034320:14240000
#034380:00001424
#035340:14240000
#0353a0:00001424
#037330:14
#038320:26
#0463a0:14
#046380:0024
#047320:14
#047340:0024
#0483a0:14
#048380:00343424
#049320:14
#049340:00343424
#050380:16260000
#0513a0:00001424
#054320:14
#054340:0024
#056320:1434
#056340:00340024
#0573a0:1434
#057380:00340024
#059320:00001424
#0623a0:14
#062380:0024
#064380:14
#0643a0:00240000
#064340:0014
#064320:00000024
#065380:14
#0653a0:0000003424000000
#067380:16
#067350:0000000000000056
#068380:00000026
#0759d0:112100000000000000000000000000000000000000000000000000000000000000000000000000000000000000000000000000000000000000000000000000000000000000000000000000000000000000000000000000000000000000000000000000000000000000000000000000000000000000000000000000000000000000000000000000000000000000000000000000000000000000000000000000000000000000000000000000000000000000000000000000000000000000000000000000000000000000000000000000000000000000000000000000000000000000000000000000000000000000000000000000000000000000000000000000000000000000000000000000000000000000000000000000000000000000000000000000000000000000000000000000000000000000000000000000000000000000000000000000000000000000000000000000000000000000000000000000000000000000000000000000000000000000000000000000000000000000000000000000000000000000000000000000000000000000000000000000000000000000000000000000000000000000000000000000000000000000000000000000000000000000000000000000000000000000000000000000000000000000000000000000000000000000000000000000000000000000000000000000000000000000000000000000000000000000000000000000000000000000000000000000000000000000000000000000000000000000000000000000000000000000000000000000000000000000000000000000000000000000000000000000000000000000000000000000000000000000000000000000000000000000000000000000000000000000000000000000000000000000000000000000000000000000000000000000000000000000000000000000000000000000000000000000000000000000000000000000000000000000000000000000000000000000000000000000000000000000000000000000000000000000000000000000000000000000000000000000000000000000000000000000000000000000000000000000000000000000000000000000000000000000000000000000000000000000000000000000000000000000000000000000000000000000000000000000000000000000000000000000000000000000000000000000000000000000000000000000000000000000000000000000000000000000000000000000000000000000000000000000000000000000000000000000000000000000000000000000000000000000000000000000000000000000000000000000000000000000000000000000000000000000000000000000000000000000000000000000000000000000000000000000000000000000000000000000000000000000000000000000000000000000000000000000000000000000000000000000000000000000000000000000000000000000000000000000000000000000000000000000000000000000000000000000000000000000000000000000000000000000000000000000000000000000000000000000000000000000000000000000000000000000000000000000000000000000000000000000000000000000000000000000000000000000000000000000000000000000000000000000000000000000000000000000000000000000000000000000000000000000000000000000000000000000000000000000000000000000000000000000000000000000000000000000000000000000000000000000000000000000000000000000000000000000000000000000000000000000000000000000000000000000000000000000000000000000000000000000000000000000000000000000000000000000000000000000000000000000000000000000000000000000000000000000000000000000000000000000000000000000000000000000000000000000000000000000000000000000000000000000000000000000000000000000000000000000000000000000000000000000000000000000000000000000000000000000000000000000000000000000000000000000000000000000000000000000000000000000000000000000000000000000000000000000000000000000000000000000000000000000000000000000000000000000000000000000000000000000000000000000000000000000000000000000000000000000000000000000000000000000000000000000000000000000000000000000000000000000000000000000000000000000000000000000000000000000000000000000000000000000000000000000000000000000000000000000000000000000000000000000000000000000000000000000000000000000000000000000000000000000000000000000000000000000000000000000000000000000000000000000000000000000000000000000000000000000000000000000000000000000000000000000000000000000000000000000000000000000000000000000000000000000000000000000000000000000000000000000000000000000000000000000000000000000000000000000000000000000000000000000000000
