This file was generated by Ched 2.7.0.0.
#TITLE ""
#ARTIST ""
#DESIGNER ""
#DIFFICULTY 0
#PLAYLEVEL
#SONGID ""
#WAVE ""
#WAVEOFFSET 0
#JACKET ""
#REQUEST "ticks_per_beat 480"
#00002: 4
#BPM01: 128
#00008: 01
#TIL00: "65'1919:10000, 66'1:1"
#VOLUME: ""
#HISPEED 00
#MEASUREHS 00
#00518:14
#00510:41
#00618:14
#00714:14
#00814:14
#0091a:14
#0101a:14
#01112:14
#01212:14
#01414:14
#0151a:14
#01614:14
#01718:14
#01812:14
#01918:14
#02012:14
#02314:14
#02418:14
#02718:14
#02912:0016
#02918:26
#02910:41
#03018:16
#03012:0016
#03218:0016
#03312:16
#03318:0016
#03412:16
#03418:0016
#0371a:14
#0371f:11
#03814:14
#03918:14
#04012:14
#0411a:14
#04214:14
#04512:0016
#04518:26
#0451f:21
#04618:16
#04612:0016
#04610:41
#04918:0016
#04912:16
#05012:16
#05018:0016
#04818:0016
#05212:0016
#05314:0014
#0531a:24
#05418:14
#05412:0014
#05618:0016
#05718:0014
#05712:14
#05814:14
#0581a:0014
#02814:14
#0131a:24
#01310:41
#0431a:24
#04312:24
#02110:41
#03510:0000000000000041
#001380:14
#002380:24
#003340:14
#004340:24
#0213a0:14
#0223a0:24
#025320:14
#026320:24
#031380:1636
#032380:26
#035320:1636
#036320:26
#047380:1636
#048380:26
#051320:1636
#052320:26
#055380:1636
#056380:26
#059320:1636
#060320:26
#061380:14
#0623a0:24
#063340:14
#064320:24
#0669d0:112100000000000000000000000000000000000000000000000000000000000000000000000000000000000000000000000000000000000000000000000000000000000000000000000000000000000000000000000000000000000000000000000000000000000000000000000000000000000000000000000000000000000000000000000000000000000000000000000000000000000000000000000000000000000000000000000000000000000000000000000000000000000000000000000000000000000000000000000000000000000000000000000000000000000000000000000000000000000000000000000000000000000000000000000000000000000000000000000000000000000000000000000000000000000000000000000000000000000000000000000000000000000000000000000000000000000000000000000000000000000000000000000000000000000000000000000000000000000000000000000000000000000000000000000000000000000000000000000000000000000000000000000000000000000000000000000000000000000000000000000000000000000000000000000000000000000000000000000000000000000000000000000000000000000000000000000000000000000000000000000000000000000000000000000000000000000000000000000000000000000000000000000000000000000000000000000000000000000000000000000000000000000000000000000000000000000000000000000000000000000000000000000000000000000000000000000000000000000000000000000000000000000000000000000000000000000000000000000000000000000000000000000000000000000000000000000000000000000000000000000000000000000000000000000000000000000000000000000000000000000000000000000000000000000000000000000000000000000000000000000000000000000000000000000000000000000000000000000000000000000000000000000000000000000000000000000000000000000000000000000000000000000000000000000000000000000000000000000000000000000000000000000000000000000000000000000000000000000000000000000000000000000000000000000000000000000000000000000000000000000000000000000000000000000000000000000000000000000000000000000000000000000000000000000000000000000000000000000000000000000000000000000000000000000000000000000000000000000000000000000000000000000000000000000000000000000000000000000000000000000000000000000000000000000000000000000000000000000000000000000000000000000000000000000000000000000000000000000000000000000000000000000000000000000000000000000000000000000000000000000000000000000000000000000000000000000000000000000000000000000000000000000000000000000000000000000000000000000000000000000000000000000000000000000000000000000000000000000000000000000000000000000000000000000000000000000000000000000000000000000000000000000000000000000000000000000000000000000000000000000000000000000000000000000000000000000000000000000000000000000000000000000000000000000000000000000000000000000000000000000000000000000000000000000000000000000000000000000000000000000000000000000000000000000000000000000000000000000000000000000000000000000000000000000000000000000000000000000000000000000000000000000000000000000000000000000000000000000000000000000000000000000000000000000000000000000000000000000000000000000000000000000000000000000000000000000000000000000000000000000000000000000000000000000000000000000000000000000000000000000000000000000000000000000000000000000000000000000000000000000000000000000000000000000000000000000000000000000000000000000000000000000000000000000000000000000000000000000000000000000000000000000000000000000000000000000000000000000000000000000000000000000000000000000000000000000000000000000000000000000000000000000000000000000000000000000000000000000000000000000000000000000000000000000000000000000000000000000000000000000000000000000000000000000000000000000000000000000000000000000000000000000000000000000000000000000000000000000000000000000000000000000000000000000000000000000000000000000000000000000000000000000000000000000000000000000000000000000000000000000000000000000000000000000000000000000000000000000000000000000000000000000000000000000000000000000000000000000000000000000000000000000000000000000000000000000000000000000000000000
