This file was generated by Ched 2.7.0.0.
#TITLE ""
#ARTIST ""
#DESIGNER ""
#DIFFICULTY 0
#PLAYLEVEL
#SONGID ""
#WAVE ""
#WAVEOFFSET 0
#JACKET ""
#REQUEST "ticks_per_beat 480"
#00002: 4
#BPM01: 128
#00008: 01
#TIL00: ""
#VOLUME: ""
#HISPEED 00
#MEASUREHS 00
#05312:0013
#0531b:00000013
#05318:1454540013130000
#05315:00000000000000000000001300000000
#05314:0000240000000013
#05319:00540054000000000000000000000000
#0051b:2313000013000000
#00515:00000013000000000000000000001300
#00518:00000000130000000033000000000013
#00512:00000000000013000000001300000000
#00510:41
#00612:00000000000000130000000000000000
#0061b:0000130000001313
#00618:0013001300000000
#00615:00000013001300000000000000000013
#00815:13000000000000000000001300001300
#0081b:00001313
#00818:00000000000000000000130000000013
#00915:00001300000000130000001300001300
#0091b:00000000000013000033000000000000
#00918:00000000130000001300000000000013
#00912:23
#01012:1313001300001300
#0101b:00000000000000130000000000001300
#01015:0000130000000013
#01018:00000013001300000000000000000000
#01115:00001300000013000053000000000000
#01118:13000013001300000000000000530000
#01112:00130053
#0111b:00000000000000130000000000000000
#01116:0013
#01117:00000013
#01114:0000000000530000
#01113:00000000000000000000005300000000
#01119:0000000000000053
#0111a:00000000000000000000000000000053
#01518:0000001300001300
#01515:0013000000000013
#0151b:13130000
#01512:13131300
#0161b:0000000013000013
#01617:0013130000000000
#01612:00130000
#01616:0013
#02218:00000013
#0221b:0000000000130000
#02215:1300000000000013
#02315:00130013
#02312:0000000000000013
#0231b:13
#02318:0000000013000013
#0271b:1313
#02719:000000130000000000000000000000000000000000006400
#02712:00130064
#02714:000000000000000000130000000064000000000000000000
#02715:2424
#02717:00240024
#02713:000064
#02718:000000000064
#0321a:00000014
#03218:0000000000130000
#03215:0013
#03212:0000001300001400
#0321b:0000001300000000
#0371b:12
#03713:12121212
#0371f:11
#06118:12
#06113:12
#00013:00000012
#00118:12
#0011b:0012
#00216:12
#00213:0012
#00412:13
#00415:00000000000000001300000000000013
#00418:0000000023000013
#00712:00001300000000000013000000001300
#00718:00000013000000001300000013000013
#0071b:0000001300130000
#00715:00000000000000130000001300000000
#01218:0000000016002323
#01212:0013000000000000
#01215:00000000000000000000002300230000
#0121b:53
#0131b:0013000000000013
#01315:13130000000000000000000000000000
#01314:0013000000000000000000000000000000140000000000000000000000000000
#01316:0000001300000000000000000000000000000000000000000000000000000000
#01312:0000000000000000000000001300000000000014000000000000000000000000
#01318:0000000000000000130013000000000000000014000000000000000000000000
#01319:0000000000000000001300000000000014001400000000000000000000000000
#01317:0000000000000000000000130000000000000000000000000000000000000000
#0131a:0000000000000000000000000000000000140000000000000000000000000000
#01313:00000000000000002414000000000000
#01310:41
#0141b:13
#01412:0013131400000000
#01418:0000000000000013
#01416:14
#01417:0000002400000000
#01419:0033000000000000
#01714:0013000000000000
#01719:0000001300000000
#01712:0000000000140013
#01716:13
#0171a:0024
#01812:1300000000000013
#0181b:0013130000000000
#0181a:0000001400000000
#01816:14
#01815:0000002400000000
#01814:0033000000000000
#01914:0013000000000000
#01919:0000001300001300
#01912:1300000000000013
#01917:0000000000000023
#02016:0013000000000000
#0201b:0023000000000000
#02112:13
#0211b:13
#02118:00000013
#02110:41
#0241a:0014000000000000
#02412:0013
#02418:0013
#02415:00000013
#0241b:00000013
#0251a:24000014001400140014000000140000
#02516:0000230023132300
#02512:23
#02812:0000001300001400
#02815:0013
#02818:0000000000130000
#0281a:00000014
#02916:14141414
#02912:2424
#0291a:00240024
#02910:41
#03116:0014001400000000
#03112:24141400
#0311a:1414
#03118:0000000000000023
#03115:0000000000000023
#03316:14141414
#0331a:2424
#03312:00240024
#03416:14141414
#0341a:2424
#03412:00240024
#03512:1400000000000024
#03516:0014001414001400
#0351a:24000000140000000000001400002400
#03510:0000000000000041
#03813:12
#03818:00121212
#03918:12
#03916:00121212
#04016:1200000000000012
#04018:00000000000000001200000000000012
#04019:00000000000000000052000000000000
#0401a:0000000000525200
#04116:0012000000120000
#04114:22121212
#0411a:00121212
#04118:0000001200000012
#04218:00130013001300130000000000000000
#04215:230000000000000000000000130000000000000000000000230000000000000000000000130000000000000000000000130000003300000033000000330000003300000033000000000000330000330000330000330000330000330000330000
#04216:00000014
#04416:0014
#0441a:0000000000140000
#04414:00000018
#04412:0000001400000000
#04712:1400000000140000
#04712:14
#04716:0014001414000024
#0471a:0000140000001424
#04719:25
#0481a:00000014
#04818:0000000000130000
#04815:0013
#04812:0000001300001400
#0481b:0000001300000000
#0511a:1400000014000024
#05116:0014001400000000
#05112:2600140014000024
#05115:0000000000140000
#05117:000000000000000000000000000000000000000000000000000000000000000000000000000000000000000000000000000000000000000000000000000000000000000000000000000000000000000000000000000000000000000000000000000000000000000000000000000000000000000000000000000000000000000000000000000000000000000000000000000000000000000000000000000000000000000000000000000000000000000000000000000000000000000000000000000000000000000000000000000000000000000000000000000000000000000000000000000000000000000000000000000000000000000000000000000000000000000000000000000000000000000000000000000000000000000000000000000000000000000000000000000000000000000000000000000000000000000000000000000000000000000000000000000000000000000000000000000000000000000000000000000000000000000000000000000000000000000000000000000000000000000000000000000000000000000000000000000000000000000000000000000000000000000000000000000000000000000000000000000000000000000000000000000000000000000000000000000000000000000000000000000000000000000000000000000000000000000000000000000000000000000000000000000000000000000000000000000000000000000000000000000000000000000000000000000000000000000000000000000000000000000000000000000000000000000000000000000000000000000000000000000000000000000000000000000000000000000000000000000000000000000000000000000000000000000000000000000000000000000000000000000000000000000000000000000000000000000000000000000000000000000000000000000000000000000000000000000000000000000000000000000000000000000000000000000000000000000000000000000000000000000000000000000000000000000000000000000000000000000000000000000000000000000000000000000000000000000000000000000000000000000000000000000000000000000000000000000000000000000000000000000000000000000000000000000000000000000000000000000000000000000000000000000000000000000000000000000000000000000000000000000000000000000000000000000000000000000000000000000000000000000000000000000000000000000000000000000000000000000000000000000000000000000000000000000000000000000000000000000000000000000000000000000000000000000000000000000000000000000000000000000000000000000000000000000000000000000000000000000000000000000000000000000000000000000000000000000000000000000000000000000000000000000000000000000000000000000000000000000000000000000000000000000000000000000000000000000000000000000000000000000000000000000000000000000000000000000000000000000000000000000000000000000000000000000000000000000000000000000000000000001400000000000000000000000000000000000000000000000000000000000000000000000000000000000000000000000000000000000000000000000000000000000000000000000000000000000000000000000000000000000000000000000000000000000000000000000000000000000000000000000000000000000000000000000000000000000000000000000000000000000000000000000000000000000000000000000000000000000000000000000000000000000000000000000000000000000000000000000000000000000000000000000000000000000000000000000000000000000000000000000000000000000000000000000000000000000000000000000000000000000000000000000000000000000000000000000000000000000000000000000000000000000000000000000000000000000000000000000000000000000000000000000000000000000000000000000000000000000000000000000000000000000000000000000000000000000000000000000000000000000000000000000000000000000000000000000000000000000000000000000000000000000000000000000000000000000000000000000000000000000000000000000000000000000000000000000000000000000000000000000000000000000000000000000000000000000000000000000000000000000000000000000000000000000000000000000000000000000000000000000000000000000000000000000000000000000000000000000000000000000000000000000000000000000000000000000000000000000000000000000000000000000000000000000000000000000000000000000000000000000000000000000000000000000000000000000000000000000000000000000000000000000000000000000000000000000000000000000000000000000000000000000000000000000000000000000000000000000000000000
#05212:0000001300001400
#05215:0000000000130000
#05218:0013
#0521b:0000001300000000
#0521a:00000014
#05412:13001313
#0541b:0013000013001300
#05419:00130000
#05415:0000001300130000
#05418:0000000000130000
#0551a:1400000014002424
#05516:0014140000140000
#05512:1400001400001424
#0561a:0000001400001400
#05612:00000024
#05712:13000013
#0571b:13131300
#05718:00001300000013000000001300000000
#05716:00130000
#05715:0000000000130000
#05719:0000000000000013
#0581b:1313
#05812:0013000000000000
#05814:00130000
#05818:0000001300130000
#05815:0000000013000013
#05912:14000000000000140000000014002400
#05916:0014140000140000
#0591a:1400000014002424
#06015:0013000000000000
#06018:0013000000000000
#06012:00000000001300000000000000000000
#0601b:00000000001300000000000000000000
#06316:12
#0621b:12
#06216:12
#06416:0012
#0641b:12
#04916:0014001400140014
#04918:13261326
#04915:00130013
#04912:2626
#00318:13
#0031b:0013
#02612:24000014001400140014000000140000
#02617:0000230023132300
#0261b:23
#04515:1313
#04518:00130013
#04519:2525
#04512:00250025
#0451f:21
#04615:1313
#04618:00130013
#04619:2525
#04612:00250025
#04610:41
#05016:0014001400140014
#05018:13261326
#05015:00130013
#05012:2626
#03016:14141414
#0301a:00240024
#03012:2424
#06518:12
#06616:12
#03615:0023000000000000
#03612:00000000002300000000000000000000
#03618:0023000000000000
#0361b:00000000002300000000000000000000
#04318:26
#04312:26
#06713:72
#00652:00000000000000530000000000000000
#00855:53
#0105b:00000000000000530000000000000000
#01055:0000000000000053
#01359:0000000000000000002300000000000054005400140000000000000000000000
#01353:00000000000000005454140000000000
#01354:0023000000000000000000000000000000240000000000000000000000000000
#01356:0000002300000000000000000000000000000000000000000000000000000000
#01355:53530000000000000000000000000000
#01358:0000000000000000630063000000000000000024000000000000000000000000
#01357:0000000000000000000000230000000000000000000000000000000000000000
#0135a:0000000000000000000000000000000000240000000000000000000000000000
#01352:0000000000000000000000000000000000000024000000000000000000000000
#0175a:0000000000140000
#01752:0000000000140000
#02058:0014
#02056:0053000000000000
#02052:0014
#0205b:0053000000000000
#02352:0000000000000053
#0235b:63
#02355:00630000
#02358:0053
#02455:0014000000000000
#0245a:0014000000000000
#0325a:0014000000001400
#03252:0014000000001400
#0375b:52
#0535b:00000063
#05354:00140000
#05358:00140000
#06158:52
#00053:00000052
#00158:62
#0015b:0022
#00256:52
#00253:0022
#00452:63000016
#00455:0023
#00458:00002316
#00558:00000000000000000000001300000000
#0055b:0053
#0095b:00000000000000000000001300000000
#00958:0053
#0145b:53
#0145a:0000000000140000
#01452:0000005400000000
#01455:0000000000140000
#01457:0000005400000000
#01652:00630000
#01656:0023
#0165b:0023
#01657:00530000
#02152:53
#02158:00000063
#02255:53
#02852:00000014
#0285a:00000014
#02956:54645464
#0295a:00440044
#02952:3434
#03156:0024002400000000
#03152:34645400
#03155:0000000000001363
#03158:0000000000001353
#0315a:5454
#03356:64546454
#0335a:4444
#03352:00340034
#03456:64546454
#0345a:4444
#03452:00340034
#03552:6400000000000054
#03556:0024002454000000
#0355a:4400540000000064
#03654:0014
#03655:0053000000000000
#03652:00000000002300000000000000000000
#03658:0063000014000000
#0365b:00000000002300000000000000000000
#03853:62
#03958:62
#04056:52
#0405a:00000012
#04358:46
#04352:36
#04454:00000018
#04756:0024002464001464
#04752:6400000000240000
#04752:64
#0475a:0000640000001464
#04759:45
#04852:0014000000001400
#04856:0014000000000000
#0485a:00000014
#04952:3636
#04958:53465346
#04956:0024002400240024
#04955:00630063
#0515a:5400000054001464
#05156:0024002400000000
#05152:3600640064001454
#05155:0000000000240000
#05157:000000000000000000000000000000000000000000000000000000000000000000000000000000000000000000000000000000000000000000000000000000000000000000000000000000000000000000000000000000000000000000000000000000000000000000000000000000000000000000000000000000000000000000000000000000000000000000000000000000000000000000000000000000000000000000000000000000000000000000000000000000000000000000000000000000000000000000000000000000000000000000000000000000000000000000000000000000000000000000000000000000000000000000000000000000000000000000000000000000000000000000000000000000000000000000000000000000000000000000000000000000000000000000000000000000000000000000000000000000000000000000000000000000000000000000000000000000000000000000000000000000000000000000000000000000000000000000000000000000000000000000000000000000000000000000000000000000000000000000000000000000000000000000000000000000000000000000000000000000000000000000000000000000000000000000000000000000000000000000000000000000000000000000000000000000000000000000000000000000000000000000000000000000000000000000000000000000000000000000000000000000000000000000000000000000000000000000000000000000000000000000000000000000000000000000000000000000000000000000000000000000000000000000000000000000000000000000000000000000000000000000000000000000000000000000000000000000000000000000000000000000000000000000000000000000000000000000000000000000000000000000000000000000000000000000000000000000000000000000000000000000000000000000000000000000000000000000000000000000000000000000000000000000000000000000000000000000000000000000000000000000000000000000000000000000000000000000000000000000000000000000000000000000000000000000000000000000000000000000000000000000000000000000000000000000000000000000000000000000000000000000000000000000000000000000000000000000000000000000000000000000000000000000000000000000000000000000000000000000000000000000000000000000000000000000000000000000000000000000000000000000000000000000000000000000000000000000000000000000000000000000000000000000000000000000000000000000000000000000000000000000000000000000000000000000000000000000000000000000000000000000000000000000000000000000000000000000000000000000000000000000000000000000000000000000000000000000000000000000000000000000000000000000000000000000000000000000000000000000000000000000000000000000000000000000000000000000000000000000000000000000000000000000000000000000000000000000000000000000000000002400000000000000000000000000000000000000000000000000000000000000000000000000000000000000000000000000000000000000000000000000000000000000000000000000000000000000000000000000000000000000000000000000000000000000000000000000000000000000000000000000000000000000000000000000000000000000000000000000000000000000000000000000000000000000000000000000000000000000000000000000000000000000000000000000000000000000000000000000000000000000000000000000000000000000000000000000000000000000000000000000000000000000000000000000000000000000000000000000000000000000000000000000000000000000000000000000000000000000000000000000000000000000000000000000000000000000000000000000000000000000000000000000000000000000000000000000000000000000000000000000000000000000000000000000000000000000000000000000000000000000000000000000000000000000000000000000000000000000000000000000000000000000000000000000000000000000000000000000000000000000000000000000000000000000000000000000000000000000000000000000000000000000000000000000000000000000000000000000000000000000000000000000000000000000000000000000000000000000000000000000000000000000000000000000000000000000000000000000000000000000000000000000000000000000000000000000000000000000000000000000000000000000000000000000000000000000000000000000000000000000000000000000000000000000000000000000000000000000000000000000000000000000000000000000000000000000000000000000000000000000000000000000000000000000000000000000000000000000000000
#05254:0014000000000000
#05258:0014000000000000
#05252:00000014
#0525a:00000014
#05452:53000023
#0545b:00000023
#05458:0000000000530000
#05455:0000000000630000
#0555a:5400000054001454
#05556:0024540000240000
#05552:0000002400001454
#05658:0013000000000000
#05655:0013000000000000
#0565a:00000014
#05652:00000014
#05752:53000053
#05756:00230000
#0585b:63
#05952:6400000000001464
#05956:0024640000240000
#0595a:0000000054001464
#0605b:00000000002300000000000000000000
#06058:0053000013000000
#06055:0063000013000000
#06052:00000000002300000000000000000000
#06356:62
#0625b:62
#06456:0062
#0645b:62
#01957:0000000000000053
#0035b:0023
#00358:53
#01252:0023000000000000
#01852:6300000000140000
#0185a:0000006400000000
#01855:0000006400000000
#01857:0000000000140000
#04256:00000024
#04255:0053
#04555:2323
#04558:00230023
#04559:4545
#04552:00350035
#04659:4545
#04655:2323
#04652:00350035
#04658:00230023
#05052:3636
#05056:0024002400240024
#05058:53465346
#05055:00630063
#0305a:00440044
#03052:3434
#03056:54645464
#06558:52
#06656:62
#01555:0000000000000053
#000330:00000012
#001360:22
#001381:12
#0013b1:0052
#002381:22
#002360:12
#002330:0052
#003350:23
#003381:13
#0033b1:0053
#004371:24
#004320:13000026
#004350:0053
#004381:00001326
#0053b1:0013
#005381:00000000000000000033002300000000
#006321:1323000000000000
#006321:00000000000000130000000000000000
#006351:00000023
#007381:1323000000000000
#007351:0000132300000000
#008351:13
#008321:0023
#009381:0013
#0093b1:00000000000000000033002300000000
#0103b1:00000000000000130000000000000000
#010381:00000023
#010351:0000000000000013
#011321:23
#012361:13
#012341:00330000000000000000000000000000
#012321:0033000026000000
#013351:13532300000000000000000000000000
#013341:0053000000000000000000000000000000000000000000000000000000000000
#013361:0000005300000000000000000000000000000000000000000000000000000000
#013381:00000000135323000000000000000000
#013391:0000000000000000005300000000000000000000000000000000000000000000
#013371:0000000000000000000000530000000000000000000000000000000000000000
#013391:00000000000000001454240000000000
#0133a1:0000000000000000000000000000000000540000000000000000000000000000
#013381:0000000000000000000000000000000000000054000000000000000000000000
#013330:00000000000000001454240000000000
#013340:0000000000000000000000000000000000540000000000000000000000000000
#013320:0000000000000000000000000000000000000054000000000000000000000000
#0143b0:13
#014390:0033000000000000
#014370:00230000
#014370:0000001400000000
#0143a0:0000000000240000
#014321:0000001400000000
#014351:0000000000240000
#0153b1:0000000013230000
#015350:0000000000132300
#015350:0000000000000013
#016320:0033330000002300
#016360:0053
#016371:00130023
#0163b1:0053
#0173b1:13
#017371:00230000
#017320:00130000
#017360:0023
#0173a1:0000000014240000
#018321:13
#018341:0033000000000000
#018361:00230000
#018351:0000001400000000
#018321:0000000000240000
#0183a0:0000001400000000
#018370:0000000000240000
#019370:13
#0193b0:00230000
#019361:00130000
#019321:0023
#019370:0013
#0193b0:0000000000230000
#019361:0000000000130000
#019321:00000023
#019371:0000000000000013
#0203b1:0033000000000000
#020381:0024
#020360:0013000000000000
#020320:0024
#021320:13
#021350:00000023
#021381:00000013
#0223b1:23
#022350:13
#022320:0000000000230000
#0233b0:13
#023380:00230000
#023351:00130000
#023321:0023
#023380:0013
#0233b0:00000023
#023320:0000000000000013
#024350:0024000000000000
#029360:14
#0293a0:00240000
#029361:00140000
#029321:0024
#029360:0014
#0293a0:00000024
#029361:00000014
#030321:24
#030360:14
#0303a0:00240000
#030361:00140000
#030321:0024
#030360:0014
#0303a0:00000024
#030361:00000014
#031321:24
#0313a0:14343400
#031360:0054000000000000
#031380:00000023
#031321:00143400
#031361:0000005400000000
#031351:00000023
#031381:0000000000000013
#0323a1:0024000000000000
#031350:0000000000000013
#032320:0024000000000000
#033360:14
#033320:00540000240000000000000000000000
#033361:00140000
#0333a1:00000000005400002400000000000000
#033360:0014
#033320:00000000000000000054000024000000
#033361:00000014
#0333a1:00000000000000000000000000540000
#0343a1:24
#034360:14
#034320:00540000240000000000000000000000
#034361:00140000
#0343a1:00000000005400002400000000000000
#034360:0014
#034320:00000000000000000054000024000000
#034361:00000014
#0343a1:00000000000000000000000000540000
#0353a1:24
#035320:14240000
#035360:0054000000000000
#0353a1:00142400
#035361:0000005400000000
#035360:0014
#035320:00000000000000000000002400000000
#035320:0000000000000014
#036350:0033000000000000
#036320:00000000005300000000000000000000
#036340:0024
#0353a1:0000000000000014
#036381:0033000024000000
#0363b1:00000000005300000000000000000000
#0373b1:12
#038381:22
#038330:12
#039360:22
#039381:12
#0403b1:22
#040360:12
#040330:0022
#042350:000000000000000000000000000000000000000000000000000000000000000000000000000000000000000000000000130000003300000033000000330000003300000033000000000000330000330000330000330000330000330000330000
#042360:00000034
#043320:26
#045350:13
#045320:00250000
#045381:00130000
#045391:0025
#045350:0013
#045320:00000025
#045381:00000013
#046391:25
#046350:13
#046320:00250000
#046381:00130000
#046391:0025
#046350:0013
#046320:00000025
#046381:00000013
#047391:25
#047320:14240000
#047360:0054000000000000
#0473a1:00142400
#047361:0000005400000000
#047360:00001424
#047320:0000000000540000
#0473a0:0000000000000014
#048360:0024000000000000
#047361:0000000000000014
#048321:0024000000000000
#049381:13260000
#049361:0054000000000000
#049350:00130000
#049360:0000005400000000
#049320:0026
#049381:00001326
#049361:0000000000540000
#049350:00000013
#049360:0000000000000054
#050320:26
#050381:13260000
#050361:0054000000000000
#050350:00130000
#050360:0000005400000000
#050320:0026
#050381:00001326
#050361:0000000000540000
#050350:00000013
#050360:0000000000000054
#051320:26
#0513a1:14343424
#051361:0054000000000000
#051371:000000000000000000000000000000000000000000000000000000000000000000000000000000000000000000000000000000000000000000000000000000000000000000000000000000000000000000000000000000000000000000000000000000000000000000000000000000000000000000000000000000000000000000000000000000000000000000000000000000000000000000000000000000000000000000000000000000000000000000000000000000000000000000000000000000000000000000000000000000000000000000000000000000000000000000000000000000000000000000000000000000000000000000000000000000000000000000000000000000000000000000000000000000000000000000000000000000000000000000000000000000000000000000000000000000000000000000000000000000000000000000000000000000000000000000000000000000000000000000000000000000000000000000000000000000000000000000000000000000000000000000000000000000000000000000000000000000000000000000000000000000000000000000000000000000000000000000000000000000000000000000000000000000000000000000000000000000000000000000000000000000000000000000000000000000000000000000000000000000000000000000000000000000000000000000000000000000000000000000000000000000000000000000000000000000000000000000000000000000000000000000000000000000000000000000000000000000000000000000000000000000000000000000000000000000000000000000000000000000000000000000000000000000000000000000000000000000000000000000000000000000000000000000000000000000000000000000000000000000000000000000000000000000000000000000000000000000000000000000000000000000000000000000000000000000000000000000000000000000000000000000000000000000000000000000000000000000000000000000000000000000000000000000000000000000000000000000000000000000000000000000000000000000000000000000000000000000000000000000000000000000000000000000000000000000000000000000000000000000000000000000000000000000000000000000000000000000000000000000000000000000000000000000000000000000000000000000000000000000000000000000000000000000000000000000000000000000000000000000000000000000000000000000000000000000000000000000000000000000000000000000000000000000000000000000000000000000000000000000000000000000000000000000000000000000000000000000000000000000000000000000000000000000000000000000000000000000000000000000000000000000000000000000000000000000000000000000000000000000000000000000000000000000000000000000000000000000000000000000000000000000000000000000000000000000000000000000000000000000000000000000000000000000000000000000000000000000000000000000000000005400000000000000000000000000000000000000000000000000000000000000000000000000000000000000000000000000000000000000000000000000000000000000000000000000000000000000000000000000000000000000000000000000000000000000000000000000000000000000000000000000000000000000000000000000000000000000000000000000000000000000000000000000000000000000000000000000000000000000000000000000000000000000000000000000000000000000000000000000000000000000000000000000000000000000000000000000000000000000000000000000000000000000000000000000000000000000000000000000000000000000000000000000000000000000000000000000000000000000000000000000000000000000000000000000000000000000000000000000000000000000000000000000000000000000000000000000000000000000000000000000000000000000000000000000000000000000000000000000000000000000000000000000000000000000000000000000000000000000000000000000000000000000000000000000000000000000000000000000000000000000000000000000000000000000000000000000000000000000000000000000000000000000000000000000000000000000000000000000000000000000000000000000000000000000000000000000000000000000000000000000000000000000000000000000000000000000000000000000000000000000000000000000000000000000000000000000000000000000000000000000000000000000000000000000000000000000000000000000000000000000000000000000000000000000000000000000000000000000000000000000000000000000000000000000000000000000000000000000000000000000000000000000000000000000000000000000000000000000000000
#051320:00143424
#051360:0000005400000000
#051350:0000000000540000
#051320:0000000000000014
#052340:0024000000000000
#0513a1:0000000000000014
#052381:0024000000000000
#0533b1:00000013
#054371:23
#054320:13
#054360:00230000
#054380:0000000000130023
#0543b0:00000053
#054351:0000000000130023
#054321:00000053
#0553a1:14240000
#055361:0054000000000000
#055360:00142400
#055320:0000005400000000
#0553a1:00001424
#055361:0000000000540000
#055321:0000000000000014
#055351:00000000000000000000000000000053
#056351:0023000000000000
#0553a0:0000000000000014
#055380:00000000000000000000000000000053
#056380:0023000000000000
#056340:0000001424000000
#056381:0000000014240000
#056320:0000000000142400
#057320:1323
#057360:00530000
#057320:00000013
#058360:23
#0583b1:13
#058371:00230000
#058321:0000000000132300
#0583b0:0000000000001323
#059320:14240000
#059360:0054000000000000
#059361:00140000
#0593a1:00000000000000240000000000000000
#0593a1:00001424
#059361:0000000000540000
#0593a1:0000000000000014
#059381:00000000000000000000000000000053
#060381:0033000023000000
#0603b1:00000000005300000000000000000000
#059320:0000000000000014
#059350:00000000000000000000000000000053
#060350:0033000023000000
#060320:00000000005300000000000000000000
#061380:12
#0623b0:32
#063380:22
#063361:12
#064331:22
#0643b0:12
#064380:0022
#064361:0012
#065331:22
#065380:12
#0663b0:22
#066361:12
#067331:22
#011960:0013
#011920:000000000000000000000000000000000000000000000000000000000000000000000000000000000000000000000000000000000000000000000000000000000000000000000000000000000000000000000000000000000000000000000000000000000000000000000000000000000000000000000000000000000000000000000000000000000000000000000000000000000000000000000000000000000000000000000000000000000000000000000000000000000000000000000000000000000000000000000000000000000000000000000000000000000000000000000000000000000000000000000000000000000000000000000000000000000000000000000000000000000000000000000000000000000000000000000000000000000000000000000000000000000000000000000000000000000000000000000000000000000000000000000000000000000000000000000000000000000000000000000000000000000000000000000000000000000000000000000000000000000000000000000000000000000000000000000000000000000000000000000000000000000000000000000000000000000000000000000000000000000000000000000000000000000000000000000000000000000000000000000000000000000000000000000000000000000000000000000000000000000000000000000000000000000000000000000000000000000000000000000000000000000000000000000000000000000000000000000000000000000000000000000000000000000000000000000000000000000000000000000000000000000000000000000000000000000000000000000000000000000000000000000000000000000000000000000000000000000000000000000000000000000000000000000000000000000000000000000000000000000000000000000000000000000000000000000000000000000000000000000000000000000000000000000000000000000000000000000000000000000000000000000000000000000000000000000000000000000000000000000000000000000000000000000000000000000000000000000000000000000000000000000000000000000000000000000000000000000000000000000000000000000000000000000000000000000000000000000000000000000000000000000000000000000000000000000000000000000000000000000000000000000000000000000000000000000000000000000000000000000000000000000000000000000000000000000000000000000000000000000000000000000000000000000000000000000000000000000000000000000000000000000000000000000000000000000000000000000000000000000000000000000000000000000000000000000000000000000000000000000000000000000000000000000000000000000000000000000000000000000000000000000000000000000000000000000000000000000000000000000000000000000000000000000000000000000000000000000000000000000000000000000000000000000000000000000000000000000000000000000000000000000000000000000000000000000000000000000000000000000000000000000000000000000000000000000000000000000000000000000000000000000000000000000000000000000000000000000000000000000000000000000000000000000000000000000000000000000000000000000000000000000000000000000000000000000000000000000000000000000000000000000000000000000000000000000000000000000000000000000000000000000000000000000000000000000000000000000000000000000000000000000000000000000000000000000000000000000000000000000000000000000000000000000000000000000000000000000000000000000053230000000000000000000000000000000000000000000000000000000000000000000000000000000000000000000000000000000000000000000000000000000000000000000000000000000000000000000000000000000000000000000000000000000000000000000000000000000000000000000000000000000000000000000000000000000000000000000000000000000000000000000000000000000000000000000000000000000000000000000000000000000000000000000000000000000000000000000000000000000000000000000000000000000000000000000000000000000000000000000000000000000000000000000000000000000000000000000000000000000000000000000000000000000000000000000000000000000000000000000000000000000000000000000000000000000000000000000000000000000000000000000000000000000000000000000000000000000000000000000000000000000000000000000000000000000000000000000000000000000000000000000000000000000000000000000000000000000000000000000000000000000000000000000000000000000000000000000000000000000000000000000000000000000000000000000000000000000000000000000000
#011971:00000013
#0119b1:000000000000000000000000000000000000000000000000000000000000000000000000000000000000000000000000000000000000000000000000000000000000000000000000000000000000000000000000000000000000000000000000000000000000000000000000000000000000000000000000000000000000000000000000000000000000000000000000000000000000000000000000000000000000000000000000000000000000000000000000000000000000000000000000000000000000000000000000000000000000000000000000000000000000000000000000000000000000000000000000000000000000000000000000000000000000000000000000000000000000000000000000000000000000000000000000000000000000000000000000000000000000000000000000000000000000000000000000000000000000000000000000000000000000000000000000000000000000000000000000000000000000000000000000000000000000000000000000000000000000000000000000000000000000000000000000000000000000000000000000000000000000000000000000000000000000000000000000000000000000000000000000000000000000000000000000000000000000000000000000000000000000000000000000000000000000000000000000000000000000000000000000000000000000000000000000000000000000000000000000000000000000000000000000000000000000000000000000000000000000000000000000000000000000000000000000000000000000000000000000000000000000000000000000000000000000000000000000000000000000000000000000000000000000000000000000000000000000000000000000000000000000000000000000000000000000000000000000000000000000000000000000000000000000000000000000000000000000000000000000000000000000000000000000000000000000000000000000000000000000000000000000000000000000000000000000000000000000000000000000000000000000000000000000000000000000000000000000000000000000000000000000000000000000000000000000000000000000000000000000000000000000000000000000000000000000000000000000000000000000000000000000000000000000000000000000000000000000000000000000000000000000000000000000000000000000000000000000000000000000000000000000000000000000000000000000000000000000000000000000000000000000000000000000000000000000000000000000000000000000000000000000000000000000000000000000000000000000000000000000000000000000000000000000000000000000000000000000000000000000000000000000000000000000000000000000000000000000000000000000000000000000000000000000000000000000000000000000000000000000000000000000000000000000000000000000000000000000000000000000000000000000000000000000000000000000000000000000000000000000000000000000000000000000000000000000000000000000000000000000000000000000000000000000000000000000000000000000000000000000000000000000000000000000000000000000000000000000000000000000000000000000000000000000000000000000000000000000000000000000000000000000000000000000000000000000000000000000000000000000000000000000000000000000000000000000000000000000000000000000000000000000000000000000000000000000000000000000000000000000000000000000000000000000000000000000000000000000000000000000000000000000000000000000000000000000000000000000000000000000000000000000000000000000000000000000000000000000000000000000000000000000000000000000000000000000000000000000000000000000000000000000000000000000000000000000000000000000000000000000000000000000000000000000000000000000000000000000000000000000000000000000000000000000000000000000000000000000000000000000000000000000000000000000000000000000000000000000000000000000000000000000000000000000000000000000000000000000000000000000000000000000000000000000000000000000000000000000000000000000000000000000000000000000000000000000000000000000000000000000000000000000000000000000000000000000000000000000000000000000000000000000000000000000000000000000000000000000000000000000000000000000000000000000000000000000000000000000000000000000000000000000000000000000000000000000000000000000000000000000000000000000000000000000000000000000000000000000000000000000000000000000000000000000000000000000000000000000000000000000000000000000000000000000000000000000000000000000000000000053
#0129b1:23
#027951:0014
#027921:000000000000000000000000000000000000000000000000000000000000000000000000000000000000000000000000000000000000000000000000000000000000000000000000000000000000000000000000000000000000000000000000000000000000000000000000000000000000000000000000000000000000000000000000000000000000000000000000000000000000000000000000000000000000000000000000000000000000000000000000000000000000000000000000000000000000000000000000000000000000000000000000000000000000000000000000000000000000000000000000000000000000000000000000000000000000000000000000000000000000000000000000000000000000000000000000000000000000000000000000000000000000000000000000000000000000000000000000000000000000000000000000000000000000000000000000000000000000000000000000000000000000000000000000000000000000000000000000000000000000000000000000000000000000000000000000000000000000000000000000000000000000000000000000000000000000000000000000000000000000000000000000000000000000000000000000000000000000000000000000000000000000000000000000000000000000000000000000000000000000000000000000000000000000000000000000000000000000000000000000000000000000000000000000000000000000000000000000000000000000000000000000000000000000000000000000000000000000000000000000000000000000000000000000000000000000000000000000000000000000000000000000000000000000000000000000000000000000000000000000000000000000000000000000000000000000000000000000000000000000000000000000000000000000000000000000000000000000000000000000000000000000000000000000000000000000000000000000000000000000000000000000000000000000000000000000000000000000000000000000000000000000000000000000000000000000000000000000000000000000000000000000000000000000000000000000000000000000000000000000000000000000000000000000000000000000000000000000000000000000000000000000000000000000000000000000000000000000000000000000000000000000000000000000000000000000000000000000000000000000000000000000000000000000000000000000000000000000000000000000000000000000000000000000000000000000000000000000000000000000000000000000000000000000000000000000000000000000000000000000000000000000000000000000000000000000000000000000000000000000000000000000000000000000000000000000000000000000000000000000000000000000000000000000000000000000000000000000000000000000000000000000000000000000000000000000000000000000000000000000000000000000000000000000000000000000000000000000000000000000000000000000000000000000000000000000000000000000000000000000000000000000000000000000000000000000000000000000000000000000000000000000000000000000000000000000000000000000000000000000000000000000000000000000000000000000000000000000000000000000000000000000000000000000000000000000000000000000000000000000000000000000000000000000000000000000000000000000000000000000000000000000000000000000000000000000000000000000000000000000000000000000000000000000000000000000000000000000000000000000000000000000000000000000000000000000000000000000000000000054240000000000000000000000000000000000000000000000000000000000000000000000000000000000000000000000000000000000000000000000000000000000000000000000000000000000000000000000000000000000000000000000000000000000000000000000000000000000000000000000000000000000000000000000000000000000000000000000000000000000000000000000000000000000000000000000000000000000000000000000000000000000000000000000000000000000000000000000000000000000000000000000000000000000000000000000000000000000000000000000000000000000000000000000000000000000000000000000000000000000000000000000000000000000000000000000000000000000000000000000000000000000000000000000000000000000000000000000000000000000000000000000000000000000000000000000000000000000000000000000000000000000000000000000000000000000000000000000000000000000000000000000000000000000000000000000000000000000000000000000000000000000000000000000000000000000000000000000000000000000000000000000000000000000000000000000000000000000000000000000
#027970:00000014
#027990:000000000000000000000000000000000000000000000000000000000000000000000000000000000000000000000000000000000000000000000000000000000000000000000000000000000000000000000000000000000000000000000000000000000000000000000000000000000000000000000000000000000000000000000000000000000000000000000000000000000000000000000000000000000000000000000000000000000000000000000000000000000000000000000000000000000000000000000000000000000000000000000000000000000000000000000000000000000000000000000000000000000000000000000000000000000000000000000000000000000000000000000000000000000000000000000000000000000000000000000000000000000000000000000000000000000000000000000000000000000000000000000000000000000000000000000000000000000000000000000000000000000000000000000000000000000000000000000000000000000000000000000000000000000000000000000000000000000000000000000000000000000000000000000000000000000000000000000000000000000000000000000000000000000000000000000000000000000000000000000000000000000000000000000000000000000000000000000000000000000000000000000000000000000000000000000000000000000000000000000000000000000000000000000000000000000000000000000000000000000000000000000000000000000000000000000000000000000000000000000000000000000000000000000000000000000000000000000000000000000000000000000000000000000000000000000000000000000000000000000000000000000000000000000000000000000000000000000000000000000000000000000000000000000000000000000000000000000000000000000000000000000000000000000000000000000000000000000000000000000000000000000000000000000000000000000000000000000000000000000000000000000000000000000000000000000000000000000000000000000000000000000000000000000000000000000000000000000000000000000000000000000000000000000000000000000000000000000000000000000000000000000000000000000000000000000000000000000000000000000000000000000000000000000000000000000000000000000000000000000000000000000000000000000000000000000000000000000000000000000000000000000000000000000000000000000000000000000000000000000000000000000000000000000000000000000000000000000000000000000000000000000000000000000000000000000000000000000000000000000000000000000000000000000000000000000000000000000000000000000000000000000000000000000000000000000000000000000000000000000000000000000000000000000000000000000000000000000000000000000000000000000000000000000000000000000000000000000000000000000000000000000000000000000000000000000000000000000000000000000000000000000000000000000000000000000000000000000000000000000000000000000000000000000000000000000000000000000000000000000000000000000000000000000000000000000000000000000000000000000000000000000000000000000000000000000000000000000000000000000000000000000000000000000000000000000000000000000000000000000000000000000000000000000000000000000000000000000000000000000000000000000000000000000000000000000000000000000000000000000000000000000000000000000000000000000000000000000000000000000000000000000000000000000000000000000000000000000000000000000000000000000000000000000000000000000000000000000000000000000000000000000000000000000000000000000000000000000000000000000000000000000000000000000000000000000000000000000000000000000000000000000000000000000000000000000000000000000000000000000000000000000000000000000000000000000000000000000000000000000000000000000000000000000000000000000000000000000000000000000000000000000000000000000000000000000000000000000000000000000000000000000000000000000000000000000000000000000000000000000000000000000000000000000000000000000000000000000000000000000000000000000000000000000000000000000000005424000000000000000000000000000000000000000000000000000000000000000000000000000000000000000000000000000000000000000000000000000000000000000000000000000000000000000000000000000000000000000000000000000000000000000000000000000000000000000000000000000000000000000000000000000000000000000000000000000000000000000000000000000000
#040980:0012
#0409a0:000000000000000000000000000000000000000000000000000000000000000000000000000000000000000000000000000000000000000000000000000000000000000000000000000000000000000000000000000000000000000000000000000000000000000000000000000000000000000000000000000000000000000000000000000000000000000000000000000000000000000000000000000000000000000000000000000000000000000000000000000000000000000000000000000000000000000000000000000000000000000000000000000000000000000000000000000000000000000000000000000000000000000000000000000000000000000000000000000000000000000000000000000000000000000000000000000000000000000000000000000000000000000000000000000000000000000000000000000000000000000000000000000000000000000000000000000000000000000000000000000000000000000000000000000000000000000000000000000000000000000000000000000000000000000000000000000000000000000000000000000000000000000000000000000000000000000000000000000000000000000000000000000000000000000000000000000000000000000000000000000000000000000000000000000000000000000000000000000000000000000000000000000000000000000000000000000000000000000000000000000000000000000000000000000000000000000000000000000000000000000000000000000000000000000000000000000000000000000000000000000000000000000000000000000000000000000000000000000000000000000000000000000000000000000000000000000000000000000000000000000000000000000000000000000000000000000000000000000000000000000000000000000000000000000000000000000000000000000000000000000000000000000000000000000000000000000000000000000000000000000000000000000000000000000000000000000000000000000000000000000000000000000000000000000000000000000000000000000000000000000000000000000000000000000000000000000000000000000000000000000000000000000000000000000000000000000000000000000000000000000000000000000000000000000000000000000000000000000000000000000000000000000000000000000000000000000000000000000000000000000000000000000000000000000000000000000000000000000000000000000000000000000000000000000000000000000000000000000000000000000000000000000000000000000000000000000000000000000000000000000000000000000000000000000000000000000000000000000000000000000000000000000000000000000000000000000000000000000000000000000000000000000000000000000000000000000000000000000000000000000000000000000000000000000000000000000000000000000000000000000000000000000000000000000000000000000000000000000000000000000000000000000000000000000000000000000000000000000000000000520000000000000000000000000000000000000000000000000000000000000000000000000000000000000000000000000000000000000000000000000000000000000000000000000000000000000000000000000000000000000000000000000000000000000000000000000000000000000000000000000000000000000000000000000000000000000000000000000000000000000000000000000000000000000000000000000000000000000000000000000000000000000000000000000000000000000000000000000000000000000000000000000000000000000000000000000000000000000000005252220000000000000000000000000000000000000000000000000000000000000000000000000000000000000000000000000000000000000000000000000000000000000000000000000000000000000000000000000000000000000000000000000000000000000000000000000000000000000000000000000000000000000000000000000000000000000000000000000000000000000000000000000000000000000000000000000000000000000000000000000000000000000000000000000000000000000000000000000000000000000000000000000000000000000000000000000000000000000000000000000000000000000000000000000000000000000000000000000000000000000000000000000000000000000000000000000000000000000000000000000000000000000000000000000000000000000000000000000000000000000000000000000000000000000000000000000000000000000000000000000000000000000000000000000000000000000000000000000000000000000000000000000000000000000000000000000000000000000000000000000000000000000000000000000000000000000000000000000000000000000000000000000000000000000000000000000000000000000000000000
#053980:140000000000000000000000000000000000000000000000000000000000000000000000000000000000000000000000000000000000000000000000000000000000000000000000000000000000000000000000000000000000000000000000000000000000000000000000000000000000000000000000000000000000000000000000000000000000000000000000000000000000000000000000000000000000000000000000000000000000000000000000000000000000000000000000000000000000000000000000000000000000000000000000000000000000000000000000000000000000000000000000540000000000000000000000000000000000000000000000000000000000000000000000000000000000000000000000000000000000000000000000000000000000000000000000000000000000000000000000000000000000000000000000000000000000000000000000000000000000000000000000000000000000000000000000000000000000000000000000000000000000000000000000000000000000000000000000000000000000000000000000000000000000000000000000000000000000000000000000000000000000000000000000000000000000000000000000000000000000000000545454240000000000000000000000000000000000000000000000000000000000000000000000000000000000000000000000000000000000000000000000000000000000000000000000000000000000000000000000000000000000000000000000000000000000000000000000000000000000000000000000000000000000000000000000000000000000000000000000000000000000000000000000000000000000000000000000000000000000000000000000000000000000000000000000000000000000000000000000000000000000000000000000000000000000000000000000000000000000000000000000000000000000000000000000000000000000000000000000000000000000000000000000000000000000000000000000000000000000000000000000000000000000000000000000000000000000000000000000000000000000000000000000000000000000000000000000000000000000000000000000000000000000000000000000000000000000000000000000000000000000000000000000000000000000000000000000000000000000000000000000000000000000000000000000000000000000000000000000000000000000000000000000000000000000000000000000000000000000000000000000000000000000000000000000000000000000000000000000000000000000000000000000000000000000000000000000000000000000000000000000000000000000000000000000000000000000000000000000000000000000000000000000000000000000000000000000000000000000000000000000000000000000000000000000000000000000000000000000000000000000000000000000000000000000000000000000000000000000000000000000000000000000000000000000000000000000000000000000000000000000000000000000000000000000000000000000000000000000000000000000000000000000000000000000000000000000000000000000000000000000000000000000000000000000000000000000000000000000000000000000000000000000000000000000000000000000000000000000000000000000000000000000000000000000000000000000000000000000000000000000000000000000000000000000000000000000000000000000000000000000000000000000000000000000000000000000000000000000000000000000000000000000000000000000000000000000000000000000000000000000000000000000000000000000000000000000000000000000000000000000000000000000000000000000000000000000000000000000000000000000000000000000000000000000000000000000000000000000000000000000000000000000000000000000000000000000000000000000000000000000000000000000000000000000000000000000000000000000000000000000000000000000000000000000000000000000000000000000000000000000000000000000000000000000000000000000000000000000000000000000000000000000000000000000000000000000000000000000000000000000000000000000000000000000000000000000000000000000000000000000000000000000000000000000000000000000000000000000000000000000000000000000000000000000000000000000000000000000000000000000000000000000000000000000000000000000000000000000000000000000000000000000000000000000000000000000000000000000000000000000000000000000000000000000000000000000000000000000000000000000000000000000000000000000000000000000000000000000000000000000000000000000000000000000000000000000000000000000000000000000000000000000000000000000000000000000000000000000000000000000
#053990:00540054000000000000000000000000
