This file was generated by Ched 2.7.0.0.
#TITLE ""
#ARTIST ""
#DESIGNER ""
#DIFFICULTY 0
#PLAYLEVEL
#SONGID ""
#WAVE ""
#WAVEOFFSET 0
#JACKET ""
#REQUEST "ticks_per_beat 480"
#00002: 4
#BPM01: 128
#00008: 01
#TIL00: ""
#VOLUME: ""
#HISPEED 00
#MEASUREHS 00
#02112:13
#0211b:00000013
#02115:00000013
#02110:41
#00118:13
#0021b:13
#00315:13
#00412:13000026
#0051b:23001300000000000000001300000000
#00515:00000000130013000013000000000000
#00518:0013
#00512:0000000000000013
#00510:41
#00618:13001300001300000000000000000000
#00615:00130000
#00612:00000000000000130000000000000000
#0061b:0000000000000013
#00715:13001300000000000000000000000013
#00718:0000131300000000
#0071b:0000000000000013
#00712:00000000000000000033333300000000
#00818:13000000000000000000000000000013
#00815:0000000000000013
#00912:23001300000000000000001300000000
#00918:00000000130013000013000000000000
#00915:0013
#0091b:0000000000000013
#01015:13001300001300130000000000000000
#0101b:0000000000000013
#01018:0000131300000000
#01112:13001300000000000033333300000000
#0111b:00000000130013000000000000333333
#0121b:0000000000000013
#01215:13
#01318:0013000000000000
#01315:00130000
#0131b:0000001300000013
#01312:23
#01310:41
#01418:0013001400000000
#01415:00130000
#01412:1300000000000013
#0151b:1313
#01515:0013000000130013
#01518:00130013
#01512:0000001300000000
#0161b:00130000
#01618:0013
#01612:0000000000000013
#01715:0013000000000000
#01718:00130000
#01712:0000001300000013
#0171b:13
#01815:0013000000000000
#01818:00130000
#0181b:1300000000000013
#01814:0000001400000000
#01918:0013000000130013
#01912:1313
#01915:00130013
#0191b:0000001300000000
#0201b:0013000000000000
#02218:1300000000000013
#02215:00000013
#0221b:0000000000130000
#02212:13
#02318:00000013
#02315:0000000000000013
#02418:0013
#02415:00000013
#02518:13130000
#0251b:00001313
#02512:23
#02515:0023
#02612:13130000
#02615:00001313
#02618:23
#0261b:0023
#02812:0013
#02818:0013
#03012:0000001300000000
#03015:00001313
#03018:0000000000130013
#03115:00000013
#0311b:13
#03118:0000130000000024
#0321a:00000014
#03215:0000000000130000
#03218:0013
#03212:0000001300000000
#0341b:0000001300000000
#03418:00001313
#03415:0000000000130013
#03518:00000013
#03512:13
#03515:0000130000000023
#03510:0000000000000041
#0371b:13
#0371f:11
#03815:13
#0391b:13
#04015:13
#04018:00000013
#04118:0013000000000000
#04113:00130000
#04119:0000001300000000
#04114:0013
#0411a:0000000000130000
#04115:00000013
#0411b:0000000000000013
#04112:23
#04216:13
#04212:000000000000330000000000330000000000330000000000330000000000330000000000330000000000330000000000130000003300000033000000330000003300000033000000330000330000330000330000330000330000330000330000
#0441b:0013
#04415:0013
#0461b:0000001300000000
#04612:0013
#04618:0000000000130013
#04615:00000013
#04610:41
#04718:00000013
#04715:13
#04712:00130000
#04714:0000000000000025
#04815:00000015
#0481b:0000000000130000
#04812:0013
#04818:0000001300000000
#05315:00000013
#0531b:00000013
#05314:00240000
#05412:1300000000130000
#05415:0000000000000013
#05418:1300000000130000
#05518:1300000000000024
#0551b:00130000
#05515:00000013
#05512:0000000000000024
#05612:0000001300000000
#05618:0013
#05615:0000000000130000
#0561a:00000014
#0581b:0000000000130000
#05818:1300000000000013
#05812:13
#05815:00000013
#05918:00000000000000130000000013000000
#05912:13
#05915:0013
#0591a:0000000000000024
#05914:0000000000000024
#05712:13
#05715:00000013
#0571b:00000013
#06118:13
#0621b:13
#06315:13
#06412:13
#06415:0013
#02714:0014000000000000
#02712:0000001400000000
#0271a:240000000000246464640000
#02718:000000240000000000006400
#02716:000000000000000000000064
#06518:13
#0661b:13
#05012:0000001300000000
#0501b:0013
#05015:0000000000130013
#05018:00000013
#05115:00000013
#05118:13
#0511b:00130000
#05117:0000000000000025
#05216:00000015
#05212:0000000000130000
#0521b:0013
#05215:0000001300000000
#0291a:2400000000000024
#02912:0024
#02910:41
#03612:0024000000000000
#04312:26
#04512:2500000000000025
#04519:0025
#0451f:21
#06018:0024000000000000
#06012:0024000000000000
#03312:2400000000000024
#0331a:0024
#04919:2500000000000025
#04912:0025
#06719:72
#02152:23
#0215b:00000063
#02155:00000063
#05354:00140000
#05355:00000063
#0535b:00000063
#00158:53
#0025b:63
#00355:63
#00652:00000000000000530000000000000000
#00858:63
#01055:00000000000000530000000000000000
#01352:0000000000140000
#0145a:0000000000140000
#01458:0000006400000000
#01555:0000000000000063
#0165b:00530000
#01658:0023
#01854:0000005400000000
#01852:0000000000140000
#01958:0000000000000053
#0175a:0000000000140000
#0205b:0063000000000000
#02055:0016
#02258:53
#02252:53
#02355:0000000000000063
#02452:0014000000000000
#02852:0063
#02853:00000015
#02858:0053
#02859:00000015
#02957:00140000
#02955:00000014
#0295a:5400000000000054
#02952:0054
#03057:0014000000000000
#0325a:0014000000001400
#03555:0000630000000053
#03552:63
#03652:0064000000000000
#03655:0016
#0375b:53
#03855:63
#0395b:63
#04055:53
#04052:0013
#04058:00000013
#04256:53
#04252:0023
#04352:16
#0445b:0053
#04458:00000015
#04455:0053
#04452:00000015
#04855:00000015
#04852:0015000000000000
#04555:00150000
#04552:6500000000000065
#04559:0055
#04556:00000015
#05452:63
#05458:63
#05558:6300000000000054
#0555b:00630000
#05552:0000000000000054
#05654:0014000000000000
#0565a:0014000000001400
#05752:23
#05755:00000063
#0575b:00000063
#05852:53
#05858:63
#05952:53
#0595a:0000000000000054
#05954:0000000000000054
#06058:0064000000000000
#0605a:0014
#06052:0064000000000000
#06054:0014
#06158:53
#0625b:63
#06355:63
#06452:53
#06455:0063
#00452:23000016
#01255:53
#03158:0000530000000054
#0315b:53
#04755:63
#04752:00630000
#04754:0000000000000065
#06558:53
#0665b:63
#03352:6400000000000064
#0335a:0064
#03355:00140000
#03357:00000014
#03455:0014000000000000
#04655:0015000000000000
#04959:5500000000000055
#04952:0065
#04956:00150000
#04955:00000015
#05056:0015000000000000
#05256:00000015
#05259:0015000000000000
#05158:53
#0515b:00530000
#05157:0000000000000055
#0003b0:00000013
#001380:33
#0023b0:33
#003380:23
#003351:13
#004321:33000026
#006321:00000000000000130000000000000000
#006351:00000023
#007321:00000000000000001333333300000000
#007351:00000023
#008381:13
#0083a1:0024
#010351:00000000000000130000000000000000
#010321:00000023
#011351:0013
#011321:00000000000000000033333323000000
#011380:00000013
#0113b0:00000000000000000000000000333333
#0123b0:23
#012351:13
#012321:0024
#013321:0000000014240000
#014381:0000001400000000
#0143a1:0000000000240000
#015351:0000000000000013
#016321:0023000000000000
#0163b1:00130023
#016381:0053
#0173a1:0000000014240000
#018341:0000001400000000
#018321:0000000000240000
#019381:0000000000000013
#0203b1:0033000000000000
#020351:0026
#021321:13
#021351:00000033
#022321:33
#022351:0023
#0213b0:00000013
#022380:33
#0223b0:0023
#023320:1323
#023350:00330000
#023350:0000000000000013
#024320:0024000000000000
#028320:0013
#028330:00000025
#028381:0013
#028391:00000025
#0293a1:14
#029371:00240000
#029321:0014
#029351:00000024
#0293a1:0000000000000014
#030371:0024000000000000
#0313b1:1323
#031381:00330000
#031381:0000000000000014
#0323a1:0024000000000000
#033321:14
#033351:00240000
#0333a1:0014
#033371:00000024
#033321:0000000000000014
#034351:0024000000000000
#035321:1323
#035351:00330000
#035351:0000000000000013
#036321:0034000000000000
#036351:0026
#0373b1:13
#038381:23
#038350:13
#039320:23
#0393b1:13
#040381:23
#040350:13
#040320:0023
#042360:13
#042320:000000000000330000000000330000000000330000000000330000000000330000000000330000000000330000000000330000003300000033000000330000003300000033000000330000330000330000330000330000330000330000330000
#043320:26
#0443b0:0013
#044380:00000025
#044351:0013
#044321:00000025
#045321:15
#045351:00250000
#045391:0015
#045361:00000025
#045321:0000000000000015
#046351:0025000000000000
#047351:1323
#047321:00330000
#047341:0000000000000015
#048321:0025000000000000
#049391:15
#049361:00250000
#049321:0015
#049351:00000025
#049391:0000000000000015
#050361:0025000000000000
#051381:1323
#0513b1:00330000
#051371:0000000000000015
#052391:0025000000000000
#053341:1434240000000000
#053331:00340034000000000000000000000000
#053351:00000013
#054321:33
#054351:0023
#0533b0:00000013
#054380:33
#0543b0:0023
#055380:1323
#0553b0:00330000
#055320:0000000000000014
#056340:0024000000000000
#055381:0000000000000014
#0563a1:0024000000000000
#057321:13
#057351:00000033
#058321:33
#058351:0023
#0573b0:00000013
#058380:33
#0583b0:0023
#059320:13
#059350:00230000
#0593a0:0000000000000014
#060380:0034000000000000
#0603a0:0024
#059341:0000000000000014
#060321:0034000000000000
#060341:0024
#061381:13
#0623b1:33
#063381:23
#063350:13
#064320:33
#064350:0033
#065320:23
#065381:13
#0663b1:33
#067391:22
#0279a0:00001454
#027960:000000000000000000000024
