This file was generated by Ched 2.7.0.0.
#TITLE ""
#ARTIST ""
#DESIGNER ""
#DIFFICULTY 0
#PLAYLEVEL
#SONGID ""
#WAVE ""
#WAVEOFFSET 0
#JACKET ""
#REQUEST "ticks_per_beat 480"
#00002: 4
#BPM01: 128
#00008: 01
#TIL00: ""
#VOLUME: ""
#HISPEED 00
#MEASUREHS 00
#00518:14141400
#00510:41
#00614:14141400
#00912:14141400
#01418:14140000
#01412:0014
#0151a:14
#01514:00140014
#01518:0014
#02718:14
#02714:00140000
#0271a:0014
#02712:00000014
#04112:14140000
#0411a:00001414
#04214:14
#04212:0014
#04218:00140000
#0421a:00000014
#00118:14
#00314:14
#00718:1414
#00714:00140014
#00818:14
#0101a:14141400
#01114:1414
#01118:00140014
#01214:14
#0131a:24140000
#01314:0014
#01310:41
#0161a:14
#01814:14140000
#0181a:0014
#01912:14
#01918:00140014
#01914:0014
#01712:14140000
#01718:0014
#02012:14
#02218:14
#0211a:14
#02110:41
#02312:14
#02314:0014
#02318:00140000
#0231a:00000014
#02814:00001414
#02818:14
#03014:00001414
#03018:0000001400140014
#03112:14
#0311a:00140000
#03114:0024
#0321a:00001414
#03212:00001414
#03714:14
#0371f:11
#03818:14
#03912:14
#0401a:14
#0521a:00001414
#05212:00001414
#05412:00000014
#05418:14
#0551a:14
#05512:00140000
#05518:0000000014000024
#05514:00000014
#05612:00001414
#0561a:00001414
#05718:14
#05712:00000014
#06118:14
#0621a:14
#06314:14
#06412:14
#02412:14
#0241a:0014
#02614:14
#02512:14
#04418:00001414
#0531a:00000014
#05314:00240000
#0581a:00000014
#05814:14
#05912:14
#0591a:00140000
#05914:0000000014000024
#05918:00000014
#03418:00001414
#03414:0000001400140014
#0351a:1424
#03512:00140000
#03510:0000000000000041
#04618:00001414
#04614:0000001400140014
#04610:41
#0471a:14
#04712:00140000
#04718:0024
#04812:00001414
#0481a:00001414
#05014:00001414
#05018:0000001400140014
#05112:1424
#0511a:00140000
#04312:26
#02918:26
#02912:0026
#02910:41
#0451f:21
#04512:26
#04518:0026
#03312:26
#03318:0026
#04918:26
#04912:0026
#06515:53
#00158:54
#00354:64
#00858:54
#01254:64
#0165a:64
#01658:0014
#02052:54
#02054:0014
#0215a:54
#03754:64
#03858:54
#03952:54
#0405a:64
#04352:16
#05354:00140000
#0535a:00000054
#05758:54
#05752:00000064
#06158:64
#0625a:24
#06354:54
#06452:24
#02552:64
#02654:54
#02258:54
#05458:54
#05558:0000000000000054
#0565a:0014000000000000
#05854:64
#05954:0000000000000064
#06052:0014
#03254:0014000000000000
#0365a:0014
#04858:0014000000000000
#05252:0014000000000000
#001380:14
#0023a0:24
#003340:14
#004320:24
#008380:14
#0083a0:0024
#012340:14
#012320:0024
#0163a0:14
#016380:0024
#020320:14
#020340:0024
#0213a0:14
#021380:00000034
#022380:34
#0223a0:00000024
#025320:14
#025340:00000034
#026340:34
#026320:00000024
#029380:16260000
#029320:0016
#029340:0000000000003636
#030320:0026000000000000
#031340:0014
#031320:0000000000003434
#032340:0024000000000000
#033320:16260000
#033380:0016
#033360:0000000000003636
#034380:0026000000000000
#0353a0:0014
#035380:0000000000003434
#0363a0:0034000024000000
#037340:14
#037320:00000024
#038380:14
#0383a0:00000024
#039320:14
#039340:00000024
#0403a0:14
#040380:00000024
#045320:16260000
#045380:0016
#045360:0000000000003636
#046380:0026000000000000
#047380:0014
#0473a0:0000000000003434
#048380:0024000000000000
#049380:16260000
#049320:0016
#049340:0000000000003636
#050320:0026000000000000
#051320:0014
#051340:0000000000003434
#052320:0024000000000000
#053340:14343434240000000000000000000000
#0533a0:00000014
#054380:34
#0543a0:0024
#055380:0000000000000014
#0563a0:0024000000000000
#057380:14
#0573a0:0024
#057320:00000014
#058340:34
#058320:0024
#059340:0000000000000014
#060320:0034000024000000
#061380:14
#0623a0:34
#062380:00000024
#063340:14
#064320:34
#065350:23
#065950:13
#066960:0022
