This file was generated by Ched 2.7.0.0.
#TITLE ""
#ARTIST ""
#DESIGNER ""
#DIFFICULTY 0
#PLAYLEVEL
#SONGID ""
#WAVE ""
#WAVEOFFSET 0
#JACKET ""
#REQUEST "ticks_per_beat 480"
#00002: 4
#BPM01: 220
#00008: 01
#TIL00: "0'0:1"
#VOLUME: ""
#HISPEED 00
#MEASUREHS 00
#01414:0014
#0141a:24
#0151a:14
#01514:0014
#01618:14
#01612:0014
#01718:14
#01712:0014
#01814:0014
#0181a:24
#01918:14
#01912:0014
#0201a:14
#02014:0014
#02118:14
#02112:0014
#02612:1414
#02610:41
#02712:1414
#03918:0014
#03914:14
#0381a:0014
#03812:14
#0371a:1414
#03614:1414
#03518:1414
#03412:1414
#03318:1414
#03218:1414
#03114:1414
#03014:1414
#0291a:1414
#0281a:1414
#04218:14
#0421f:11
#0431a:14
#05612:16
#07718:1616
#07712:00160016
#07912:1616
#08018:1616
#08112:1616
#08118:00160016
#08518:1616
#08612:1616
#08818:14
#0891a:14
#08918:0034
#09018:1434
#09615:0016
#09815:0016
#09918:16
#10019:14
#10213:14
#10219:14
#10314:00140014
#1031a:2414
#10310:41
#10518:00140014
#10512:2414
#10914:00140014
#10918:2414
#04418:14
#04614:14
#04712:14
#04814:14
#00415:26
#00215:26
#01018:26
#01010:41
#01115:26
#01212:26
#05713:24
#05719:24
#0571f:21
#05919:25
#05912:25
#06118:26
#06212:26
#06318:26
#06912:24
#06914:0024
#07016:24
#07018:0024
#0711a:24
#08212:26
#08319:25
#08312:25
#0871a:24
#08710:41
#09212:26
#09318:26
#09412:26
#09518:26
#09712:26
#10719:24
#10813:24
#11018:26
#07519:25
#07512:25
#07510:41
#05019:0034
#0511a:34
#05213:0034
#05312:34
#05810:41
#04258:64
#0435a:24
#08858:64
#0895a:64
#0875a:64
#09058:64
#09958:66
#10059:24
#10759:64
#10853:54
#04458:64
#04654:54
#04752:24
#04854:54
#006390:14
#007380:26
#008330:14
#009320:26
#012320:16
#013320:26
#022380:16
#024390:54
#025380:26
#040320:1636
#041320:26
#042380:14
#0433a0:54
#044380:34
#0453a0:24
#046340:14
#047320:54
#048340:34
#049320:24
#050380:14
#050390:0034
#0513a0:3424
#052340:14
#052330:0034
#053320:3424
#054390:14
#055380:26
#057390:1434
#058390:24
#057331:1434
#058331:24
#059391:1535
#060391:25
#059320:1535
#060320:25
#063380:16363636
#064380:26
#065320:14
#066320:24
#065381:14
#066381:24
#0673a1:14
#0683a1:24
#067340:14
#068340:24
#0713a0:14000034
#0723a0:34
#074380:26
#075390:15
#076380:26
#075321:15
#076321:26
#078381:16362600
#083391:15
#084381:26
#083320:15
#084320:26
#0873a0:14
#088380:34
#0893a0:34
#089380:0034
#090380:3434
#091380:26
#095380:16
#096380:26
#097320:16
#098320:26
#099380:16
#100390:34
#101380:26
#1043a0:1424
#106320:1424
#107390:14
#107380:0026
#108330:14
#108320:0026
#110380:1626
