This file was generated by Ched 2.7.0.0.
#TITLE ""
#ARTIST ""
#DESIGNER ""
#DIFFICULTY 0
#PLAYLEVEL
#SONGID ""
#WAVE ""
#WAVEOFFSET 0
#JACKET ""
#REQUEST "ticks_per_beat 480"
#00002: 4
#BPM01: 220
#00008: 01
#TIL00: "0'0:1"
#VOLUME: ""
#HISPEED 00
#MEASUREHS 00
#00218:16
#00219:00000014
#0141a:14
#01418:0014
#01414:00140000
#01412:00000014
#01518:1414
#01514:00000014
#01512:00140000
#0161a:1414
#02012:1414
#02218:16
#0221a:0014
#02612:2414
#02618:00000014
#0261a:24
#02610:41
#02714:14000014
#02718:0014
#0281a:14
#02812:0014
#02818:00000014
#02914:14000014
#02918:0014
#0301a:2414
#03014:00000014
#03118:14000014
#03114:0014
#03212:14
#0321a:0014
#03214:00000014
#03318:14000014
#03314:0014
#03418:0014
#03414:00000014
#03412:24
#0351a:14
#03514:0014
#03518:00000014
#03612:14
#03618:0014
#03614:00000014
#0371a:14
#03714:0014
#03718:00000014
#03812:14
#03814:0014
#03918:14
#0391a:0014
#0401a:00140000
#04018:00000014
#04012:24
#04014:0024
#04116:2400000014343434
#0431b:0013
#0431a:0000000000530000
#04319:00000053
#04318:0000000000000053
#04515:0000000000130013
#04518:00000013
#04618:13
#04612:0013
#04613:0000000000530000
#04614:00000053
#04615:0000000000000053
#04718:00000013
#04715:0053000000000013
#04716:53
#04712:0053
#04714:00530000
#04713:0000005300000000
#04818:13
#0481b:0000003313000000
#05015:0014
#05012:16
#05217:0014
#05218:16
#05414:3636163636363636
#05619:0014
#05613:0014
#05612:16
#05618:26
#05818:16
#05813:0014
#05819:0014
#05812:26
#05810:41
#06018:14141400
#06014:0014001400000000
#06519:00000000000000000014000000000000
#06518:1600001600000000
#06719:00000000000000000014000000000000
#06718:2600002600000000
#06813:00000000000000000014000000000000
#06812:2600002600000000
#06613:00000000000000000014000000000000
#06612:1600001600000000
#06919:14
#06913:0014
#0721a:14
#06112:15
#06114:0000003500000000
#06219:15
#06217:0000003500000000
#06312:14
#0631a:00140000
#06314:00001414
#06318:0000000000140014
#07612:0016
#07618:00000016
#07718:0014001400000000
#07714:24140000
#07712:00001414
#0771a:0000000000140014
#07914:00141414
#07918:2600001400140000
#08114:0014001400000000
#08118:2400140024343434
#08012:00000016
#08018:26
#08418:0016
#08412:00000016
#08514:0014001400000000
#08518:24142600
#08618:00000014
#08614:0000000000000014
#08612:0026
#09212:16
#09218:00001414
#09214:0000000000140000
#09312:16
#09318:0016
#09112:0016
#09118:26
#09618:1600000000140000
#09614:00001414
#09718:16
#09712:0016
#09518:0016
#09512:26
#09918:16
#09912:26
#10312:00141414
#10318:2600001400140000
#10310:41
#1051a:00141414
#10514:0000001400140000
#10512:26
#10714:00141414
#10718:2600001400140014
#10818:00141414
#10814:0000001400140014
#10812:26
#10912:00140014
#10918:2600001400000014
#10914:0014
#1091a:0000000000140000
#01812:14
#01814:0014
#01818:00140000
#0181a:00000014
#01914:1414
#01918:00000014
#0191a:00140000
#05713:0014
#05719:0014
#0571f:21
#05913:0014
#05919:0014
#08714:0014
#0871a:24
#08710:41
#02112:14141400
#0171a:14141400
#08918:0014
#08912:24
#02412:1614
#04918:13
#05114:0014
#05118:00140000
#00412:16
#00413:00000014
#0421f:11
#01219:25
#01212:25
#05312:0026
#05314:00000036
#07018:262626
#07012:002600260026
#07118:26
#0711a:00000034
#07513:2a
#07510:41
#06412:26
#07812:26
#08319:24
#08313:24
#08812:24
#11014:24
#11016:003434343434000000000000
#0901a:24
#01018:26
#01010:41
#01112:26
#04417:53
#0441b:0053
#04418:0053000000000000
#04419:00530000
#0441a:0000005300000000
#00258:66
#00259:00000024
#01352:15
#01359:15
#02258:66
#0225a:0024
#0355a:14
#03652:14
#0375a:14
#03852:14
#03854:0014
#03958:14
#0395a:0014
#04254:18
#04156:0024
#0445b:0013
#04752:0013
#04858:53
#0485b:0053
#05055:0064
#05052:66
#05152:14
#05257:0054
#05258:56
#0535a:14
#05352:0066
#05454:00260000
#05552:36
#05659:0024
#05658:56
#05653:0024
#05652:66
#05758:16
#05752:16
#05858:56
#05852:66
#05853:0024
#05859:0024
#05952:16
#05958:16
#06058:0014
#06558:0000006600001600
#06559:00000000000000000024000000000000
#06759:00000000000000000024000000000000
#06758:0000006600001600
#06853:00000000000000000024000000000000
#06852:0000005600001600
#06653:00000000000000000024000000000000
#06652:0000005600001600
#07158:66
#07453:1a
#0725a:64
#07653:1a
#07658:00000016
#06154:00000015
#06152:65
#06259:55
#06257:00000015
#06452:0016
#08459:14
#08452:00000016
#08453:14
#07954:00000014
#08258:16
#08158:0064
#08658:16
#08652:0016
#09158:16
#09252:16
#09352:16
#09552:16
#09658:16
#09758:16
#09958:66
#09952:66
#10352:00000014
#10358:16
#1055a:00000014
#10552:16
#10758:16
#10852:16
#10958:16
#11052:001c
#01058:66
#01152:66
#02452:5624
#04958:63
#00452:56
#00453:00000024
#002380:16
#002390:00000054
#003380:0026
#004320:16
#004330:00000054
#005320:0026
#0063a0:14
#0073a0:24
#006341:14
#007341:24
#008321:14
#009321:24
#008380:14
#009380:24
#010380:16
#010390:0024
#011320:16
#011330:0024
#012390:1500350035353535
#013390:25
#012321:1500350035353535
#013321:25
#022381:16
#0223a1:0054
#023381:26
#024321:1654
#025321:26
#041361:1400000034343434
#042341:28
#048381:13
#0483b1:0000003333000000
#049381:3326
#050321:16
#050351:0034
#051321:24
#052381:16
#052371:0034
#0533a1:24
#053321:0016
#053341:00000036
#054341:3636363636363636
#055321:26
#056381:16
#056391:0054
#057381:26
#056320:16
#056330:0054
#057320:26
#058320:16
#058330:0034
#059320:26
#058381:16
#058391:0034
#059381:26
#061321:15
#061341:0000003500002500
#062391:15
#062371:0000003500002500
#064321:16362600
#065381:0000001600002600
#065391:00000000000000000054000000000000
#066321:0000001600002600
#066331:00000000000000000054000000000000
#067381:0000001600002600
#067391:00000000000000000054000000000000
#068321:0000001600002600
#068331:00000000000000000054000000000000
#071381:16
#0713a1:00000034
#0723a1:34
#073361:3454545454000000
#073351:00560056005600560000560056005600
#073341:00000000000000000058005800580058
#074331:2a
#075331:1a00005a00005a00005a00003a003a003a003a003a003a00
#075321:0000005c00000000005c00000000005c00000000005c000000005c0000005c0000005c0000005c0000005c0000005c00
#076331:2a
#078321:16362600
#080381:16362600
#081381:0000000014343434
#082381:26
#083391:140000540000540000540000340034003400340034003400
#083381:000000560000000000560000000000560000000000560000000056000000560000005600000056000000560000005600
#084391:24
#083330:140000540000540000540000340034003400340034003400
#083320:000000560000000000560000000000560000000000560000000056000000560000005600000056000000560000005600
#084330:24
#085380:00001636
#086380:26
#0873a0:1434
#0883a0:3424
#088321:1424
#089321:1434
#090321:3424
#0903a0:1424
#094380:1626
#098320:1626
#098381:0016
#099381:36
#100391:35
#1013a1:34
#1023b1:23
#099320:16
#100320:35
#101320:34
#102320:23
#104380:16362600
#106320:16362600
#110340:14
#110360:003434343434000000000000
#110320:002c
#0439b0:0013
#044970:53
#0449b0:000000000000000000000000000000000000000000000000000000000000000000000000000000000000000000000000000000000000000000000000000000000000000000000000000000000000000000000000000000000000000000000000000000000000000000000000000000000000000000000000000000000000000000000000000000000000000000000000000000000000000000000000000000000000000000000000000000000000000000000000000000000000000000000000000000000000000000000000000000000000000000000000000000000000000000000000000000000000000000000000000000000000000000000000000000000000000000000000000000000000000000000000000000000000000000000000000000000000000000000000000000000000000000000000000000000000000000000000000000000000000000000000000000000000000000000000000000000000000000000000000000000000000000000000000000000000000000000000000000000000000000000000000000000000000000000000000000000000000000000000000000000000000000000000000000000000000000000000000000000000000000000000000000000000000000000000000000000000000000000000000000000000000000000000000000000000000000000000000000000000000000000000000000000000000000000000000000000000000000000000000000000000000000000000000000000000000000000000000000000000000000000000000000000000000000000000000000000000000000000000000000000000000000000000000000000000000000000000000000000000000000000000000000000000000000000000000000000000000000000000000000000000000000000000000000000000000000000000000000000000000000000000000000000000000000000000000000000000000000000000000000000000000000000000000000000000000000000000000000000000000000000000000000000000000000000000000000000000000000000000000000000000000000000000000000000000000000000000000000000000000000000000000000000000000000000000000000000000000000000000000000000000000000000000000000000000000000000000000000000000000000000000000000000000000000000000000000000000000000000000000000000000000000000000000000000000000000000000000000000000000000000000000000000000000000000000000000000000000053535353230000000000000000000000000000000000000000000000000000000000000000000000000000000000000000000000000000000000000000000000000000000000000000000000000000000000000000000000000000000000000000000000000000000000000000000000000000000000000000000000000000000000000000000000000000000000000000000000000000000000000000000000000000000000000000000000000000000000000000000000000000000000000000000000000000000000000000000000000000000000000000000000000000000000000000000000000000000000000000000000000000000000000000000000000000000000000000000000000000000000000000000000000000000000000000000000000000000000000000000000000000000000000000000000000000000000000000000000000000000000000000000000000000000000000000000000000000000000000000000000000000000000000000000000000000000000000000000000000000000000000000000000000000000000000000000000000000000000000000000000000000000000000000000000000000000000000000000000000000000000000000000000000000000000000000000000000000000000000000000000000000000000000000000000000000000000000000000000000000000000000000000000000000000000000000000000000000000000000000000000000000000000000000000000000000000000000000000000000000000000000000000000000000000000000000000000000000000000000000000000000000000000000000000000000000000000000000000000000000000000000000000000000000000000000000000000000000000000000000000000000000000000000000000000000000000000000000000000000000000000000000000000000000000000000000000000000000000000000000000000000000000000000000000000000000000000000000000000000000000000000000000000000000000000000000000000000000000000000000000000000000000000000000000000000000000000000000000000000000000000000000000000000000000000000000000000000000000000000000000000000000000000000000000000000000000000000000000000000000000000000000000000000000000000000000000000000000000000000000000000000000000000000000000000000000000000000000000000000000000000000000000000000000000000000000000000000000000000000000000000
#046920:0013
#047960:53
#047920:000000000000000000000000000000000000000000000000000000000000000000000000000000000000000000000000000000000000000000000000000000000000000000000000000000000000000000000000000000000000000000000000000000000000000000000000000000000000000000000000000000000000000000000000000000000000000000000000000000000000000000000000000000000000000000000000000000000000000000000000000000000000000000000000000000000000000000000000000000000000000000000000000000000000000000000000000000000000000000000000000000000000000000000000000000000000000000000000000000000000000000000000000000000000000000000000000000000000000000000000000000000000000000000000000000000000000000000000000000000000000000000000000000000000000000000000000000000000000000000000000000000000000000000000000000000000000000000000000000000000000000000000000000000000000000000000000000000000000000000000000000000000000000000000000000000000000000000000000000000000000000000000000000000000000000000000000000000000000000000000000000000000000000000000000000000000000000000000000000000000000000000000000000000000000000000000000000000000000000000000000000000000000000000000000000000000000000000000000000000000000000000000000000000000000000000000000000000000000000000000000000000000000000000000000000000000000000000000000000000000000000000000000000000000000000000000000000000000000000000000000000000000000000000000000000000000000000000000000000000000000000000000000000000000000000000000000000000000000000000000000000000000000000000000000000000000000000000000000000000000000000000000000000000000000000000000000000000000000000000000000000000000000000000000000000000000000000000000000000000000000000000000000000000000000000000000000000000000000000000000000000000000000000000000000000000000000000000000000000000000000000000000000000000000000000000000000000000000000000000000000000000000000000000000000000000000000000000000000000000000000000000000000000000000000000000000000000000000000053535353230000000000000000000000000000000000000000000000000000000000000000000000000000000000000000000000000000000000000000000000000000000000000000000000000000000000000000000000000000000000000000000000000000000000000000000000000000000000000000000000000000000000000000000000000000000000000000000000000000000000000000000000000000000000000000000000000000000000000000000000000000000000000000000000000000000000000000000000000000000000000000000000000000000000000000000000000000000000000000000000000000000000000000000000000000000000000000000000000000000000000000000000000000000000000000000000000000000000000000000000000000000000000000000000000000000000000000000000000000000000000000000000000000000000000000000000000000000000000000000000000000000000000000000000000000000000000000000000000000000000000000000000000000000000000000000000000000000000000000000000000000000000000000000000000000000000000000000000000000000000000000000000000000000000000000000000000000000000000000000000000000000000000000000000000000000000000000000000000000000000000000000000000000000000000000000000000000000000000000000000000000000000000000000000000000000000000000000000000000000000000000000000000000000000000000000000000000000000000000000000000000000000000000000000000000000000000000000000000000000000000000000000000000000000000000000000000000000000000000000000000000000000000000000000000000000000000000000000000000000000000000000000000000000000000000000000000000000000000000000000000000000000000000000000000000000000000000000000000000000000000000000000000000000000000000000000000000000000000000000000000000000000000000000000000000000000000000000000000000000000000000000000000000000000000000000000000000000000000000000000000000000000000000000000000000000000000000000000000000000000000000000000000000000000000000000000000000000000000000000000000000000000000000000000000000000000000000000000000000000000000000000000000000000000000000000000000000000000000000000000
