This file was generated by Ched 2.7.0.0.
#TITLE ""
#ARTIST ""
#DESIGNER ""
#DIFFICULTY 0
#PLAYLEVEL
#SONGID ""
#WAVE ""
#WAVEOFFSET 0
#JACKET ""
#REQUEST "ticks_per_beat 480"
#00002: 4
#BPM01: 151
#00008: 01
#TIL00: ""
#VOLUME: ""
#HISPEED 00
#MEASUREHS 00
#00914:14
#01018:14
#01112:14
#01219:15
#01417:15
#01612:14
#01610:41
#01718:14
#02118:14
#02214:14
#0231a:14
#02414:14
#02410:41
#02518:14
#0291a:14
#03012:14
#03118:14
#04012:15
#04212:0016
#04218:26
#04418:0016
#04412:16
#04618:1616
#04712:1616
#05018:0016
#05012:26
#05212:0016
#05218:16
#06018:16
#06012:0016
#06118:16
#06318:14
#06414:14
#0651a:14
#06612:15
#06814:15
#06812:0000000000000015
#0321f:11
#0081a:24
#00810:41
#06212:24
#06210:41
#0411f:00000000000000000000000000000021
#01812:0000003400000034
#02614:0000003400000034
#04310:00410000
#05410:41
#01457:55
#01259:55
#04052:55
#06652:65
#06854:65
#06852:0000000000000065
#000380:14
#001380:24
#002340:14
#003340:24
#004380:14
#005380:24
#006340:14
#007340:24
#012390:15
#014370:35
#015390:25
#018340:14
#018320:0000003400000034
#020320:24
#026320:14
#026340:0000003400000034
#028340:24
#032320:14
#033320:24
#034380:14
#035380:24
#036340:14
#037340:24
#0383a0:14
#0393a0:24
#040320:15
#040340:0000000000000035
#041340:00000025
#043380:1626
#045320:1626
#048380:1600000036000036
#049380:0000003600002600
#051320:1626
#053380:1626
#054320:1600003600000036
#055320:0036002600000000
#056380:1600003600000036
#057380:0036002600000000
#058320:1600003600000036
#059320:0036002600000000
#066320:15
#068340:35
#068320:0000000000000035
#073320:24
