This file was generated by Ched 2.7.0.0.
#TITLE ""
#ARTIST ""
#DESIGNER ""
#DIFFICULTY 0
#PLAYLEVEL
#SONGID ""
#WAVE ""
#WAVEOFFSET 0
#JACKET ""
#REQUEST "ticks_per_beat 480"
#00002: 4
#BPM01: 151
#00008: 01
#TIL00: ""
#VOLUME: ""
#HISPEED 00
#MEASUREHS 00
#00018:12
#00014:0000000000120000
#00019:0052000000000000
#0001a:00520000
#00015:00000052
#00016:0000000000000052
#0001b:0000005200000000
#0011a:0012000000000000
#00116:0000000000120000
#00119:00520000
#00118:0000005200000000
#00115:00000052
#00114:0000000000000052
#00218:0012000000000000
#00214:0000000000120052
#00219:00520000
#0021a:0000005200000000
#00215:00000052
#0031a:1212
#00316:00120000
#00315:52
#00318:00520052
#00314:0052
#00319:0000000000520000
#00418:0000000000120000
#00413:12
#00419:00000052
#0041a:0000000000000052
#00414:0052000000000000
#00415:00520000
#00416:0000005200000000
#0051a:0000000000120000
#00516:0012000000000000
#00519:00000052
#00518:0000000000000052
#00514:0000005200000000
#00515:00520000
#00616:0012000000000000
#0061a:0000000000120000
#00615:00520000
#00614:0000005200000000
#00619:00000052
#00618:0000000000000052
#0081a:00130013
#0081b:0013
#00812:13
#00816:0013
#00817:23
#00810:41
#00917:13
#00916:00130000
#0091b:0013
#00912:00000013
#0101b:13
#01017:0000130000001313
#01016:0013
#01012:00130000
#0111b:00130000000000000000000000000000
#01112:00130013
#01118:0013
#01316:0014002400141400
#01319:00130000
#01312:00000013
#01412:14
#0141a:24130000
#01419:0013
#01418:00000013
#01515:1300000000000013
#01518:13000013
#0161b:1313000000000000
#01615:0000131300001300
#01618:00000000000000130000000000001300
#01612:2300000000130000
#01610:41
#0171b:13
#01715:0013001300000000
#01718:00000013001300000000000000000000
#0171a:00000014
#01716:0000000000000014
#0181b:1300000000000013
#01818:0013000000001300
#01815:0000130000130000
#01812:2400001300000000
#01816:0000002400000024
#01918:0013001300001313
#01915:00000000130000130000000000000013
#01912:0000000000000000000000000000000000000013000000000000000000000000
#02012:0013000000000000
#02017:00000013000000000000000000000000
#0201b:00000000001300000000000013000000
#02016:0000001300000000
#02015:0000000000000013
#02018:00000000000000000000000000000013
#0201a:24
#02112:14000000001300000000000013000000
#0211b:0013000000000000
#02116:00000013000000000000000000000000
#02117:0000001300000000
#02118:0000000000000013
#02115:00000000000000000000000000000013
#0221b:1300000000130000
#02218:0013001300001300
#02215:0000130000000013
#02212:00000000000000130000000000000000
#02312:1313
#0231b:1313
#02315:0000001300001300
#02318:0000000000000013
#02412:1313000000000000
#02418:0000131300001300
#02415:00000000000000130000000000001300
#0241b:2300000000130000
#02410:41
#02512:13000014
#02518:0013001300000000
#02515:00000013001300000000000000000000
#02516:0000000000000014
#02612:1300000000000013
#02615:0013000000001300
#02618:0000130000130000
#0261b:0000001300000000
#0261a:24
#02616:0000002400000024
#02715:0013001300001313
#02718:00000000130000130000000000000013
#0271b:0000000000000000000000000000000000000013000000000000000000000000
#0281b:0013000000000000
#02816:00000014000014000000000000000000
#02812:24000000001300000000000013000000
#0281a:00000000000000000014000000000000
#02818:0000000000000013
#02815:00000000000000000000000000000013
#0291a:14
#02912:00001300000000000014000000000000
#02916:00000014000014000000000000000000
#0291b:00000000001300000000000013000000
#02915:0000000000000013
#02918:00000000000000000000000000000013
#03018:0013000000001300
#03015:0000130000130000
#03012:2400001300000024
#0301b:0000000000000013
#0301a:0000002400000000
#03119:0013000000001300
#03114:0013000000001300
#0311b:0013
#03116:0013
#03112:00240000
#0311a:00240000
#0321b:00131300
#03212:1300000000000013
#03218:0000001300130000
#03215:00000000000000130000000013000000
#0321f:11
#03217:23
#0331b:0013130013000000
#03312:0013
#03315:00000013
#0341b:13
#03412:0000130000001333
#03413:0000001300000000
#03416:0013
#03417:0000133300001300
#03418:0000000000000013
#0351b:1300001300000000
#03516:0000001300000000
#03517:0013
#03519:00000013
#03512:0023
#03514:00000023
#03612:00131300
#0361b:1300000000000013
#03615:0000001300130000
#03618:00000000000000130000000013000000
#03616:2300000000000013
#03712:0013130000000000
#03717:00003313330000000000000000000000
#03713:0000001300000000
#03716:0013
#03715:00000013
#03718:0000000000000013
#03719:0000003300000000
#03812:1323
#03815:00001300000013000000001300000000
#03818:00000013000000000000130000001300
#0381b:2313
#03912:1300001300000013
#03915:0013000013000000
#03918:00000013000000000000130000000000
#0391b:23000013
#03917:0000000000000013
#04016:00000000001400000000000014000000
#0401b:0000000000000023
#04012:0000000000000023
#04116:0014000000000000
#04118:00000000000013000013000000000000
#04115:00000000000000130000130000002300
#0411b:00000000230000000000000013000023
#04112:00230013
#0411f:00000000000000000000000000000021
#04212:00001300000000130000000000000000
#04215:00130000
#04218:0000001300001300
#0421b:0000000000130000
#04214:0000000000000013
#04217:00000000000000000000000000000013
#04312:0000000013000000000000000000000000000013000000000000000000000000
#04315:0000130000000013
#04319:0000001300000000
#04316:00000000000000130000000000000000
#04318:00000013
#0431b:00000000000000000000000000000013
#04310:00410000
#04412:00001300000000130000000013000000
#04416:00000000130000000000000000000013
#0441b:0000130000130013
#04417:0000001300001300
#04517:00001300000000130000000000000000
#0451b:0000000000000000130000000000000000000000001300000000000000000000
#04516:00130000
#04512:0000001300000013
#04616:1313130000130013
#04612:00000000000000130000000000000000
#0461b:0000130000000013
#04617:00000000000000130000000000000000
#0461a:24
#04717:1313130000130000
#0471b:00000000000000130000000000000000
#04712:24130000
#04716:00000000000000130000000000000000
#04718:0000000000000013
#04715:00000000000000000000000000000013
#0481b:13
#04815:0013000000000000
#04818:00130000
#04812:0000001300000023
#04817:00000000000000130000000000001300
#04816:0000000000130000
#0491b:0013000000001300
#04915:00000013000000130000000000000000
#04918:0000131300000024
#04912:00000000000000000000000000000024
#0501b:0013001300001300
#05012:0000140000000013
#05017:0000130000130000
#05016:00000000000000140000000000000014
#05112:0000000000000000140000000000000000000014000000000000000014000000
#0511b:0000001300001300
#05116:00001300000000140000000000000000
#05117:00130000
#0511a:00000000000000000000000000000014
#05212:0013001300001300
#0521a:00140000
#05216:00000000130000140000130000000014
#0521b:0000000000000013
#05316:00000000130000140000000000000000
#0531a:0000000000000000140000000000000000000014000000000000000000000000
#05312:0000001300001300
#05315:0000000000000013
#05318:00000000000000000000000000000013
#05317:0013000000000000
#05412:2400130000000024
#0541b:0000000000130000
#0541a:0000002400000000
#05410:41
#05516:0013000000000000
#05517:0000000000130000
#0551a:0000002400000000
#0561b:00130000
#05612:0000002400130000
#0561a:2400000000000024
#05717:0013000000000000
#05716:0000000000130000
#05718:0000000000000013
#05715:00000000000000000000000000000013
#05712:0000002400000000
#0581b:00130000
#05812:0000002400130000
#05818:26
#0581a:0000000000000024
#05917:0013000000000000
#05916:0000000000130000
#05912:0000002400000014
#0591a:0000000000000014
#0601a:14
#06012:1400001414000000
#06016:00000014
#06314:00160000
#06412:1300000000000013
#0641b:00131300
#06416:0013
#06716:0014002800141400
#06714:00140000
#0671b:00000013
#06818:1300002600000026
#06819:0013000000000000
#0681a:00130000
#06815:0000001300001600
#06812:2600000000160026
#0611a:1400000000000000000000000000000000530000000000000000000000000000
#0611b:0013
#06115:0000000000130000
#06119:00000000000000000053000000000000
#06118:0000000000000000000000000000000000000053000000000000000000000000
#06114:0000000000000000000000000000000000000000005300000000000000000000
#06113:00000000000000000000005300000000
#06112:0000000000000000000000000000000000000000000000530000000000000000
#00713:00000028
#01216:0000540000540024
#0121a:24
#01212:0000002400000000
#01219:00540000000000000000000000000000
#01218:0054000000000000
#01217:00000054000000000000000000000000
#01213:00000000000000540000000000000000
#01214:0054
#01215:00000000000000000054000000000000
#06212:24
#0621a:0000002424000000
#06216:24
#06210:41
#06612:2400000000000028
#0661a:0000002400000000
#06613:00540000000000000000000000000000
#06614:0054000000000000
#06615:00000054000000000000000000000000
#06616:0000540000540000
#06619:00000000000000540000000000000000
#06618:0054
#06617:00000000000000000054000000000000
#07316:54
#00753:00000018
#00852:53
#00856:0023
#00957:53
#00956:00530000
#00952:00000053
#0095b:0053
#0105b:53
#01057:0000230000000053
#01056:0053
#0115b:00230000000000000000000000000000
#01152:00530053
#01158:0053
#01256:0000140000140014
#01356:0000001400000000
#0145a:14
#01452:64
#01555:63
#01558:63
#01658:00000000000000530000000000000000
#01755:0000005300000000
#01955:00000000000000530000000000000000
#01952:0000000000000000000000000000000000000023000000000000000000000000
#02056:0000005300000000
#0205a:14
#02152:14
#02157:0000006300000000
#02252:00000000000000530000000000000000
#0235b:5313
#02352:0013
#02455:00000000000000630000000000000000
#02558:0000006300000000
#02758:00000000000000630000000000000000
#0275b:0000000000000000000000000000000000000023000000000000000000000000
#02856:0000006400000000
#0285a:00000000000000000024000000000000
#02852:14
#0295a:14
#02956:0000005400000000
#02952:00000000000000000024000000000000
#03052:1400000000000014
#0305a:0000001400000000
#0315a:00140000
#03152:00140000
#03252:5300000000000053
#0335b:0053
#03355:00000053
#0345b:53
#03457:00230000
#03452:13000023
#03456:0053
#0365b:6300000000000063
#03757:00000023000000000000000000000000
#03858:00000013000000000000000000000000
#03855:00000000000000000000001300000000
#03958:00000013000000000000000000000000
#03952:0000000000000053
#04056:00000000002400000000000000000000
#0415b:00000000000000000000000000000053
#04252:00000000000000530000000000000000
#04257:00000000000000000000000000000053
#04356:00000000000000630000000000000000
#04352:0000000000000000000000000000000000000023000000000000000000000000
#0435b:00000000000000000000000000000053
#04452:00000000000000530000000000000000
#04456:00000000000000000000000000000053
#04557:00000000000000630000000000000000
#0455b:0000000000000000000000000000000000000000002300000000000000000000
#0465a:14
#0465b:0000530000130000
#04657:00000000000000530000000000000000
#04656:0000000000130000
#04752:1400630000130000
#04757:0000000000130000
#04756:00000000000000630000000000000000
#0485b:0000000000130000
#04857:00000000000000530000000000000000
#04852:0000000000000013
#04955:00000000000000530000000000000000
#04952:00000000000000000000000000000064
#05056:00000000000000540000000000000054
#05156:00000000000000540000000000000000
#05152:0000000000000000000000000000000000000024000000000000000000000000
#0515a:00000000000000000000000000000054
#05356:00000000000000640000000000000000
#0535a:0000000000000000000000000000000000000024000000000000000000000000
#05452:1400000000000014
#05456:0000000000330000
#0545a:0000001400000000
#0555a:0000001400000000
#0555b:0013000000000000
#05552:0000000000130000
#0565a:1400000000000014
#05657:0000000000430000
#05652:0000001400000000
#05752:0013001400000000
#0575b:0000000000130000
#05858:16
#0585a:0000000000000014
#05856:0000000000440000
#05852:0000001400000000
#05952:0014001400000000
#0595a:0000000000140000
#0605a:54
#06052:0054
#06056:00000024
#06252:54
#0625a:0054
#06256:4434
#06354:00260000
#06452:5300000000000053
#0645b:0053
#06656:0000140000140000
#06652:0000000000000038
#06756:0000004800000000
#06858:0000004600000066
#06852:3600000000000036
#0615a:44
#06152:3400000000000000000000000000000000000000000000330000000000000000
#05256:00000000000000640000000000000064
#01852:14
#01856:0000001400000014
#0265a:14
#02656:0000001400000014
#006360:0000000000000012
#007330:00000028
#008320:13
#008360:0053
#009320:23
#009371:13
#0093b1:00230000
#009360:00130000
#009320:0023
#0093b1:0013
#009371:00000023
#009320:00000013
#010360:23
#0103b1:1323
#010371:00530000
#010360:0013
#010320:0000000000000023
#010371:0000000000000013
#0113b1:00530000000000000000000000000000
#011371:00230000
#011320:00130000
#011350:0023
#011381:0013
#0113b1:00000023
#011320:00000013
#012350:23
#012320:0000000000000013
#013320:0023000000000000
#0133b0:0000001300230000
#014320:14
#015350:33
#015320:0024
#015381:13
#0153a1:0024
#016381:00000000000000130000000000000000
#0163b1:0000000000230000
#017351:0000001300000000
#017321:00000023
#019351:00000000000000130000000023000000
#019321:0000000000000000000000000000000000000053000000000000000000000000
#020361:0000001300000000
#020321:00000023
#021371:0000001300000000
#0213b1:00000023
#022321:00000000000000130000000000000000
#022361:0000000000230000
#0233b1:13
#023381:0000002300000000
#024351:00000000000000130000000000000000
#024321:0000000000230000
#025381:0000001300000000
#0253b1:00000023
#027381:00000000000000130000000023000000
#0273b1:0000000000000000000000000000000000000053000000000000000000000000
#028361:0000001400002400
#0283a1:00000000000000000054000000000000
#029361:0000001400002400
#029321:00000000000000000054000000000000
#032321:13
#032361:00230000
#032321:0000000000000013
#033361:0033230000000000
#0333b1:0013
#033381:00000023
#033350:00000013
#034320:23
#0343b1:1323
#034371:0000333300000000
#034360:0013
#034320:0000000000003333
#035360:23
#0363b0:13
#036370:00230000
#0363b0:0000000000000013
#037370:00003353330000000000000000000000
#037390:0000003300000000
#0373b0:0023
#039320:0000000000000013
#040360:00000000005400000000000000000000
#040320:00000023
#0413b0:00000000000000000000000000000013
#042370:0023000000000000
#042320:00000000000000130000000000000000
#042360:0000000000230000
#042370:00000000000000000000000000000013
#0433b0:0023000000000000
#043360:00000000000000130000000000000000
#043320:0000000000000000000000000000000000000053000000000000000000000000
#043350:00000023
#0433b0:00000000000000000000000000000013
#044370:0023000000000000
#044320:00000000000000130000000000000000
#044360:0000000000230000
#044360:00000000000000000000000000000013
#045320:0023000000000000
#045370:00000000000000130000000000002300
#0453b0:0000000000000000000000000000000000000000005300000000000000000000
#0463b0:0000130000230000
#046370:00000000000000330000000000000000
#047320:0000130000230000
#047360:00000000000000330000000000000000
#048370:00000000000000130000000000000000
#0483b0:0000000000230000
#049350:00000000000000130000000000000000
#049320:00000023
#049320:00000000000000000000000000000014
#050360:0024000000000000
#050360:00000000000000140000000000000000
#050320:0000000000240000
#050360:00000000000000000000000000000014
#0513a0:0024000000000000
#051360:00000000000000140000000024000000
#051320:0000000000000000000000000000000000000054000000000000000000000000
#0513a0:00000000000000000000000000000014
#052360:0024000000000000
#052360:00000000000000140000000000000000
#0523a0:0000000000240000
#052360:00000000000000000000000000000014
#053320:0024000000000000
#053360:00000000000000140000000024000000
#0533a0:0000000000000000000000000000000000000054000000000000000000000000
#0543a0:1400342400000000
#054321:0000001300000000
#054361:00000000000000530000230000000000
#054371:0000000000000013
#0543b1:00000000000000000000000000000053
#0553b1:0023000000000000
#055361:0000001300000000
#055321:00000000000000530000230000000000
#056321:1400342400000000
#0563b0:0000001300000000
#056370:00000000000000530000230000000000
#056360:0000000000000013
#056320:00000000000000000000000000000053
#057320:0023000000000000
#057370:0000001300000000
#0573b0:00000000000000530000230000000000
#058320:1400342400000000
#0583a1:0000001400000000
#058361:00000000000000540000240000000000
#058361:0000000000000014
#058321:00000000000000000000000000000054
#059321:0024000000000000
#059361:0000001400000000
#0593a1:00000000000000540000240000000000
#0603a1:14
#060361:0000003424000000
#060320:0014
#060360:00000054
#061320:24
#062320:14
#062360:0000003424000000
#0623a1:0014
#063341:00560000
#0643a1:24
#064320:13
#064360:00230000
#0643b0:0013
#064370:0000000000000023
#064321:0000000000000013
#065361:00230000
#0653b0:00130000
#065380:0023
#065351:0013
#065321:00000023
#0653b0:00000013
#066380:23
#0663a0:0000000000000014
#0673a0:0024000000000000
#067320:0000001400240000
#068380:0000000000000016
#071360:00000034
#071350:00000000000000000000000000340034
#071370:0000000000000034
#072370:3400000035000000350000000000000000000000000000000000000000343434
#072340:00350035000000000000000000000000
#072330:00000000003700370037003700000000
#072360:00000000000037003700370037343400
#072350:00000000000000000000000000000000000000000000000000000000000000000000000000000000000000000000000000000000000000000034003400340034
#073360:24
#000980:12
#0009b0:0000002200000000
#000940:0000000000120000
#000960:0000000000000022
#0019a0:0012000000000000
#001980:0000002200000000
#001960:0000000000120000
#001940:0000000000000022
#002980:0012000000000000
#0029a0:0000002200000000
#002940:0000000000120052
#002950:00000052
#003950:22
#0039a1:12
#003981:00220000
#003960:00120000
#003940:0022
#0039a1:0012
#003981:00000022
#004931:12
#004961:0000002200000000
#004981:0000000000120000
#0049a1:0000000000000022
#005961:0012000000000000
#005941:0000002200000000
#0059a1:0000000000120000
#005981:0000000000000022
#006961:0012000000000000
#006941:0000002200000000
#0069a1:0000000000120000
#006981:0000000000000022
#0129a1:14
#012961:00240000
#012921:0000001400000000
#012961:0000000000240000
#0619b1:0013
#061981:0000000000000000000000000000000000000023000000000000000000000000
#061951:0000000000130000
#061921:0000000000000000000000000000000000000000000000230000000000000000
#066921:14
#066961:00240000
#0669a1:0000001400000000
#066961:0000000000240000
