This file was generated by Ched 2.7.0.0.
#TITLE ""
#ARTIST ""
#DESIGNER ""
#DIFFICULTY 0
#PLAYLEVEL
#SONGID ""
#WAVE ""
#WAVEOFFSET 0
#JACKET ""
#REQUEST "ticks_per_beat 480"
#00002: 4
#BPM01: 151
#00008: 01
#TIL00: ""
#VOLUME: ""
#HISPEED 00
#MEASUREHS 00
#01318:0013000000001300
#01315:0000130000130000
#0131a:0000002400000000
#01518:1300000000000013
#01515:00000013
#0161b:00001300000000330000000000000000
#01615:00130013
#01618:0000001300000013
#01612:23
#01610:41
#01712:13
#01718:00000013
#01715:00003333000013000000000000001300
#01815:0013000000001300
#01818:0000130000130000
#0181a:2400000000000024
#01812:0000002400000000
#01912:0013000000000000
#01918:0000130000000013
#01915:00000000000013330000000000000013
#02215:13000013
#0221b:00001300000000330000000000000000
#02212:00130000
#02218:0000001300000013
#02312:13
#02318:00000013
#02315:0000000000000013
#03015:0013000000001300
#03018:0000130000130000
#0301a:2400000000000024
#03012:0000002400000000
#03112:0014240000000000
#0311b:0013
#03115:00000013
#03218:13000013
#03215:0000001300130000
#0321b:0013
#03212:0000000000000013
#0321f:11
#0351b:1323
#03512:0000001300000000
#03515:00000023
#03612:0000001300000013
#03618:2313
#03615:0000000000130000
#0361b:00000013
#03715:00003313330000000000000013000000
#03718:0000000000000013
#03714:0000003300000000
#03818:0013000000130013
#03815:00000013000000002300001300000000
#0381b:0000001300000000
#03812:23
#03918:0013000000130013
#03915:00000013000000001300000000000000
#0391b:0000001300000000
#03912:23000013
#04118:0013000000000023
#04115:00000013
#04112:00000000230013000000000000000023
#0411b:0000000013130000
#0411f:00000000000000000000000000000021
#0421b:0000001300000000
#04215:00000000000000130000000000000000
#04218:0000000000000013
#04212:00000000000000000000000000000013
#0431b:00000000000013000000000000000013
#04315:00000000000000130000000000001300
#04318:00000013
#04310:00410000
#04512:0000001300000000
#04518:00000000000000130000000000000000
#04618:0013000000000000
#04615:00130000
#04612:23000000000000130000000000000000
#0461b:0000000000000013
#0471b:0000000000000013
#04718:0013000000000000
#04712:23130000
#04715:00000000000000130000000000000000
#04812:1300000000000023
#04815:0013000000000000
#04818:00000000130000330000000000000000
#0481b:0000001300000000
#0491b:00001300000000000000000000000023
#04918:00130013
#04915:00000000000013330000000000002300
#05516:0014000000000000
#05518:0000000000140000
#05512:0000002400000000
#05718:0000000000000013
#05715:00000000000000000000000000000013
#05716:0014000000000000
#05714:0000000000140000
#0571a:0000002400000000
#0581a:0000140000140000
#05812:0000140000140000
#05817:2600000000000026
#05813:0000002600000000
#05912:0014000000140000
#05914:0000000000000014
#0591a:0014000000140000
#05913:0000002600000000
#06018:14
#06016:0014
#0601a:0000003400000000
#00312:00130000
#00318:0000130000130000
#0031b:0013
#00315:00000013
#00812:13
#00815:00333333
#00810:41
#00918:13
#00915:0013
#00912:00000013
#0091b:00130000
#0101b:1300000000000013
#01018:0013
#0141b:00130000
#01418:0013
#01415:00000013
#01412:24
#0201b:13003333003300000000000000000000
#02017:0000001300000000
#02015:0000000000000013
#02018:00000000000000000000000000000013
#02112:13003333003300000000000000000000
#02116:0000001300000000
#02118:0000000000000013
#02412:00001300000000330000000000000000
#02418:00130013
#02415:0000001300000013
#0241b:23
#02410:41
#0251b:13
#02515:00000013
#02518:00003333000013000000000000001300
#02612:1400000000000014
#02618:0013000000001300
#0261a:0000001400000000
#02615:0000130000130000
#0271b:0013000000000000
#02715:00130000
#02712:0000000000000013
#02718:00000000000013330000000000000013
#02815:13003333003300000000000000000013
#02812:0000001300000000
#0281b:0000000000000013
#02918:13003333003300000000000000000000
#0291b:0000001300000000
#02915:0000000000000013
#03318:0013
#03315:00000013
#0341b:13
#03418:0013
#03412:0000001300000000
#03415:0000000000000013
#0401b:00000000001300000000000000000000
#04015:0000000000000023
#04412:0000001300000000
#04418:00000000000000130000000000000000
#04415:0000000000000013
#0441b:00000000000000000000000000000013
#05012:0000001300000000
#05018:00000000000000130000000000000000
#05015:0000000000000013
#0501b:00000000000000000000000000000013
#05112:00000000000013000000000000000013
#05118:00000000000000130000000000001300
#05115:00000013
#0531b:0000001300000000
#05315:00000000000000130000000000000000
#0521b:0000001300000000
#05215:00000000000000130000000000000000
#05218:0000000000000013
#05212:00000000000000000000000000000013
#05412:0000140000140000
#05418:0000002400000000
#0541a:2400000000000024
#05410:41
#0561a:0000140000140000
#05614:0000002400000000
#05612:2400000000000024
#06316:00140000
#06418:00140000
#06414:0014
#06412:0000000000000014
#0651a:00140000
#06516:0014
#06512:00000014
#06715:0013000000001300
#06718:0000130000130000
#06712:0000002400000000
#06814:0014000000000000
#06818:00140000
#0681a:0000000000140000
#06816:00000014
#06812:0000002500000026
#06819:25
#01212:24545454540000000000000000002400
#0121a:00000000000024545454540000000000
#0621a:24
#06212:0024
#06216:0000003400000000
#06210:41
#00713:00000025
#00718:00000025
#0661a:24545454540000000000000000002400
#06612:00000000000024545454540000000000
#01118:00333300
#00018:0033000000000000
#00019:00330000
#00415:0033000000000000
#00414:00330000
#07314:58
#01252:0000140000000014
#0125a:0000000000140000
#0135a:0000001400000000
#01452:14
#01558:63
#02352:53
#02355:0013
#0305a:1400000000000014
#03052:0000001400000000
#03152:00140000
#03258:53
#03252:0000000000000053
#03652:0000000000000053
#03658:13
#03755:00000023000000000000000000000000
#03855:00000013000000000000001300000000
#03955:00000013000000000000000000000000
#03958:0000000000000053
#04152:00000000000000000000000000000063
#04255:00000000000000530000000000000000
#04252:00000000000000000000000000000063
#04558:00000000000000630000000000000000
#04652:13000000000000530000000000000000
#04655:0000530000130000
#04955:0000005300000000
#0495b:00000000000000000000000000000053
#05458:0000001400000000
#0545a:1400000000000014
#05552:0000001400000000
#05558:0000000000140000
#05857:1600000000000016
#05853:0000001600000000
#05953:0000001600000000
#06058:54
#06056:0054
#0625a:64
#06252:0064
#00758:00000015
#00753:00000015
#00852:53
#00958:63
#00955:0053
#00952:00000053
#0095b:00630000
#0105b:6300000000000063
#01058:0063
#01658:0000005300000000
#01752:53
#01755:0000005300000000
#01955:0000005300000000
#0205b:53
#02057:0000005300000000
#02152:63
#02156:0000006300000000
#02258:0000005300000000
#02455:0000006300000000
#0255b:63
#02558:0000006300000000
#02652:1400000000000014
#0265a:0000001400000000
#02758:0000006300000000
#02855:63
#02852:0000006300000000
#02958:53
#0295b:0000005300000000
#0345b:53
#03458:0063
#0405b:00000000002300000000000000000000
#04458:00000000000000630000000000000000
#0445b:00000000000000000000000000000053
#0435b:00000000000000000000000000000053
#04355:00000000000000130000000000000000
#04752:1300630000130000
#04755:00000000000000630000000000000000
#0485b:0000005300000000
#04858:0000000000130000
#04852:0000000000000013
#05058:00000000000000630000000000000000
#0505b:00000000000000000000000000000053
#05355:00000000000000530000000000000000
#05158:00000000000000130000000000000000
#05152:00000000000000000000000000000063
#05255:00000000000000530000000000000000
#05252:00000000000000000000000000000063
#05754:0000000000140000
#0575a:0000001400000000
#05654:0000001400000000
#05652:1400000000000014
#06356:00240000
#06454:0054
#06452:0000000000000054
#0665a:0000140000000014
#06652:0000000000140000
#06752:0000001400000000
#06859:15
#06852:0000001500000056
#0185a:1400000000000014
#01852:0000001400000000
#000380:1333000000000000
#000390:00330000
#0003a0:0000003300000000
#0013a0:0000000000330000
#001390:00000033
#001380:0000000000000033
#002380:0033000000000000
#002390:00330033
#0023a0:0000003300330033
#003390:23
#000331:0000000000130000
#000341:00000033
#000351:0000000000000033
#001351:0033000000000000
#001341:00330000
#001331:0000003300000000
#002331:0000000000330033
#002341:00000033
#003341:23
#004351:1333000000000000
#004341:00330000
#004331:0000003300000000
#005331:0000000000330000
#005341:00000033
#005351:0000000000000033
#006351:0033000000000000
#006341:00330033
#006331:0000003300330033
#007331:00000025
#0043a0:0000000000130000
#004390:00000033
#004380:0000000000000033
#005380:0033000000000000
#005390:00330000
#0053a0:0000003300000000
#0063a0:0000000000330033
#006390:00000033
#007380:00000025
#008320:13
#008350:00333333
#009350:23
#009381:1323
#0093b1:00330000
#009350:0013
#009320:00000033
#010350:23
#0103b1:1300000000000033
#010381:0033
#011381:00333323
#015381:13
#0153a1:0024
#016381:0000001300000000
#0163b1:00000000000000330000230000000000
#017321:1300000000230000
#017351:00003333003333000000000000000000
#019351:00000000000013330000000000000000
#019321:00000023
#0203b1:13003333003300000000000023000000
#020371:0000003300000000
#021321:13003333003300000000000023000000
#021361:0000003300000000
#022381:0000001300000000
#0223b1:00000000000000330000230000000000
#023321:13
#023351:0000003323000000
#024351:0000001300000000
#024321:00000000000000330000230000000000
#0253b1:1300000000230000
#025381:00003333003333000000000000000000
#027381:00000000000013330000000000000000
#0273b1:00000023
#028351:13003333003300000000000023000000
#028321:0000003300000000
#029381:13003333003300000000000023000000
#0293b1:0000003300000000
#032381:13
#0323b1:00230000
#032321:0000000000000013
#033351:0033230000000000
#0343b1:13
#034381:00230000
#034381:0013
#0343b1:00000023
#036321:0000000000000013
#037351:00003353330000000000000000000000
#037341:0000003300000000
#037321:0023
#039381:0000000000000013
#0403b1:00000000005300000000000000000000
#040381:00000023
#041321:00000000000000000000000000000013
#042351:0033230000000000
#042351:00000000000000130000000000000000
#042321:0000000000332300
#042321:00000000000000000000000000000013
#043351:0033230000000000
#0433b1:00000000000000000000000000000013
#044381:0033230000000000
#044381:00000000000000130000000000000000
#0443b1:0000000000332300
#0443b1:00000000000000000000000000000013
#045381:0033230000000000
#045381:00000000000000130000000000000000
#0453b1:0000000000000023
#046351:0000130000230000
#046321:00000000000000330000000000000000
#047321:0000130000230000
#047351:00000000000000330000000000000000
#0483b1:0000001300000000
#048381:00000000000000330000230000000000
#049351:00000000000013330000000000000000
#049321:0000000000230000
#0493b1:00000000000000000000000000000013
#050381:0033230000000000
#050381:00000000000000130000000000000000
#0503b1:0000000000332300
#0503b1:00000000000000000000000000000013
#051381:0033230000000000
#051321:00000000000000000000000000000013
#052351:0033230000000000
#052351:00000000000000130000000000000000
#052321:0000000000332300
#052321:00000000000000000000000000000013
#053351:0033230000000000
#053351:00000000000000130000000000000000
#053321:0000000000000023
#060381:14
#0603a1:0000003424000000
#060360:0014
#060320:00000024
#0613a0:14240000
#061341:00142400
#061380:00001424
#061321:00000014
#062321:24
#0623a0:14
#062360:0000003424000000
#062321:0014
#063361:00540000
#064321:24
#064341:0014
#064321:0000000000000034
#065341:00240000
#068321:0000000000000016
#071361:00000054
#072341:00000000000000000000000038383800
#073341:28
#012920:14240000
#0129a0:0000001400240000
#0669a0:14240000
#066920:0000001400240000
