This file was generated by Ched 2.7.0.0.
#TITLE ""
#ARTIST ""
#DESIGNER ""
#DIFFICULTY 0
#PLAYLEVEL
#SONGID ""
#WAVE ""
#WAVEOFFSET 0
#JACKET ""
#REQUEST "ticks_per_beat 480"
#00002: 4
#BPM01: 151
#00008: 01
#TIL00: ""
#VOLUME: ""
#HISPEED 00
#MEASUREHS 00
#00316:0014
#00914:0014
#0101a:14
#01012:0014
#01118:14
#01114:0014
#01414:0014
#01518:14
#01612:14
#01618:0014
#01610:41
#0181a:14
#01814:0014
#02012:14
#02014:00343400
#0211a:14
#02118:00343400
#02212:14
#02218:0014
#02314:14
#0231a:0014
#02418:0014
#02412:24
#02410:41
#02512:14
#02518:0014
#02614:14
#0261a:0014
#02714:14
#0271a:0014
#02814:14
#02812:00343400
#02918:14
#0291a:00343400
#03012:14
#03018:00140000
#03014:0014
#0301a:00000014
#03218:14
#0321a:0014
#0321f:11
#03414:14
#03412:0014
#03316:0014
#03618:14
#0361a:0014
#03516:0014
#03716:0014
#0381a:0014
#03812:24
#03914:14
#03918:0014
#04212:0014
#04218:26000014
#04314:14
#0431a:00140000
#04312:0014
#04310:00410000
#04414:0014
#0441a:00000014
#04418:26
#04512:14
#04518:00140000
#04514:0014
#0461a:1414
#04614:00140000
#04712:1414
#04718:00140000
#04818:1414
#04814:00140000
#0481a:0000000000000014
#0501a:0014
#05014:00000014
#05012:26
#05118:14
#05112:00140000
#0511a:0014
#05218:0014
#05212:26000014
#0531a:14
#05314:00140000
#05318:0014
#05418:00140000
#05412:24
#05410:41
#05614:00140000
#0561a:24
#05818:00140000
#05812:24
#0601a:14
#06014:00140000
#06018:0014
#06012:00000014
#0611a:14
#06318:0014
#06314:14
#06412:14
#0641a:0014
#06514:14
#06518:0014
#0081a:24
#00810:41
#04012:24
#04014:00340000
#06218:24
#06210:41
#06818:0000002400000000
#06812:24
#06814:0000000000000024
#0411f:00000000000000000000000000000021
#07312:53
#0085a:54
#01558:14
#02052:54
#0215a:64
#02452:14
#02854:64
#02958:54
#03152:00140000
#0325a:0024
#03258:54
#03454:64
#03452:0024
#03658:54
#0365a:0024
#04052:54
#04055:0000000000000016
#04258:16
#04458:16
#0465a:0014
#04752:0014
#04958:0000001400000000
#04858:0054
#0485a:0000000000000054
#05052:16
#05252:16
#05454:0000000000140000
#0555a:0014000000000000
#05552:0000000000140000
#05658:0000000000140000
#05752:0014000000000000
#0575a:0000000000140000
#05852:0000000000140000
#05958:0014000000000000
#05954:0000000000140000
#0615a:54
#06258:14
#06852:14
#06858:0000001400000000
#06854:0000000000000054
#000380:14
#0013a0:34
#002380:34
#0033a0:24
#004320:14
#005340:34
#006320:34
#007340:24
#0083a0:14
#009380:24
#0123a0:1400000000000034
#012380:0000003400000000
#013380:0000003400000000
#0143a0:24
#017340:1424
#019380:1424
#020320:14
#020340:00343424
#0213a0:14
#021380:00343424
#028340:14
#028320:00343424
#029380:14
#0293a0:00343424
#031320:14240000
#032380:14
#0323a0:0054
#033380:24
#034340:14
#034320:0054
#035340:24
#036380:14
#0363a0:0054
#037380:24
#040320:14
#040340:00340000
#040350:0000000036000026
#048380:0014
#0483a0:0000000000000034
#049380:0034342400000000
#054340:0000001400240000
#0543a0:0000000000000014
#0553a0:0024000000000000
#055320:0000001400240000
#056380:0000001400240000
#056320:0000000000000014
#057320:0024000000000000
#0573a0:0000001400240000
#058320:0000001400240000
#058380:0000000000000014
#059380:0024000000000000
#059340:0000001400240000
#0613a0:14
#062380:24
#066320:1400000000000034
#066340:0000003400000000
#067340:0000003400000000
#068320:24
#068340:0000000000000014
#073320:23
