This file was generated by Ched 2.7.0.0.
#TITLE ""
#ARTIST ""
#DESIGNER ""
#DIFFICULTY 0
#PLAYLEVEL
#SONGID ""
#WAVE ""
#WAVEOFFSET 0
#JACKET ""
#REQUEST "ticks_per_beat 480"
#00002: 4
#BPM01: 200
#BPM02: 186
#BPM03: 173
#BPM04: 122
#BPM05: 240
#BPM06: 126
#BPM07: 162
#BPM08: 143
#BPM09: 103
#BPM0A: 260
#00008: 01
#05208: 000000000000000200000000000000000000000000000000
#05008: 03
#15508: 0004
#18408: 00000000000500000000000000000000
#09908: 000000000000000008000000000000000600000000000000090000000000000A
#09808: 00000007
#TIL00: "154'0:10000, 154'2:1"
#VOLUME: ""
#HISPEED 00
#MEASUREHS 00
#00018:00000000000000000011000000000000
#00012:0000000000110000
#00117:0000001100000000
#0011a:00000000000000110000000000000000
#0011d:0011
#01116:1400001316000000
#01118:00140000160000000000000000000000
#0111a:0014000000000000
#01114:0000000000131600
#01112:0014000000000013
#00918:0000000000000013
#00912:1313001313001300
#00915:00000000000000000000000000000013
#00916:13
#0091b:0013
#0061b:1300131300131300
#00617:13000013
#00612:0013
#0071b:1313001313001300
#00712:13
#00717:0000001300000000
#00812:1300131300131300
#00816:13
#0081b:0013
#0101b:1300131300131300
#01017:00130000
#01012:1313
#00512:1313001313001300
#00516:13
#0051b:0000001300000000
#00412:2300131300131300
#00416:13
#0041b:0013
#00410:41
#01218:16001600161316131600160016000013
#01212:00130000000000000000001300130000
#01215:00000013000000000013000000001300
#02712:1c001c13001c001c2c2c2c2c2c2c2c2c
#0271b:00130000
#02715:00160000000016000000000000000000
#02916:14141400
#0291a:1414
#02912:00000014
#02812:16160014
#02814:0000000000000014
#02818:1600160000000014
#02816:00000014
#03418:1616
#03412:14151415
#03415:0035003500350035
#03618:161616160000000000000000
#03612:000000000000161616160000
#03718:131616160000000000000000
#03712:000000000000131616160000
#0371b:13
#03715:0013
#0381b:131313000000000000000000
#03812:00160016
#03818:000000000000001313000000
#03915:001313000000000000000000
#03918:00160016
#03912:000000000000001313130000
#0401b:001300000000000000000000
#04018:000013001300260000260013
#04015:000000000013000013001300
#04012:260000260000001300000000
#0411b:001300000000000000000000
#04118:000013001300260000260013
#04115:000000000013000013001300
#04112:260000260000001300000000
#0421b:1313131313131313
#04215:00160016001600160016001600160016
#04712:12
#04812:12
#04912:12
#01418:16001600161316001613160026000000
#01415:00000013000000000000001300161616
#0141b:00000000000000130000000000000000
#01412:00130000000000000000000000000000
#02018:00000013000000000000130000001300
#02012:1c1c13001c1c00001c00000013000000
#02015:00000000000013000000001300130000
#0201b:00000000000000130013000000000013
#02318:00160000000000160016000000000016
#02312:2c0000162c1600002c0000162c160000
#02316:0014001400140014
#02412:2c1400141c0000001c00000000000000
#02416:00001400001400140000000000000000
#0241a:0000001400000000
#02418:0000000000130000
#0241b:00000000000000000000001300000000
#02419:00000012
#02415:00000000000000000013000000001200
#02417:00000000000000000000000000120000
#02413:00000000000000000000000000000012
#02612:1c130000000000000012000000000000
#02618:00001200000000130000000000000012
#02614:00000013000000000000001200000000
#0261a:00120000
#02616:00000000001300000000000000120000
#0261c:0000001200000000
#02615:0013
#02617:0000000000130000
#0261b:0000000000000013
#02619:00000013
#0301b:13
#03017:00130000
#03012:00140000
#0301a:00000014
#03018:0000000000000014
#03014:0000000000000014
#03016:00000014
#0451a:00140000000000000014000000000000
#04516:00000014000000140000001400000014
#04512:2c002c002c142c002c002c002c142c00
#03518:26160000
#03512:1626
#03513:00000000000000360000000000000000
#03516:00003600003600000000000000000000
#03514:00360000000036000000000000000000
#03517:00000036000000000000000000000000
#01918:00001500000000000000001300000000
#01917:00000000150000000000000000130000
#01914:00000000001300000000150000000000
#01916:00130000000015000000000000000013
#01913:00000000000000130000000015000000
#01915:00000013000000001500000000000000
#01919:00000000000000000013000000000000
#01912:1c00000000000015
#01512:00161616260000000000000000161616
#01518:00000000001616162600000000000000
#01515:26000000000000000016161626000000
#0161b:00001300000000001300130000000013
#01612:26000000001300130000000000000000
#01615:00160016160013000000001300130000
#01618:00000000000000000013000013001300
#03212:1316
#03213:00000000001a0000
#03214:00000014
#03215:0000000000000016
#03218:00001614
#01312:1616161616161600
#01315:00000000001300130000000000000013
#0131b:00130000000000000000001300130000
#01318:00000013000000000013000000001300
#01712:13001300000000001300130000000013
#0171b:00000000001300130000000000000000
#01715:00160016160000000013000013001300
#01718:00000000000013000000001300130000
#0181b:1313000013131300
#01812:00000000001300130000001300000013
#01815:00160016160013000000000000001300
#01818:00000000000000000013000000130000
#02115:00000013000000000000130000001300
#02112:1c1c00001c1c00131c13000000000013
#02118:00000000000013000000001300130000
#0211b:0013000000001300
#02218:00000013000000000016000000000000
#02212:1c1c00001c1c00131c001c162c1c1c1c
#02215:0000001300000000
#0221b:0013000000000000
#0251a:00140014000000000000000000000000
#02516:00001400001400140000000000000000
#02512:1c0000001c0014001c00001300000000
#02515:0000000000131200
#02518:00000000000000000013000000000000
#02517:00000000000000000000000000120000
#0251b:00000000000000000000000000000012
#02519:0000000000000012
#03316:12120000
#03312:00000016
#03313:00000000001a0000
#03314:0014
#03315:0000001600000000
#03317:0012000000000000
#03318:12121416
#03116:14141400
#03112:1414
#0311a:00000014
#0441b:1300130000130013
#04415:00160016001600160016001600160016
#04412:0013001313001300
#04312:130013001300130013001300131c1c1c
#04315:00160016001600160016001600000000
#05916:13000000181400140000000000000000
#05912:1300001813001300
#05918:00000000000000000000001300000000
#05915:00000000000000000000160000001613
#0591b:00000013000000001300000013000000
#06115:00000000000000000000160013000013
#06112:1400180000000013
#06116:1814001418000000
#0611b:00000000000000000000001300000000
#06118:00000000000000000000000000130000
#0631b:00000013
#06316:1300130013131313
#06312:00001300000013000000001300001300
#07412:2400130000000013
#0741b:0013
#07418:00000000000013001300001313000000
#07415:00000000130013000000001313001300
#0741a:24
#07516:13130000
#0751b:0013001300130000
#07515:0000000013001414
#07518:00000000000000000013001300000000
#07512:00000000000000000000000000140000
#07517:00000000000000000000000000000014
#05816:0000140014000013
#0581b:00000013000000000000130000001300
#05812:2c000000000000130000000013000000
#05815:0016001600000000
#05817:0000000000130000
#0651b:00000013
#06515:0000000000000013
#06517:00000013
#06518:0000000000000013
#06512:0024002400000000
#06516:28
#0651a:00240000
#0761c:0000000000000012
#0761a:14
#07815:000000000000000000160000000000000000000013000000000000000000000013000000000000000000130000000000
#0781b:000000000000000000130000000000000013000000001300
#07812:2c0000000000000000000000000000000000130000000013
#07818:000000000000000000000000000000000000000000001300000000000000130000000000000000130000000000000000
#07918:13000000000000000013000000130000
#07917:00000000001200000000000000000000
#07912:0000001500190000
#07919:0013150000000000
#07914:0013000000000000
#07915:00000000000000001600001316001913
#06617:0013000013130013
#06618:0000001300000000
#0661b:0013000013130000
#06615:0000001300000000
#06616:13230000
#06612:1300230000001313
#07712:000000130000000000000000000000000000000000000000260000001600000016000000160000001600000016000000
#07718:000000000000130000000000230000000000000000130000000016000000160000001600000016000000160000001600
#07715:23000013000013000000000000000000
#0771b:00000000001300000000000000000000
#07316:00000000000000000000141414141414
#0731a:0024002400000000
#07312:28240000
#08015:00001300000000130000130000000013
#08018:00000013000013000000001300001300
#08012:13231323
#0801b:23132313
#06012:130013001c131c00
#06015:00000000000013000000001300001300
#0601b:13000000001300000000000000130000
#06018:00000000000000130013000000000013
#06016:0013000000000000
#08117:1200120012001200120012001200120012001200120012001200003300000000
#0811a:0000000000000000000000000000000000000000000000000033000000000000
#08118:00000000000000000000000000330000
#08115:0000000000000033
#08114:0000000000000000000000000000000000000000000000000000000000333300
#08113:0000000000000000000000000000000000000000000000000000000000000033
#06212:2c000013000000000000130000001300
#0621b:00000000000000130000000013000000
#06216:0000140014130000
#06217:0000000000000013
#06215:0016001600000000
#06715:00000000000000000000161300001600
#06718:00000000000000000000000000000013
#0671b:13001313
#06712:00000013180000001300000013000000
#06717:13
#06716:00000000001418140000000000000000
#0681b:1300130000130000
#06812:13000000001300001c0000001c130000
#06818:00000000000013000000001300001300
#06815:00000000000000130013000000000013
#06817:0013000000000000
#06918:26000000260000002600000013000013
#0691b:0000000000000013
#06915:00000000000000000000160000130000
#06912:2600000026001c002600001300000000
#07012:2c13000013000000
#07017:0000000000130000
#07018:0013
#07015:00000016130000160000000000001200
#0701b:0000131300000000
#08216:00120000
#08212:2312
#08217:00000012
#08313:12
#08318:00120012
#08314:0012
#08417:00120000
#0841b:0012
#08416:00000012
#0841c:12
#08512:26001c0026001c002600001300000000
#08518:26000000260000002600000013000013
#0851b:0000000000000013
#08515:00000000000000000000130000130000
#07117:1300000013000013
#07112:00130013
#0711b:0013
#07115:0012001200000000
#0641a:0000001400140000
#06416:14000014140000141400001414000014
#06412:0014000000000014
#08717:1300130013131313
#0871b:00001300000013000000001300001300
#08712:00000013
#0861b:0000000000000013
#08617:0000000000000013
#08616:0000140014140000
#0861a:0014000000140000
#08612:2c00001400001400
#08912:2400282426001400
#08918:000000000000000000000000260000000012000000130000
#0891a:0024240000140000
#08915:0000000000000013
#08916:280012
#09016:0013000013140000
#09015:0000001300000000
#09012:0013000013140013
#09018:0000001300000000
#09017:1300230000000013
#0901b:13230000
#0901a:00000014
#09115:00000000160016001300160000001613
#09118:00000000000000001300001300000000
#09117:13
#09112:00000013000000130000000013000000
#0911b:13000000001300000000000013000000
#09212:1300190000131900
#09215:00000000000013001900001300001300
#0921b:13000000001300000000000000130000
#09218:00000000000000130013000000000013
#09216:0013000000000000
#09315:00000000000000000000160013000013
#09312:2600261c26000013
#0931b:00000000000000000000001300000000
#09318:26000000260000002600000000130000
#0941b:0013000013000000
#09416:0000000000130000
#09415:00000016000000161300000000000000
#09412:2c00131300130000
#09418:00130000
#09419:0000000000000012
#09714:00000012
#09716:00000000280000000000001200120000
#09718:0000000026120012
#0971a:24000000000024000000000000000012
#09712:2824240026000000
#0981a:00120000
#09818:00000000001200000000000000000000
#09816:0000001228000000
#09814:00000000000000120000000000000000
#09812:280000000000000022001c1c1c1c1c1c
#0981c:22
#09517:0000000000131313
#0951b:00000000130000000000001300001300
#09512:00001313
#09516:1313
#09519:0012001200000000
#09912:1515141413131222
#09919:1515000000000000
#0991a:0000141400000000
#0991b:0000000013130000
#0991c:0000000000001222
#08812:14180000000000181418000000000018
#08816:00001418001814000000141800181400
#0881a:00140014
#09612:00141800000000000014180000000000
#09616:14000014140018141400001414001814
#0961a:00000000001400000000000000140000
#07212:0000001400140000
#07216:14000014140000141400001414000014
#0721a:0014000000000014
#13412:141c151c161c171c
#13416:18
#13418:0016
#13417:00170000
#13419:00000015
#1331a:14
#13319:00131400000000000000000000000000
#13318:00000013140000000000000000000000
#13317:00000000001314000000000000000000
#13316:00000000000000131400000000000000
#13315:00000000000000000013140000000000
#13314:00000000000000000000001314000000
#13312:00000000000000000000000000000013
#13313:00000000000000000000000000131400
#14412:24000000000000001300001300001300
#1441b:0013
#14418:00001400000000000013000013000000
#14415:0000000000130000
#14416:28280000
#1461b:00131313
#14615:29001313
#14618:0000000000130013
#14612:1300290000130013
#14512:00000013
#14516:0000001313000000
#14514:0000000000130000
#1451b:00000000000000000013000000000000
#1471b:13000000130013000000001300000000
#14715:1300001300130000
#14718:0013000013000013
#14712:00000013000000001300000013001300
#1401c:1200001200000000
#1401a:0012000012000012
#1401b:00120000
#14018:0000000000120000
#14019:00000012
#14012:13
#14118:1200001200000000
#14116:00001200000000120000120000000000
#14117:00120000
#14114:00000000000000001200001200001200
#14115:00000000000000000012000000000000
#14112:00000012
#14113:00000000000000000000000000120012
#1321a:14
#13218:0014000000000014
#13216:00140014
#13214:0000001400140000
#13212:0014
#11814:0000001400140000
#11818:0014000000000014
#11812:24141400
#1181a:14002414
#11816:00240024
#1191b:0000000000130000
#11916:0000000000000013
#11912:1400181800000000
#1191a:1400001400000000
#11914:0014000000000000
#12014:0000000000000013
#12017:00130013
#12012:1300001300001300
#1201b:0000000000130000
#12019:0000000000000013
#12116:14
#1211a:14
#12114:00000014000000000000000000000000
#13018:0013160013000013
#13012:16130013
#13015:0000001300000000
#1301b:13
#13112:16130000
#13118:0013160000001300
#13115:0000001300000013
#1311b:1300000000130000
#12813:13000000001a1300
#1281a:13000013
#12814:0018131813000000
#12819:00131300
#12812:000000000000001c
#12419:0014000000000000
#12417:0000001400000000
#12415:0000000000140000
#12413:0000000000000014
#1241a:14
#12418:00140024
#12414:00240014
#12412:24
#12416:0024
#1251a:24141400
#12512:14002414
#12518:0014000000000000
#12514:0000000000140000
#1261b:13
#12619:0013000000000013
#12612:001c131c
#12614:0000001300130000
#12616:1414
#1271b:13000013
#12713:000000000000001a
#12712:00000000001c1300
#1421a:0012000012000000
#14214:00120000000000001200000000001200
#14218:1200001200001200
#14216:0000120000120000
#1421c:00120000
#14212:00000012
#14318:00120000001200001200000000001200
#14316:1200001200120000
#1431a:0012120000001200
#14314:00000000000000120000000012000000
#13712:141c131c1c001c00
#13716:18
#13715:00190000
#13812:13000013
#13814:0016000000160000
#13819:00131300
#13818:0000001600000000
#13815:1300000000001316
#13816:00131300
#1391b:13000013
#13916:0016000000160000
#13914:00131300
#13912:0000001600000000
#13918:13000013
#13917:00131300
#13915:0000000000000016
#13512:181c191c1c001c00
#1351a:14
#1351b:00130000
#14814:0014000000000000
#1481b:00000000000000001300001300001300
#14812:28281300
#14815:00000000000000000013000013000000
#14818:0000000000130000
#1481a:24
#1491b:00000013
#14917:0000001313000000
#14919:0000000000130000
#14912:00000000000000000013000000000000
#15212:1918171c00000000
#15215:00000019
#15216:0000000000180000
#15217:0017
#15012:1716151c00000000
#15019:0015
#15018:0000000000160000
#15017:00000017
#15112:1817161c00000000
#15116:00000018
#15117:0000000000170000
#15118:0016
#15312:1a19171c00000000
#15314:0000001a
#15315:0000000000190000
#15317:0017
#12215:0000001600000016
#12217:0013000013000000
#12216:1300000000130000
#12212:0013000023002300
#1221b:2300230000130000
#1231a:1414
#12316:0014001400140014
#12312:00140014
#11718:00000000000000000000210000130013
#11715:0000000000001313
#1171d:21
#1171c:0021000000000000
#1171a:0000002100000000
#11719:0021
#1171b:00210000
#11712:26
#1361a:14
#13612:181c171c161c151c
#13618:0016
#13619:00150000
#13617:00000017
#15512:00000000000000001300000000131300
#15515:00000000000000000000131300000013
#15516:0014
#1551b:0000000000000013
#15612:00130000000000000000130000000000
#15616:00140000
#1561b:00000000130000000013130000130000
#15618:00000000000013130000001300000000
#15716:14000014
#1571b:0000001300001300
#15712:13000000001313000013000000000000
#15715:00001313000000130000000000000000
#15718:00000000000000000000000000001313
#15812:00001300000000000013132300001313
#1581b:00131300001300001300002300000000
#15818:00000013000000000000000000000000
#15817:00000000000000000013000000000013
#15819:0000000000130000
#15815:0000000000000013
#1601b:13
#1601a:0000140000000014
#16016:00000000000014000000001400180000
#16012:0000000014180000
#16014:00000000000000140000000000000000
#16017:1313000000000000
#16018:00000000001400000000000000000000
#16316:18001313000018000000000000000000
#16312:13130000000013002c001c00001c0000
#1631a:00000000131300000000000000000000
#16318:00000000000000000000001300000000
#16315:0000000000000013
#16516:00000013000000000000131300131800
#1651b:1313
#16512:00001313000000001400000000000000
#16517:13
#16618:0016
#16616:00001313000000000000160000000000
#16615:00000000000000000000001300000000
#16613:00000000000000000000000000130000
#16612:14000000001318000000000000001c00
#16617:00000000000000000013000000000000
#1661b:13
#16614:00000016
#15919:13
#15912:13230000130013002c001c00001c0000
#15918:0000000000000000001300000013000000000000000000000000000013000000
#15915:00000000001300130000001300000000
#1591b:0000230000000000000000130000001300000000000000000000000000000000
#16112:13000000000000000000131300000000
#1611b:00001313000000001300000000000000
#16117:00000013000000001300000000000000
#16116:13000000000000000000001300000000
#16218:00001300000000130000001300000000
#16215:00190000000013000000001300000000
#1621b:00000013000000001300000000000000
#16212:13000000131900001300000000000000
#16412:13000000140000000000000000181400
#16416:13001300000014000000181400000000
#1641a:0014
#16418:00000000000000140000000000000000
#16414:00000000001400000000000000000000
#17318:000000001300000000000000000000000000000013000000000000000000000000000000000000000000000000130000
#17315:000000001300000013000000000000000000000000130000
#17312:2c000000130000001400000000130000
#1731b:000000000000000000000013000000000000000000000000
#17316:00000000000000000000131300000000
#17415:00000000001313000000000000000000
#1741b:0013
#17412:00000000000000002300131300000000
#17416:00000000000000000000001300000014
#17418:00000000000000130000000000000000
#17417:00001313000000000000000000000000
#1741a:1400000000000014
#17912:2c12000000002c00000000002c00000000002c0000120000
#17914:000000000000120000000000000000001200000000000000000000000000000000000000000000000000000000120000
#17916:000012000012001200001200000000001200000000000000
#17918:000000001200000000120000000012000012000000000000
#1791a:000000000000000000000012000000120000000000000000
#1791c:000000000000000000000000001200000000000000000000
#18016:120000000000000000000000000000000000000000000012
#18018:000000120000000000000000000000000000000000000000000000000000000000001200000000000000000000000000
#1801a:000000120000000000000000000000001200000000000000
#1801c:000000000000000000120000000000000000000000000000000000000000000000000000000012000000000000000000
#18013:00120000
#18015:00000000001200000000120000000000
#18017:000000000000000000120000000012000000000012000000
#18019:00000000000000120000000000001200
#18012:0000000000000000000000002c12000000002c0000000000
#18014:000000000000000000000012
#16717:000000000000000000000000001300000000001300000000
#16714:000000000000001300001300
#16719:0000000000130013
#16716:000000000000000013000013
#1671b:000000000000000000000000000000000013000000000013
#16712:00001616161616162300000013000000
#16718:0000130000160016001600160016001600000000000000000000000000000000
#16715:13
#16817:001300000000000000000000000000000013000000000013
#16814:001300000000001300001300
#16819:0013000000130013
#16816:000013000000230000130000
#1681b:000000000013003333333333001300000000001300000000
#16812:2300001c0000000013000013
#16916:230000000000000000000000001300000000001300000000
#16919:000000130000000000000000000013000000000013000000
#16914:000013000000000000000000000000130000000000130000
#16917:000000000013000000000000000000001300000000001300
#16912:0000000013001c3333333333000000000013000000000013
#1691b:001300000000000000000000230000000000130000000000
#17115:000000130000000000000013000013000000000000001300
#17118:000000000013000000130000000000001300000013000000
#1711b:000000000000001300000000000000000000130000000000
#17112:1c131c001c001c001c001c002c0000000000000000000013
#18312:000014000000000000000000002c0000
#18316:00000014002414001400140014000000
#1831a:00140000
#18315:00000000000000260000000000000000
#18314:00000000000000000028000000000000
#18313:00000000000000000000002a00000000
#17012:0000000000131c3333333333001300000000001300000000
#17019:001300000000001300001300
#17014:0013000000130013
#1701b:230000000000000013000013
#17016:001300000000000000000000000000000013000000000013
#17017:000013000000230000130000
#17218:001300000013000013001300
#17215:000013001300001300000013
#17212:2c00000000001300000000002c0000000000000000000013
#1721b:000000000000000000000013000000000000130000000000
#17512:14
#17516:0014000000000000140000000000000000000000000000000000000000000000
#17513:00140000000000140000000000000000
#17517:0000001400000000000000000000001400000000000000000000000000000000
#17514:0014001400000000
#17518:0000000000140000000000000014000000000000000000000000000000000000
#17515:00000014001400000000000000000000
#17519:0000000000000014000000140000000000000000000000000000000000000000
#1751a:0000000000000000001400000000000000000000000000000000000000000000
#1761a:0014
#17612:0014
#17716:000000000000001200001200000000001200000000120000
#17714:000000000000000012000000000000000000000000000012
#17718:000000000000000000120000000012000012001200001200
#1771a:000000000000000000000012000000120000000012000000
#1771c:000000000000000000000000001200000000000000000000
#17712:002c2c2c
#17812:2c12000000002c00000000002c00000000002c0000000000
#17816:000012000012001200001200000000001200000000120000
#17814:000000120000000012000000000000000000000000000012
#17818:000000001200000000120000000012000012001200001200
#1781a:000000000000000000000012000000120000000012000000
#1781c:000000000000000000000000001200000000000000000000
#18112:2c12000000002c00000000002c12000000002c0000000000
#18117:001200001200001200001200
#18115:0012000000120000
#1811a:001200001200
#18118:000000000012000000000000000000000012000000000000
#1811c:000000000000001200000000000000000000001200000000
#18119:0000001200000012
#18114:000000000012000000000012
#18116:000000000000000000000012000000000000000000000012
#18215:00130000000000001300000000130000
#18218:00001300000000130000000000001300
#1821b:00000023000000000000000000000023
#18212:00000000000000000023000000000000
#18716:241400141400141400141400
#1871b:001300001300
#18712:000000000013000000000013
#18816:141400141400141400141400
#1881b:001300001300
#18812:000000000013000000000013
#19112:001300000000001300000000
#1911b:000013000013
#19115:260016160016160016160016
#19212:001300000000001300000000
#1921b:000013000013
#19215:160016160016160016160016
#18618:130000001300001300001300
#1861b:000000131300
#18612:001300130000000000000013
#18615:000013000013000000130000
#18518:000013000000130000130000
#18515:001300001300001300000013
#1851b:230000001313
#18512:000000130013000000000000
#1891b:231300131300
#18918:001300000000001300000000
#18912:000000130013000000130013
#18915:000013000013
#1901b:131300131300
#19018:001300000000001300000000
#19012:000000130013000000130013
#19015:000013000013
#1931b:000000001300000000000013
#19316:000000000013
#19314:000000130000000013000000
#19319:000013000000000000130000
#19317:000000000000001300000000
#19312:001300000000130000000000
#19315:260000000016000000000000
#1941b:000000001300000000000013
#19416:000000000013
#19414:000000130000000013000000
#19419:000013000000000000130000
#19417:000000000000001300000000
#19412:001300000000130000000000
#19415:160000000016000000000000
#19518:001300130000
#19515:001300130013001300161600
#19512:231313
#1951b:000000000000000000000013
#19618:131313131313
#19615:001300000013000000130000
#1961b:000000130000001300000013
#19712:000000001300000000000013
#19717:000000000013
#19719:000000130000000013000000
#19714:000013000000000000130000
#19716:240000000014001300000000
#1971b:001300000000130000000000
#19812:000000001300000000000013
#19817:000000000013
#19819:000000130000000013000000
#19814:000013000000000000130000
#19816:140000000014001300000000
#1981b:001300000000130000000000
#19912:000016000000160000000013
#19918:001300130013001300000000
#19915:000000000000000000161600
#1991b:231313
#20015:131313131313
#20018:001600000016000000160000
#20012:000000130000001300000013
#2011a:14000014
#20116:2400000000000014
#20112:00000014000013000000000000000000
#20218:1600161316000000
#20217:0000000000001313
#20212:16161613
#20215:0013000000000000
#20312:00131313
#20317:1313000000001300
#2031b:1300001300130000
#20316:0000001300000000
#20515:0000000016001316
#20513:00140000
#2051b:0013
#20512:0000000000000013
#2051a:14
#20519:00140000
#20518:0000000000130000
#20718:13131313
#2071b:0013000000000013
#20712:0000000013000013
#20715:0013001300001300
#20812:00000000240000000014000000000000
#2081a:00000000240000002424000000000000
#23315:2313131313000000
#23318:0000160013131313
#2331b:13
#23312:00000016
#23415:13001300130013000000000000130013
#23418:1300160013131313
#23412:0013
#23712:0013160013000000
#23715:2300001300001300
#2371b:1300000000130000
#23718:0000130013001613
#2391b:1300000000131313
#23915:2613130016000013
#23918:0000001300001300
#23912:0000131313000000
#20617:13
#2061b:0000131300001300
#20616:0000001300001300
#20612:1300000000130000
#25612:00001316
#25618:0000000000000016
#2561b:0013
#25617:12121212121212000000000000000000
#20414:0014000000140000
#2041a:1414
#20418:0000001400000014
#20412:14140014
#25312:2316161c1300001c
#25318:0000130000161600
#25315:00000013
#2531b:2313
#24918:0013000000001300
#24915:0000130000130000
#2491b:1300001300000013
#24912:1313
#2501b:1300000013000013
#25018:0013000000001300
#25015:0000130000130000
#25012:1300001313000000
#25115:0013000000001300
#25118:0000130000130000
#25112:1300001300000013
#2511b:1313
#25212:1300000013000013
#25215:0013000000001300
#25218:0000130000130000
#2521b:1300001313000000
#25412:2616161c1616161c
#25418:2616160016161600
#25512:2616161616161616
#25518:2616161616161616
#20912:14000014
#20916:2400000000000014
#2091a:00000014000000000000000000000000
#2091b:0000001300000000
#21012:16161600
#21016:0000000000001313
#21018:1613160016000000
#21015:0000001300000000
#2101b:00000013
#2111b:00131313
#21116:1313000000001300
#21112:1300001300130000
#21117:0000001300000000
#21315:0000000016130016
#21319:00140000
#21312:1413
#2131b:0000000000000013
#21313:00140000
#21318:00000013
#21515:13131313
#21512:0013000000000013
#2151b:0000000013000013
#21518:0013001300001300
#2161a:00000000240000000014000000000000
#21612:00000000240000002424000000000000
#21416:13
#21412:0000131300001300
#21417:0000001300001300
#2141b:1300000000130000
#21218:0014000000140000
#21212:1414
#21214:0000001400000014
#2121a:14140014
#23518:2313001313000000
#2351b:00130000
#23515:0000000013131913
#23512:13190013
#23618:13001300000013000000000000130013
#2361b:00131300
#23615:1300000013131313
#23612:00190000
#23812:00001300160000001300000000000013
#23815:13000000000013000000000000131300
#2381b:1300000000130000
#23818:00131313
#2401b:13000000000000000000130000000013
#24015:1613130016001300
#24018:00000000000013000000000000131300
#24012:0000131313000000
#2171b:231300000000
#21718:001300000000000013000000
#21712:0000001c1c1c0013001c1c1c
#21715:0013
#21710:41
#21818:001300000000
#21815:001300000000130013000000
#21812:0000001c1c1c0013001c1c1c
#2181b:13
#21912:230013130013
#21918:001300000013001300000013
#21915:001300001300
#2191b:00131313
#2201b:13131313
#22012:130013130013
#22018:001300000013001300000013
#22015:001300001300
#22112:2c001c1c001c1c001c1c131c
#22118:001300000000000000000000
#22115:001300
#2211b:000000000000001300000000
#22212:1c001c1c001c1c001c1c131c
#22218:001300000000000000000000
#22215:001300
#2221b:000000000000001300000000
#22512:2c13001c00131c00001c0000
#2251b:000000001313
#22515:000000001300000000000013
#22518:000013000000001300000000
#23012:1c00001c00001c00131c0000
#23015:000000000013001300001300
#23018:000013001300000000000013
#2301b:001300000000000000000000
#22912:2c13001c00001c00001c0000
#22918:000000000013001300001300
#22915:000013001300000000000013
#2291b:000013
#22612:1c13001c00131c00001c0000
#2261b:000000001313
#22615:000000001300000000000013
#22618:000013000000001300000000
#22812:13131313
#2281b:13131300
#22818:001300000013001300001300
#22815:000013001300000013000013
#22718:001300000013001300001300
#22715:000013001300000013000013
#22712:23131313
#2271b:23131300
#2231b:230013130013
#22315:001300000013001300000013
#22318:001300001300
#22312:00131313
#22412:13131313
#2241b:130013130013
#22415:001300000013001300000013
#22418:001300001300
#2321b:13131313
#23212:13131300
#23215:001300000013001300001300
#23218:000013001300000013000013
#23115:001300000013001300001300
#23118:000013001300000013000013
#2311b:23131313
#23112:23131300
#24115:001300000013001300000013
#2411b:000013000013
#24118:001300001300
#24112:2313
#24418:001300130013001300000013
#24415:131313001313
#24412:00131313
#2441b:23001313
#24312:00131313
#24318:001300130013001300000013
#24315:131313001313
#2431b:23001313
#24218:001300000013001300000013
#24212:000013000013
#24215:001300001300
#2421b:2313
#24518:001300000013001300000013
#24512:000013000013
#24515:001300001300
#2451b:2313
#24615:001300000013001300000013
#2461b:000013000013
#24618:001300001300
#24612:2313
#24815:001300130013001300000013
#24818:131313001313
#2481b:00131313
#24812:23001313
#2471b:00131313
#24715:001300130013001300000013
#24718:131313001313
#24712:23001313
#05417:00000012
#05415:0000000000000000000000000000000000000000000000000000000000000000000000000000000000000000000000000000000000000000001200000000000000000000000000000000000000000000000000000000000000000000000000000000000000000000000000000000000000000000000000000000000000000000
#0541a:00000000000000000012000000000000000000000000000000000000000000000000000000000000000000000000000000000000000000000000000000000000
#05412:00000012
#05318:0000000000000000000000000000000000000000000000000000000000000000000000000000000000000000000000000000000000000000000000000000000000000000000000000012000000000000000000000000000000000000000000000000000000000000000000000000000000000000000000000000000000000000
#0531a:00120000
#05312:0000000000000000000000000000000000000000000000000000000000000000000000000000000000000000000000000000000000000000000000000000000000000000000000000012000000000000000000000000000000000000000000000000000000000000000000000000000000000000000000000000000000000000
#05314:00120000
#05316:0000000000000012
#05216:000000000000000000000000000000000000000000000000000000000000000000000000000000000000000000000000000000000000000000000000000000000000000000000000000000000000000000000000000000000000000000000000000000000000000000000000000000000000000000000000000000000000000000000000000000000000000000000000000000000000000000000000000000000000000000000000000000000000000000000000000000000000000000000000000000000000000000000000000000000000000000000000000000000000000000000000000000000000000000000000000000000000000000000000000000000000000000000000000000000000000000000000000000000000000000000000000000000000000000000000000000000000000000000000000000000000000000000000000000000000000000000000000000000000000000000000000000000000000000000000001200000000000000000000000000000000000000000000
#0521c:000000000000000000000000000000000000000000000000000000000000000000000000000000000000000000000000000000000000000000000000000000000000000000000000000000000000000000000000000000000000000000000000000000000000000000000000000000000000000000000000000000000000000000000000000000000000000000000000000000000000000000000000000000000000000000000000000000000000000000000000000000000000000000000000000000000000000000000000000000000000000000000000000000000000000000000000000000000000000000000000000000000000000000000000000000000000000000000000000000000000000000000000000000000000000000000000000000000000000000000000000000000000000000000000000000000000000000000000000000000000000000000000000000000000000000000000000000000000000000000000001200000000000000000000000000000000000000000000
#05517:00000000000000000000000000000000000000000000000000000000000000000000000000000000000000000000000000120000000000000000000000000000
#00217:00000000000000000000000022220000
#04612:2c
#1011c:0000000000000021
#1011b:00000021
#1011a:0000000000210000
#10119:0021
#10118:0000002100000000
#10117:00210000
#1021d:21
#10219:0000000000210000
#1021b:00000000000000000000002100000000
#10217:00000021
#1031c:21000021
#10416:21
#1041a:0000002100000000
#10414:00000000000000210000000000000000
#10418:0021
#10512:21
#10514:0021000000000021
#10517:00210000000000000000000000000000
#10519:00000021000000000000000021000000
#10516:0000210000210000
#1051b:0000002100000000
#10617:21
#10615:0021000000000000
#1061a:0000002100000000
#10618:00000021
#1071a:21
#10716:0021000000000000
#10718:00210021
#10714:0000002100000000
#10818:00210000
#10815:0000002100000000
#1081a:0021
#10814:0000000000000021
#10819:00000000000000000000000000000021
#10816:21
#10812:00000021
#10817:00000000000000000000000000210000
#10916:2100002100000000
#10918:0021000000000000
#10917:0021
#1091b:0000000000210000
#10919:00000000000000210000000021000000
#1101b:21
#11017:0000000000210000
#11019:00000000000000000000002100000000
#11015:00000021
#1111b:21
#11117:00000021
#1121d:21
#11213:0021
#1121a:00000021
#11216:00000000000000000000000000210000
#11218:0000000000000021
#11214:00000000000000000000000000000021
#1131a:21
#11315:0021000000002100
#1131b:0000002100000000
#11317:0000000021000021
#11319:0000000000210000
#1151a:21
#11413:21
#11418:0000000000000021
#11415:00000000000000000000000000000021
#11618:21
#11616:00210000
#11614:0021
#11612:00000021
#15417:228200000000000000000000000000000000000000000000000000000000000000000000000000000000000000000000000000000000000000000000000000000000000000000000000000000000000000000000000000000000000000000000000000000000000000000000000000000000000000000000000000000000000000000000000000000000000000000000000000000000000000000000000000000000000000000000000000000000000000000000000000000000000000000000000000000000000000000000000000000000000000000000000000000000000000000000000000000000000000000000000000000000000000000000000000000000000000000000000000000000000000000000000000000000000000000000000000000000000000000000000000000000000000000000000000000000000000000000000000000000000000000000000000000000000000000000000000000000000000000000000000000000000000000000000000000000000000000000000000000000000000000000000000000000000000000000000000000000000000000000000000000000000000000000000000000000000000000000000000000000000000000000000000000000000000000000000000000000000000000000000000000000000000000000000000000000000000000000000000000000000000000000000000000000000000000000000000000000000000000000000000000000000000000000000000000000000000000000000000000000000000000000000000000000000000000000000000000000000000000000000000000000000000000000000000000000000000000000000000000000000000000000000000000000000000000000000000000000000000000000000000000000000000000000000000000000000000000000000000000000000000000000000000000000000000000000000000000000000000000000000000000000000000000000000000000000000000000000000000000000000000000000000000000000000000000000000000000000000000000000000000000000000000000000000000000000000000000000000000000000000000000000000000000000000000000000000000000000000000000000000000000000000000000000000000000000000000000000000000000000000000000000000000000000000000000000000000000000000000000000000000000000000000000000000000000000000000000000000000000000000000000000000000000000000000000000000000000000000000000000000000000000000000000000000000000000000000000000000000000000000000000000000000000000000000000000000000000000000000000000000000000000000000000000000000000000000000000000000000000000000000000000000000000000000000000000000000000000000000000000000000000000000000000000000000000000000000000000000000000000000000000000000000000000000000000000000000000000000000000000000000000000000000000000000000000000000000000000000000000000000000000000000000000000000000000000000000000000000000000000000000000000000000000000000000000000000000000000000000000000000000000000000000000000000000000000000000000000000000000000000000000000000000000000000000000000000000000000000000000000000000000000000000000000000000000000000000000000000000000000000000000000000000000000000000000000000000000000000000000000000000000000000000000000000000000000000000000000000000000000000000000000000000000000000000000000000000000000000000000000000000000000000000000000000000000000000000000000000000000000000000000000000000000000000000000000000000000000000000000000000000000000000000000000000000000000000000000000000000000000000000000000000000000000000000000000000000000000000000000000000000000000000000000000000000000000000000000000000000000000000000000000000000000000000000000000000000000000000000000000000000000000000000000000000000000000000000000000000000000000000000000000000000000000000000000000000000000000000000000000000000000000000000000000000000000000000000000000000000000000000000000000000000000000000000000000000000000000000000000000000000000000000000000000000000000000000000000000000000000000000000000000000000000000000000000000000000000000000000000000000000000000000000000000000000000000000000000000000000000000000000000000000000000000000000000000000000000000000000000000000000000000000000000000000000000000000000000000000000000000000000000000000000000000000000000000000000000000000000000000000000000000000000000000000000000000000000000000000000000000
#15410:41
#15416:007400000000000000000000000000000000000000000000000000000000000000000000000000000000000000000000000000000000000000000000000000000000000000000000000000000000000000000000000000000000000000000000000000000000000000000000000000000000000000000000000000000000000000000000000000000000000000000000000000000000000000000000000000000000000000000000000000000000000000000000000000000000000000000000000000000000000000000000000000000000000000000000000000000000000000000000000000000000000000000000000000000000000000000000000000000000000000000000000000000000000000000000000000000000000000000000000000000000000000000000000000000000000000000000000000000000000000000000000000000000000000000000000000000000000000000000000000000000000000000000000000000000000000000000000000000000000000000000000000000000000000000000000000000000000000000000000000000000000000000000000000000000000000000000000000000000000000000000000000000000000000000000000000000000000000000000000000000000000000000000000000000000000000000000000000000000000000000000000000000000000000000000000000000000000000000000000000000000000000000000000000000000000000000000000000000000000000000000000000000000000000000000000000000000000000000000000000000000000000000000000000000000000000000000000000000000000000000000000000000000000000000000000000000000000000000000000000000000000000000000000000000000000000000000000000000000000000000000000000000000000000000000000000000000000000000000000000000000000000000000000000000000000000000000000000000000000000000000000000000000000000000000000000000000000000000000000000000000000000000000000000000000000000000000000000000000000000000000000000000000000000000000000000000000000000000000000000000000000000000000000000000000000000000000000000000000000000000000000000000000000000000000000000000000000000000000000000000000000000000000000000000000000000000000000000000000000000000000000000000000000000000000000000000000000000000000000000000000000000000000
#05010:41
#10010:41
#18410:41
#01158:00460000
#01156:0046
#01154:00000046
#00456:53
#0045b:0053
#00556:53
#0055b:0000005300000000
#00657:53000053
#00652:0053
#00752:53
#00757:0000005300000000
#00856:53
#0085b:0053
#00956:53
#0095b:0053
#01057:00530000
#01052:5353
#02956:6434
#0295a:4424
#03458:5656
#03452:00250025
#03658:00160000
#03652:00000016
#03758:00160000
#03752:00000016
#03852:00160016
#03958:00160016
#0425b:13131313
#0305b:63
#03057:00230000
#03052:00240000
#02858:66264600
#02852:56263600
#03558:46260000
#03552:6636
#03252:53
#03156:5444
#03152:3424
#04452:00001313
#0445b:13130000
#04352:13131313
#04652:1c
#01555:16000016
#01552:00160000
#01558:0016
#02352:1c1c1c1c
#02452:1c
#01652:16
#04052:16160000
#04058:00001616
#04152:16160000
#04158:00001616
#01458:00000016
#02252:0000001c
#05952:2333
#0595b:0043
#05856:00344400
#05852:4c
#06657:0023000043000000
#0665b:0023000043000000
#06656:63330000
#06652:63330000
#06156:4848
#06152:00380000
#08052:3333
#0805b:00430043
#06356:33333300
#06352:0043004300000000
#0635b:0033
#0605b:63
#06056:0023000000000000
#06852:53
#06857:0023000000000000
#07052:4c005333
#07057:0000000000230000
#07058:0043
#0765a:64
#07157:3333
#07152:00330000
#06456:34444434
#08757:43434300
#0875b:0033003300000000
#08752:0043
#09056:0023000033000000
#09052:0023000033000000
#09057:53430000
#0905b:53430000
#09158:0043
#09155:0033
#0915b:23
#0925b:63
#09256:0023000000000000
#0945b:00006343
#09456:0000000000230000
#09455:0033
#09452:3c
#0675b:2343
#06752:0033
#06256:00443400
#06252:3c
#09556:4343
#0955b:00430000
#08656:00443400
#08652:4c
#08852:3434
#0885a:00440044
#09656:44344434
#07256:44343444
#0985c:42
#09852:3832
#09856:0048
#08558:0046
#08552:0036
#07852:3c
#08252:43
#06958:36463600
#06952:36463600
#09352:46364600
#09358:46364600
#08952:0036
#08958:0046
#09758:0046
#09752:0036
#07352:0036
#07358:0046
#06558:0046
#06552:0036
#13452:14151617
#14552:00000033
#14556:0000005300000000
#1455b:00000000000000000023000000000000
#1475b:00430000
#14755:53
#14752:00000033
#14758:0063
#1405c:6200002200000000
#1405a:0022000062000022
#1405b:00620000
#14058:0000000000220000
#14059:00000062
#14052:13
#14158:6200002200000000
#14156:00002200000000620000220000000000
#14157:00620000
#14154:00000000000000002200006200002200
#14155:00000000000000000062000000000000
#14152:00000022
#14153:00000000000000000000000000620062
#11952:3400003800000000
#1195a:64440000
#11954:0024000000000000
#11852:00343400
#1185a:44000044
#1215a:64
#12154:00000024000000000000000000000000
#1255a:00346400
#12552:54380044
#12558:0024000000000000
#12554:0000000000240000
#12556:00000048
#13852:13000013
#13856:00131300
#1395b:13000013
#13957:00131300
#13552:18191c00
#14458:0024000000000000
#14456:48480000
#14452:54340000
#14854:0024000000000000
#14852:38380000
#1485a:64440000
#1495b:00000043
#14957:0000006300000000
#14952:00000000000000000023000000000000
#12256:63
#12252:0023000000000000
#12257:0053
#1225b:0000000000230000
#1235a:1414
#12356:0014001400140014
#12352:00140014
#1365a:14
#13658:0016
#13659:00150000
#13657:00000017
#13756:18
#13752:001c
#13755:00190000
#14655:49
#14652:00390000
#1295b:00000043
#12952:00000033
#12755:0000001300000000
#12758:0000001300000000
#15556:0054
#1555b:0000000000000023
#15656:00540000
#15652:0000000000230000
#15756:54000054
#1575b:0000002300000000
#15852:0023000000000000
#16052:0034
#16056:00000000000000000000003400000000
#1605a:0000000000000034
#16556:00000063000000000000003300004800
#1655b:6300003300000000
#16552:00000063000000005400000000000000
#16557:0000003300000000
#1655a:00000000000000000000003400000000
#16652:5400004800000000
#16656:00000033000000000000000000000000
#1665a:00000034000000000000000000000000
#16152:53000000000043000000006300000000
#1615b:00000053000000006300000000003300
#16157:00000053000000000000000000003300
#16156:00000000000043000000006300000000
#16258:00001300000000000000006300000000
#16252:13136300
#16255:00000000000013000000005300000000
#1625b:0053
#1645a:0044
#16456:00000000000000000000004400000000
#16452:0000000000000044
#15952:001c
#16352:001c
#1745b:0053
#17452:00000044000000000000005300000000
#17456:00000000000000000000005300000000
#1745a:64
#16852:005c0000
#16952:006c0000
#17052:006c0000
#17352:0054
#1735a:00000000000000000000003400000000
#1765a:0054
#17652:0054
#18356:00000000003400000000000000000000
#18355:00000000000000360000000000000000
#18354:00000000000000000038000000000000
#18353:00000000000000000000003a00000000
#18352:000000000000000000000000003c0000
#1775a:44
#17752:34
#20852:00000000440000000024000034000000
#2085a:00000000640000000024000044000000
#20252:3636
#20258:00460000
#23355:0013
#2335b:13
#23458:13
#23452:0013
#23752:0033
#23758:00430000
#23755:00000033
#2375b:43
#2395b:43
#23958:00000033
#23955:00430000
#23952:0033
#2035b:53
#20357:0023000000000000
#20356:0000005300000000
#20352:0023
#20657:43
#2065b:0000002300004300
#20656:0000003300000000
#20652:23
#20152:00000024000053000000000000000000
#2015a:64
#20454:0024000000240000
#2045a:54445444
#20458:0000002400000024
#20452:34643464
#2055a:44
#20552:34
#25358:00430000
#25355:00000033
#25458:00460000
#25452:00000036
#25558:00460000
#25552:00000036
#2165a:00000000340000000024000044000000
#21652:00000000540000000024000034000000
#21058:4646
#21052:00360000
#21152:63
#21156:0023000000000000
#21157:0000006300000000
#2115b:0023
#21456:33
#21452:0000002300003300
#21457:0000004300000000
#2145b:23
#2095a:00000024000000000000000000000000
#20952:54
#2095b:0000006300000000
#21258:0024000000240000
#21252:64346434
#21254:0000002400000024
#2125a:44544454
#21352:34
#2135a:44
#23558:0013
#23552:13
#23655:13
#2365b:0013
#23852:0033
#23858:00430000
#2385b:43
#2405b:43
#24055:00430000
#24052:0033
#24452:0033
#24455:33
#24352:0033
#24355:33
#2485b:0043
#24858:43
#2475b:0043
#24758:43
#26157:0012
#05557:00000000000000000000000000000000000000000000000000000000000000000000000000000000000000000000000000220000000000000000000000000000
#004360:13
#0043b0:0033
#005360:33000023
#0053b0:0000003300000000
#006370:13000033
#006320:0033
#007320:33000023
#007370:0000003300000000
#008360:13
#0083b0:0033
#009360:33000023
#0093b0:0033
#010320:1333
#010370:00530023
#028320:1626
#028380:00560000
#028381:1626
#028321:00560000
#029361:14
#029321:00240000
#0293a1:0014
#029361:00000024
#0303b1:1323
#030371:00530000
#030320:14540000
#030360:0024
#031360:14
#0313a0:00240000
#031320:0014
#031360:00000024
#032320:13
#032360:00230000
#0323a1:14240000
#034381:1636
#034351:0035003500350035
#034321:00350035
#035381:26
#035320:1626
#035340:00360000000036000000000000000000
#035360:00003600003600000000000000000000
#035370:00000036000000000000000000000000
#035380:00360000
#035330:00000000000000360000000000000000
#0383b0:00130000
#038380:0023
#038380:00000013
#039350:23
#039350:00130000
#039320:0023
#047380:135353535353535353535353
#047370:005300530053005300530053005300530053005300530053
#0483a0:335353535353535353535353
#048390:005300530053005300530053005300530053005300530000
#048380:000000000000000000000000000000000000000000000053
#049360:335353535353535353535353
#049370:005300530053005300530053005300530053005300530000
#050390:35
#0523d0:000000000000002100000000000000000000000000000000
#050321:15
#052321:000000000000002100000000000000000000000000000000
#055361:000000000000000000000000000000000000000000000000000000000000000000000000000000000000000000000000000000000000000000000000000000000000000000000000000000000000000000000000000000000000000000000000000000000012000000000000000000000000000000000000000000000000000000000000000000000000000000000000000000000000000000000000000000000000000000000000000000000000000000000000000000000000000000000000000000000000000000000000000000000000000000000000000000000000000000000000000000000000000000000000000000000000000000000000000000000000000000000000000000000000000000000000000000000000000000000000000000000000000000000000000000000000000000000000000000000000000000000000000000000000000000000000000000000000000000000000000000000000000000000000000000000000000000000000000000000000000000000000
#055341:0000000000000000000000000000000000000000000000000000000000000000000000000000000000000032000000000000000000000000000000000000000000000000000000000000000000000000000000000000000000000000000000000000000000000000000000000000000000000000000000000000000000000000
#055321:00000000000000000000000000000000000000000000000000000022000000000000000000000000000000000000000000000000000000000000000000000000
#0553c0:000000000000000000000000000000000000000000000000000000000000000000000000000000000000000000000000000000000000000000000000000000000000000000000000000000000000000000000000000000000000000000000000000000000012000000000000000000000000000000000000000000000000000000000000000000000000000000000000000000000000000000000000000000000000000000000000000000000000000000000000000000000000000000000000000000000000000000000000000000000000000000000000000000000000000000000000000000000000000000000000000000000000000000000000000000000000000000000000000000000000000000000000000000000000000000000000000000000000000000000000000000000000000000000000000000000000000000000000000000000000000000000000000000000000000000000000000000000000000000000000000000000000000000000000000000000000000000000000
#0553a0:0000000000000000000000000000000000000000000000000000000000000000000000000000000000000032000000000000000000000000000000000000000000000000000000000000000000000000000000000000000000000000000000000000000000000000000000000000000000000000000000000000000000000000
#055380:00000000000000000000000000000000000000000000000000000022000000000000000000000000000000000000000000000000000000000000000000000000
#055370:00000000000000000000000000000000000000000000000000000000000000000000000000000000000000000000000000120000000000000000000000000000
#057330:000000000000002a0000000000000000
#058370:00000000000000000000001323000000
#059320:13
#059360:00000023000000000000000000000000
#0603b0:13230000
#060360:0053000000000000
#0613a0:00000014240000000000000000000000
#061320:00000000000000142400000000000000
#062360:00000000000000000000001323000000
#0633b0:13000053330000532300000000000000
#063360:00533300005333000000000000000000
#0643a0:14
#064360:0024000000000000
#064320:00140000
#064360:0000002400000000
#064320:0014
#064360:0000000000240000
#0643a0:00000014
#064360:0000000000000024
#065360:180000000000000000000000000000000000000000000000000000000000000000000000000000000000000000000000000000000000000000000000000000000000000000000000000000000000000000000000000000000000000000000000000000000000000000000000000000000000000000000000000000000000000000000000000000000000000000000000000000000000000000000000000000000000000000000000000000000000000000000000000000000000000000000000000000000000000000000000000000000000000000000000000000000000000000000000000000000000000000000058000000000000000000000000000000000000000000000000000000000000000000000000000000000000000000000000000000000000000000000000000000000000000000000000000000000000000000000000000000000000000000000000000000000000000000000000000000000000000000000000000000000000000000000000000000000000000000000000000000000000000000000000000000000000000000000000000000000000000000000000000000000000000000000000000000000000000000000000000000000000000000000000000000000000000000000000000000000000000000000000000000000000000000000000000000000000000000000000000000000000000000000000000000000000000000000000000000000000000000000000000000000000000000000000000000000000000000000000000000000000000000000000000000000000000000000000000000000000000000000000000000000000000000000000000000000000000000000000000000000000000000000000000000000000000000000000000000000000000000000000000000000000000000000000000000000000000000000000000000000000000000000000000000000000000000000000000000000000000000000000000000000000000000000000000000000000000000000000000000000000000000000000000000000000000000000000000000000000000000000000000000000000000000000000000000000000000000000000000000000000000000000000000000000000000000000000000000000000000000000000000000000000000000000000000000000000000000000000000000000000000000000000000000000000000000000000000000000000000000000000000000000000000000000000000000000000000000000000000000000000000000000000000000000000000000000000000000000000000000000000000000000000000000000000000000000000000000000000000000000000000000000000000000000000000000000000000000000000000000000000000000000000000000000000000000000000000000000000000000000000000000000000000000000000000000000000000000000000000000000000000000000000000000000000000000000000000000000000000000000000000000000000000000000000000000000000000000000000000000000000000000000000000000000000000000000000000000000000000000000000000000000000000000000000000000000000000000000000000000000000000000000000000000000000000000000000000000000000000000000000000000000000000000000000000000000000000000000000000000000000000000000000000000000000000000000000000000000000000000000000000000000000000000000000000000000000000000000000000000000000000000000000000000000000000000000000000000000000000000000000000000000000000000000000000000000000000000000000000000000000000000000000000000000000000000000000000000000000000000000000000000000000000000000000000000000000000000000000000000000000000000000000000000000000000000000000000000000000000000000000000000000000000000000000000000000000000000000000000000000000000000000000000000000000000000000000000000000000000000000000000000000000000000000000000000000000000000000000000000000000000000000000000000000000000000000000000000000000000000000000000000000000000000000000000000000000000000000000000000000000000000000000000000000000000000000000000000000000000000000000000000000000000000000000000000000000000000000000000000000000000000000000000000000000000000000000000000000000000000000000000000000000000000000000000000000000000000000000000000000000000000000000000000000000000000000000000000000000000000000000000000000000000000000000000000000000000000000000000000000000000000000000000000000000000000000000000000000000000000000000000000000000000000000000000000000000000000000000000000000000000000000000000000000000000000000000000000000000000000000000000000000000000000000000000000000000000000000000000000000000
#0653a0:0024000000000000
#065321:000000000000000000000000000000000000000000000000000000000000000000000000000000000000000000000000000000000000000000000000000000000000000000000000000000000000000000000000000000000000000000000000000000000000000000000000000000000000000000000000000000000000000000000000000000000000000000000000000000000000000000000000000000000000000000000000000000000000000000000000000000000000000000000000000000000000000000000000000000000000000000000000000000000000000000000000000000000000000000000000145800000000000000000000000000000000000000000000000000000000000000000000000000000000000000000000000000000000000000000000000000000000000000000000000000000000000000000000000000000000000000000000000000000000000000000000000000000000000000000000000000000000000000000000000000000000000000000000000000000000000000000000000000000000000000000000000000000000000000000000000000000000000000000000000000000000000000000000000000000000000000000000000000000000000000000000000000000000000000000058240000000000000000000000000000000000000000000000000000000000000000000000000000000000000000000000000000000000000000000000000000000000000000000000000000000000000000000000000000000000000000000000000000000000000000000000000000000000000000000000000000000000000000000000000000000000000000000000000000000000000000000000000000000000000000000000000000000000000000000000000000000000000000000000000000000000000000000000000000000000000000000000000000000000000000000000000000000000000000000000000000000000000000000000000000000000000000000000000000000000000000000000000000000000000000000000000000000000000000000000000000000000000000000000000000000000000000000000000000000000000000000000000000000000000000000000000000000000000000000000000000000000000000000000000000000000000000000000000000000000000000000000000000000000000000000000000000000000000000000000000000000000000000000000000000000000000000000000000000000000000000000000000000000000000000000000000000000000000000000000000000000000000000000000000000000000000000000000000000000000000000000000000000000000000000000000000000000000000000000000000000000000000000000000000000000000000000000000000000000000000000000000000000000000000000000000000000000000000000000000000000000000000000000000000000000000000000000000000000000000000000000000000000000000000000000000000000000000000000000000000000000000000000000000000000000000000000000000000000000000000000000000000000000000000000000000000000000000000000000000000000000000000000000000000000000000000000000000000000000000000000000000000000000000000000000000000000000000000000000000000000000000000000000000000000000000000000000000000000000000000000000000000000000000000000000000000000000000000000000000000000000000000000000000000000000000000000000000000000000000000000000000000000000000000000000000000000000000000000000000000000000000000000000000000000000000000000000000000000000000000000000000000000000000000000000000000000000000000000000000000000000000000000000000000000000000000000000000000000000000000000000000000000000000000000000000000000000000000000000000000000000000000000000000000000000000000000000000000000000000000000000000000000000000000000000000000000000000000000000000000000000000000000000000000000000000000000000000000000000000000000000000000000000000000000000000000000000000000000000000000000000000000000000000000000000000000000000000000000000000000000000000000000000000000000000000000000000000000000000000000000000000000000000000000000000000000000000000000000000000000000000000000000000000000000000000000000000000000000000000000000000000000000000000000000000000000000000000000000000000000000000000000000000000000000000000000000000000000000000000000000000000000000000000000000000000000000000000000000000000000000000000000000000000000000000000000000000000000000000000000000000000000000000000000000000000000000000000000000000000000000000000000000000000000000000000000000000000000000000000
#0653a0:00140000
#065360:000000000000000000000000000000000000000000000000000000000000000000000000000000000000000000000000000000000000000000000000000000000000000000000000000000000000000000000000000000000000000000000000000000000000000000000000000000000000000000000000000000000000000000000000000000000000000000000000000000000000000000000000000000000000000000000000000000000000000000000000000000000000000000000000000000000000000000000000000000000000000000000000000000000000000000000000000000000000000000000000000000000000000000000000000000000000000000000000000000000000000000000000000000000000000000000000000000000000000000000000000000000000000000000000000000000000000000000000000000000000000000000000000000000000000000000000000000000000000000000000000000000000000000000000000000000000000000000000000000000000000000000000000000000000000000000000000000000000000000000000000000000000000000000000000000000000000000000000000000000000000000000000000000000000000000000000000000000000000000000000005800000000000000000000000000000000000000000000000000000000000000000000000000000000000000000000000000000000000000000000000000000000000000000000000000000000000000000000000000000000000000000000000000000000000000000000000000000000000000000000000000000000000000000000000000000000000000000000000000000000000000000000000000000000000000000000000000000000000000000000000000000000000000000000000000000000000000000000000000000000000000000000000000000000000000000000000000000000000000000058000000000000000000000000000000000000000000000000000000000000000000000000000000000000000000000000000000000000000000000000000000000000000000000000000000000000000000000000000000000000000000000000000000000000000000000000000000000000000000000000000000000000000000000000000000000000000000000000000000000000000000000000000000000000000000000000000000000000000000000000000000000000000000000000000000000000000000000000000000000000000000000000000000000000000000000000000000000000000000000000000000000000000000000000000000000000000000000000000000000000000000000000000000000000000000000000000000000000000000000000000000000000000000000000000000000000000000000000000000000000000000000000000000000000000000000000000000000000000000000000000000000000000000000000000000000000000000000000000000000000000000000000000000000000000000000000000000000000000000000000000000000000000000000000000000000000000000000000000000000000000000000000000000000000000000000000000000000000000000000000000000000000000000000000000000000000000000000000000000000000000000000000000000000000000000000000000000000000000000000000000000000000000000000000000000000000000000000000000000000000000000000000000000000000000000000000000000000000000000000000000000000000000000000000000000000000000000000000000000000000000000000000000000000000000000000000000000000000000000000000000000000000000000000000000000000000000000000000000000000000000000000000000000000000000000000000000000000000000000000000000000000000000000000000000000000000000000000000000000000000000000000000000000000000000000000000000000000000000000000000000000000000000000000000000000000000000000000000000000000000000000000000000000000000000000000000000000000000000000000000000000000000000000000000000000000000000000000000000000000000000000000000000000000000000000000000000000000000000000000000000000000000000000000000000000000000000000000000000000000000000000000000000000000000000000000000000000000000000000000000000000000000000000000000000000000000000000000000000000000000000000000000000000000000000000000000000000000000000000000000000000000000000000000000000000000000000000000000000000000000000000000000000000000000000000000000000000000000000000000000000000000000000000000000000000000000000000000000000000000000000000000000000000000000000000000000000000000000000000000000000000000000000000000000000000000000000000000000000000000000000000000000000000000000000000000000000000000000000000000000
#065380:0000005626000000
#065321:000000000000000000000000000000000000000000000000000000000000000000000000000000000000000000000000000000000000000000000000000000000000000000000000000000000000000000000000000000000000000000000000000000000000000000000000000000000000000000000000000000000000000000000000000000000000000000000000000000000000000000000000000000000000000000000000000000000000000000000000000000000000000000000000000000000000000000000000000000000000000000000000000000000000000000000000000000000000000000000000000000000000000000000000000000000000000000000000000000000000000000000000000000000000000000000000000000000000000000000000000000000000000000000000000000000000000000000000000000000000000000000000000000000000000000000000000000000000000000000000000000000000000000000000000000000000000000000000000000000000000000000000000000000000000000000000000000000000000000000000000000000000000000000000000000000000000000000000000000000000000000000000000000000000000000000000000000000000000000000000000000000000000000000000000000000000000000000000000000000000000000000000000000000000000000000000000000000000000000000000000000000000000000000000000000000000000000000000000000000000000000000000000000000000000000000000000000000000000000000000000000000000000000000000000000000000000000000000000000000000000000000000000000000000000000000000000000000000000000000000000000000000000000000000000000000000000000000000000000000000000000000000000000000000000000000000000000000000000000000000145600000000000000000000000000000000000000000000000000000000000000000000000000000000000000000000000000000000000000000000000000000000000000000000000000000000000000000000000000000000000000000000000000000000000000000000000000000000000000000000000000000000000000000000000000000000000000000000000000000000000000000000000000000000000000000000000000000000000000000000000000000000000000000000000000000000000000000000000000000000000000000000000000000000000000000000000000000000000000000000260000000000000000000000000000000000000000000000000000000000000000000000000000000000000000000000000000000000000000000000000000000000000000000000000000000000000000000000000000000000000000000000000000000000000000000000000000000000000000000000000000000000000000000000000000000000000000000000000000000000000000000000000000000000000000000000000000000000000000000000000000000000000000000000000000000000000000000000000000000000000000000000000000000000000000000000000000000000000000000000000000000000000000000000000000000000000000000000000000000000000000000000000000000000000000000000000000000000000000000000000000000000000000000000000000000000000000000000000000000000000000000000000000000000000000000000000000000000000000000000000000000000000000000000000000000000000000000000000000000000000000000000000000000000000000000000000000000000000000000000000000000000000000000000000000000000000000000000000000000000000000000000000000000000000000000000000000000000000000000000000000000000000000000000000000000000000000000000000000000000000000000000000000000000000000000000000000000000000000000000000000000000000000000000000000000000000000000000000000000000000000000000000000000000000000000000000000000000000000000000000000000000000000000000000000000000000000000000000000000000000000000000000000000000000000000000000000000000000000000000000000000000000000000000000000000000000000000000000000000000000000000000000000000000000000000000000000000000000000000000000000000000000000000000000000000000000000000000000000000000000000000000000000000000000000000000000000000000000000000000000000000000000000000000000000000000000000000000000000000000000000000000000000000000000000000000000000000000000000000000000000000000000000000000000000000000000000000000000000000000000000000000000000000000000000000000000000000000000000000000000000000000000000000000000000000000000000000000000000000000000000000000000000000000000000000000000000000000000000000000
#066361:13230000
#0663b1:0053000000000000
#066320:13230000
#066370:0053000000000000
#066370:00000000000000000000001323000000
#0673b0:13
#067370:00000023000000000000000000000000
#068320:13230000
#068370:0053000000000000
#070320:00001323
#070370:0000000000530000
#0703b1:00000013
#070371:0000000000000023
#0713b1:13
#071371:0023000000000000
#0713b1:00130000
#071371:0000002300000000
#071371:00000013
#0713b1:0000000000000023
#072321:14
#072361:0024000000000000
#0723a1:00140000
#072361:0000002400000000
#0723a1:0014
#072361:0000000000240000
#072321:00000014
#072361:0000000000000024
#073321:180000000000000000000000000000000000000000000000000000000000000000000000000000000000000000000000000000000000000000000000000000000000000000000000000000000000000000000000000000000000000000000000000000000000000000000000000000000000000000000000000000000000000000000000000000000000000000000000000000000000000000000000000000000000000000000000000000000000000000000000000000000000000000000000000000000000000000000000000000000000000000000000000000000000000000000000000000000000000000000058240000000000000000000000000000000000000000000000000000000000000000000000000000000000000000000000000000000000000000000000000000000000000000000000000000000000000000000000000000000000000000000000000000000000000000000000000000000000000000000000000000000000000000000000000000000000000000000000000000000000000000000000000000000000000000000000000000000000000000000000000000000000000000000000000000000000000000000000000000000000000000000000000000000000000000000000000000000000000000000000000000000000000000000000000000000000000000000000000000000000000000000000000000000000000000000000000000000000000000000000000000000000000000000000000000000000000000000000000000000000000000000000000000000000000000000000000000000000000000000000000000000000000000000000000000000000000000000000000000000000000000000000000000000000000000000000000000000000000000000000000000000000000000000000000000000000000000000000000000000000000000000000000000000000000000000000000000000000000000000000000000000000000000000000000000000000000000000000000000000000000000000000000000000000000000000000000000000000000000000000000000000000000000000000000000000000000000000000000000000000000000000000000000000000000000000000000000000000000000000000000000000000000000000000000000000000000000000000000000000000000000000000000000000000000000000000000000000000000000000000000000000000000000000000000000000000000000000000000000000000000000000000000000000000000000000000000000000000000000000000000000000000000000000000000000000000000000000000000000000000000000000000000000000000000000000000000000000000000000000000000000000000000000000000000000000000000000000000000000000000000000000000000000000000000000000000000000000000000000000000000000000000000000000000000000000000000000000000000000000000000000000000000000000000000000000000000000000000000000000000000000000000000000000000000000000000000000000000000000000000000000000000000000000000000000000000000000000000000000000000000000000000000000000000000000000000000000000000000000000000000000000000000000000000000000000000000000000000000000000000000000000000000000000000000000000000000000000000000000000000000000000000000000000000000000000000000000000000000000000000000000000000000000000000000000000000000000000000000000000000000000000000000000000000000000000000000000000000000000000000000000000000000000000000000000000000000000000000000000000000000000000000000000000000000000000000000000000000000000000000000000000000000000000000000000000000000000000000000000000000000000000000000000000000000000000000000000000000000000000000000000000000000000000000000000000000000000000000000000000000000000000000000000000000000000000000000000000000000000000000000000000000000000000000000000000000000000000000000000000000000000000000000000000000000000000000000000000000000000000000000000000000000000000000000000000000000000000000000000000000000000000000000000000000000000000000000000000000000000000000000000000000000000000000000000000000000000000000000000000000000000000000000000000000000000000000000000000000000000000000000000000000000000000000000000000000000000000000000000000000000000000000000000000000000000000000000000000000000000000000000000000000000000000000000000000000000000000000000000000000000000000000000000000000000000000000000000000000000000000000000000000000000000000000000000000000000000000000000000000000000000000000000000000000000000000000000000000000000000000000
#0733a0:0014240000000000
#073360:000000000000000000000000000000000000000000000000000000000000000000000000000000000000000000000000000000000000000000000000000000000000000000000000000000000000000000000000000000000000000000000000000000000000000000000000000000000000000000000000000000000000000000000000000000000000000000000000000000000000000000000000000000000000000000000000000000000000000000000000000000000000000000000000000000000000000000000000000000000000000000000000000000000000000000000000000000000000000000000000005800000000000000000000000000000000000000000000000000000000000000000000000000000000000000000000000000000000000000000000000000000000000000000000000000000000000000000000000000000000000000000000000000000000000000000000000000000000000000000000000000000000000000000000000000000000000000000000000000000000000000000000000000000000000000000000000000000000000000000000000000000000000000000000000000000000000000000000000000000000000000000000000000000000000000000000000000000000000000000058000000000000000000000000000000000000000000000000000000000000000000000000000000000000000000000000000000000000000000000000000000000000000000000000000000000000000000000000000000000000000000000000000000000000000000000000000000000000000000000000000000000000000000000000000000000000000000000000000000000000000000000000000000000000000000000000000000000000000000000000000000000000000000000000000000000000000000000000000000000000000000000000000000000000000000000000000000000000000000000000000000000000000000000000000000000000000000000000000000000000000000000000000000000000000000000000000000000000000000000000000000000000000000000000000000000000000000000000000000000000000000000000000000000000000000000000000000000000000000000000000000000000000000000000000000000000000000000000000000000000000000000000000000000000000000000000000000000000000000000000000000000000000000000000000000000000000000000000000000000000000000000000000000000000000000000000000000000000000000000000000000000000000000000000000000000000000000000000000000000000000000000000000000000000000000000000000000000000000000000000000000000000000000000000000000000000000000000000000000000000000000000000000000000000000000000000000000000000000000000000000000000000000000000000000000000000000000000000000000000000000000000000000000000000000000000000000000000000000000000000000000000000000000000000000000000000000000000000000000000000000000000000000000000000000000000000000000000000000000000000000000000000000000000000000000000000000000000000000000000000000000000000000000000000000000000000000000000000000000000000000000000000000000000000000000000000000000000000000000000000000000000000000000000000000000000000000000000000000000000000000000000000000000000000000000000000000000000000000000000000000000000000000000000000000000000000000000000000000000000000000000000000000000000000000000000000000000000000000000000000000000000000000000000000000000000000000000000000000000000000000000000000000000000000000000000000000000000000000000000000000000000000000000000000000000000000000000000000000000000000000000000000000000000000000000000000000000000000000000000000000000000000000000000000000000000000000000000000000000000000000000000000000000000000000000000000000000000000000000000000000000000000000000000000000000000000000000000000000000000000000000000000000000000000000000000000000000000000000000000000000000000000000000000000000000000000000000000000000000000000000000000000000000000000000000000000000000000000000000000000000000000000000000000000000000000000000000000000000000000000000000000000000000000000000000000000000000000000000000000000000000000000000000000000000000000000000000000000000000000000000000000000000000000000000000000000000000000000000000000000000000000000000000000000000000000000000000000000000000000000000000000000000000000000000000000000000000000000000000000000000000000000000000000000000000000000000000000000000000000000
#073321:000000000000000000000000000000000000000000000000000000000000000000000000000000000000000000000000000000000000000000000000000000000000000000000000000000000000000000000000000000000000000000000000000000000000000000000000000000000000000000000000000000000000000000000000000000000000000000000000000000000000000000000000000000000000000000000000000000000000000000000000000000000000000000000000000000000000000000000000000000000000000000000000000000000000000000000000000000000000000000000000000000000000000000000000000000000000000000000000000000000000000000000000000000000000000000000000000000000000000000000000000000000000000000000000000000000000000000000000000000000000000000000000000000000000000000000000000000000000000000000000000000000000000000000000000000000000000000000000000000000000000000000000000000000000000000000000000000000000000000000000000000000000000000000000000000000000000000000000000000000000000000000000000000000000000000000000000000000000000000000000145800000000000000000000000000000000000000000000000000000000000000000000000000000000000000000000000000000000000000000000000000000000000000000000000000000000000000000000000000000000000000000000000000000000000000000000000000000000000000000000000000000000000000000000000000000000000000000000000000000000000000000000000000000000000000000000000000000000000000000000000000000000000000000000000000000000000000000000000000000000000000000000000000000000000000000000000000000000000000000058560000000000000000000000000000000000000000000000000000000000000000000000000000000000000000000000000000000000000000000000000000000000000000000000000000000000000000000000000000000000000000000000000000000000000000000000000000000000000000000000000000000000000000000000000000000000000000000000000000000000000000000000000000000000000000000000000000000000000000000000000000000000000000000000000000000000000000000000000000000000000000000000000000000000000000000000000000000000000000000000260000000000000000000000000000000000000000000000000000000000000000000000000000000000000000000000000000000000000000000000000000000000000000000000000000000000000000000000000000000000000000000000000000000000000000000000000000000000000000000000000000000000000000000000000000000000000000000000000000000000000000000000000000000000000000000000000000000000000000000000000000000000000000000000000000000000000000000000000000000000000000000000000000000000000000000000000000000000000000000000000000000000000000000000000000000000000000000000000000000000000000000000000000000000000000000000000000000000000000000000000000000000000000000000000000000000000000000000000000000000000000000000000000000000000000000000000000000000000000000000000000000000000000000000000000000000000000000000000000000000000000000000000000000000000000000000000000000000000000000000000000000000000000000000000000000000000000000000000000000000000000000000000000000000000000000000000000000000000000000000000000000000000000000000000000000000000000000000000000000000000000000000000000000000000000000000000000000000000000000000000000000000000000000000000000000000000000000000000000000000000000000000000000000000000000000000000000000000000000000000000000000000000000000000000000000000000000000000000000000000000000000000000000000000000000000000000000000000000000000000000000000000000000000000000000000000000000000000000000000000000000000000000000000000000000000000000000000000000000000000000000000000000000000000000000000000000000000000000000000000000000000000000000000000000000000000000000000000000000000000000000000000000000000000000000000000000000000000000000000000000000000000000000000000000000000000000000000000000000000000000000000000000000000000000000000000000000000000000000000000000000000000000000000000000000000000000000000000000000000000000000000000000000000000000000000000000000000000000000000000000000000000000000000000000000000000000000000000000000000000
#0733a0:0000001400000000
#073380:000000000000000000000000000000000000000000000000000000000000000000000000000000000000000000000000000000000000000000000000000000000000000000000000000000000000000000000000000000000000000000000000000000000000000000000000000000000000000000000000000000000000000000000000000000000000000000000000000000000000000000000000000000000000000000000000000000000000000000000000000000000000000000000000000000000000000000000000000000000000000000000000000000000000000000000000000000000000000000000000000000000000000000000000000000000000000000000000000000000000000000000000000000000000000000000000000000000000000000000000000000000000000000000000000000000000000000000000000000000000000000000000000000000000000000000000000000000000000000000000000000000000000000000000000000000000000000000000000000000000000000000000000000000000000000000000000000000000000000000000000000000000000000000000000000000000000000000000000000000000000000000000000000000000000000000000000000000000000000000000000000000000000000000000000000000000000000000000000000000000000000000000000000000000000000000000000000000000000000000000000000000000000000000000000000000000000000000000000000000000000000000000000000000000000000000000000000000000000000000000000000000000000000000000000000000000000000000000000000000000000000000000000000000000000000000000000000000000000000000000000000000000000000000000000000000000000000000000000000000000000000000000000000000000000000000000000000000000000000000000005600000000000000000000000000000000000000000000000000000000000000000000000000000000000000000000000000000000000000000000000000000000000000000000000000000000000000000000000000000000000000000000000000000000000000000000000000000000000000000000000000000000000000000000000000000000000000000000000000000000000000000000000000000000000000000000000000000000000000000000000000000000000000000000000000000000000000000000000000000000000000000000000000000000000000000000000000000000000000000000260000000000000000000000000000000000000000000000000000000000000000000000000000000000000000000000000000000000000000000000000000000000000000000000000000000000000000000000000000000000000000000000000000000000000000000000000000000000000000000000000000000000000000000000000000000000000000000000000000000000000000000000000000000000000000000000000000000000000000000000000000000000000000000000000000000000000000000000000000000000000000000000000000000000000000000000000000000000000000000000000000000000000000000000000000000000000000000000000000000000000000000000000000000000000000000000000000000000000000000000000000000000000000000000000000000000000000000000000000000000000000000000000000000000000000000000000000000000000000000000000000000000000000000000000000000000000000000000000000000000000000000000000000000000000000000000000000000000000000000000000000000000000000000000000000000000000000000000000000000000000000000000000000000000000000000000000000000000000000000000000000000000000000000000000000000000000000000000000000000000000000000000000000000000000000000000000000000000000000000000000000000000000000000000000000000000000000000000000000000000000000000000000000000000000000000000000000000000000000000000000000000000000000000000000000000000000000000000000000000000000000000000000000000000000000000000000000000000000000000000000000000000000000000000000000000000000000000000000000000000000000000000000000000000000000000000000000000000000000000000000000000000000000000000000000000000000000000000000000000000000000000000000000000000000000000000000000000000000000000000000000000000000000000000000000000000000000000000000000000000000000000000000000000000000000000000000000000000000000000000000000000000000000000000000000000000000000000000000000000000000000000000000000000000000000000000000000000000000000000000000000000000000000000000000000000000000000000000000000000000000000000000000000000000000000000000000000000000000000000000
#075320:13330000
#075370:0033002300000000
#0763a0:14
#076340:00240000
#076321:0000122200000000
#076380:0000001222000000
#076341:0000000012220000
#0763a0:0000000000122200
#076361:0000000000001222
#0773b1:13
#077381:00230000000000000000000000000000
#077321:00130000
#077351:00000000002300000000000000000000
#078321:000000000000132300000000000000000000000000000000
#078380:000000000000001323000000000000000000000000000000
#078351:000000000000000013230000000000000000000000000000
#078351:000000000000000000000000132300000000000000000000
#0783b0:000000000000000000000000001323000000000000000000
#078321:000000000000000000000000000013230000000000000000
#080381:00132300000000000000000000000000
#080351:00000000001323000000000000000000
#080381:00000000000000000013230000000000
#080351:00000000000000000000000000132300
#0813b1:00000013
#0813a1:0000000000000000000000000000000000000000000000000033000000000000
#081381:00000000000000000000000000330000
#081371:0000000000000000000000000000000000000000000000000000003300000000
#081351:0000000000000033
#081341:0000000000000000000000000000000000000000000000000000000000333300
#081331:0000000000000000000000000000000000000000000000000000000000000033
#082321:23
#0823c1:00000000120032003200323200003200
#0833c1:32000032320032002200000000000000
#083321:0000000000001232
#084321:3200323232323222
#086321:00000014240000000000000000000000
#0863a1:00000000000000142400000000000000
#086361:00000000000000000000001424000000
#087321:13000053330000532300000000000000
#087371:00533300005333000000000000000000
#089321:14
#089361:0024000000000000
#0893a1:00140000
#089361:0000002400000000
#090371:13230000
#090321:0053000000000000
#0903b0:13230000
#090360:0053000000000000
#090360:00000000000000000000001424000000
#0913b0:13
#091370:00000023000000000000000000000000
#0923b0:13230000
#092360:0053000000000000
#0943b0:00001323
#094360:0000000000530000
#094321:00000013
#094361:0000000000000023
#095321:13
#095361:0023000000000000
#095321:00130000
#095361:0000002300000000
#0973a1:14
#097361:0024000000000000
#097321:00140000
#097361:0000002400000000
#099321:0000000000000012
#101321:310000000000000000000000000000000000000000000000000000000000000000000000000000000000000000000000000000000000000000000000000000000000000000000000000000000000000000000000000000000000000000000000000000000000000000000000000000000000000000000000000000000000000000000000000000000000000000000000000000000000000000000000000000000000000000000000000000000000000000000000000000000000000000000000000000000000000000000000000000000000000000000000000000000000000000000000000000000000000000000000000000000000000000000000000000000000000000000000000000000000000000000000000000000000000000000000000000000000000000000000000000000000000000000000000000000000000000000000000000000000000000000000000000000000000000000000000000000000000000000000000000000000000000000000000000000000000000000000000000000000000000000000000000000000000000000000000000000000000000000000000000000000000000000000000000000000000000000000000000000000000000000000000000000000000000000000000000000000000000000051520000000000000000000000000000000000000000000000000000000000000000000000000000000000000000000000000000000000000000000000000000000000000000000000000000000000000000000000000000000000000000000000000000000000000000000000000000000000000000000000000000000000000000000000000000000000000000000000000000000000000000000000000000000000000000000000000000000000000000000000000000000000000000000000000000000000000000000000000000000000000000000000000000000000000000000000000000000000000000000052530000000000000000000000000000000000000000000000000000000000000000000000000000000000000000000000000000000000000000000000000000000000000000000000000000000000000000000000000000000000000000000000000000000000000000000000000000000000000000000000000000000000000000000000000000000000000000000000000000000000000000000000000000000000000000000000000000000000000000000000000000000000000000000000000000000000000000000000000000000000000000000000000000000000000000000000000000000000000000000053540000000000000000000000000000000000000000000000000000000000000000000000000000000000000000000000000000000000000000000000000000000000000000000000000000000000000000000000000000000000000000000000000000000000000000000000000000000000000000000000000000000000000000000000000000000000000000000000000000000000000000000000000000000000000000000000000000000000000000000000000000000000000000000000000000000000000000000000000000000000000000000000000000000000000000000000000000000000000000000054550000000000000000000000000000000000000000000000000000000000000000000000000000000000000000000000000000000000000000000000000000000000000000000000000000000000000000000000000000000000000000000000000000000000000000000000000000000000000000000000000000000000000000000000000000000000000000000000000000000000000000000000000000000000000000000000000000000000000000000000000000000000000000000000000000000000000000000000000000000000000000000000000000000000000000000000000000000000000000000055560000000000000000000000000000000000000000000000000000000000000000000000000000000000000000000000000000000000000000000000000000000000000000000000000000000000000000000000000000000000000000000000000000000000000000000000000000000000000000000000000000000000000000000000000000000000000000000000000000000000000000000000000000000000000000000000000000000000000000000000000000000000000000000000000000000000000000000000000000000000000000000000000000000000000000000000000000000000000000000056570000000000000000000000000000000000000000000000000000000000000000000000000000000000000000000000000000000000000000000000000000000000000000000000000000000000000000000000000000000000000000000000000000000000000000000000000000000000000000000000000000000000000000000000000000000000000000000000000000000000000000000000000000000000000000000000000000000000000000000000000000000000000000000000000000000000000000000000000000000000000000000000000000000000000000000000000000000000000000000057
#102321:28
#1023d0:1100000000210000
#102391:00000000000000000000112100000000
#1023b0:00000000000000000000001121000000
#102371:00000011
#103371:21
#1033c0:1121
#1033c0:00000011
#1043c0:21
#104361:1100002100000000
#1043a0:00000000000011210000000000000000
#104341:00000000000000112100000000000000
#104380:0011
#105380:21
#105321:11210000000000000000000000000000
#105370:00112100000000000000000000000000
#105341:00001121000000000000000000000000
#105390:00000011210000000000000000000000
#105361:0000112100000000
#1053b0:0000001100210000
#105361:0000000000112100
#105390:0000000000001121
#105341:0000000000000011
#106341:21
#106370:1121000000000000
#106351:0011002100000000
#1063a0:0000001100002100
#106381:00000011
#107381:21
#1073a0:1121000000000000
#107361:0011210000000000
#107380:0000112100000000
#107341:0000001100002100
#107380:00000011
#108380:21
#108361:11210000
#108380:0000112100000000
#108351:0000001121000000
#1083a0:00001121
#108321:00000000000000000000000011210000
#108370:00000000000000000000000000112100
#108341:00000000000000000000000000001121
#108390:00000000000000000000000000000011
#109390:21
#109361:1121000000000000
#109380:0011002100000000
#109361:00000000000011210000000000000000
#109390:00000000000000112100000000000000
#109371:0000000011210000
#1093b0:0000000000112100
#109391:00000011
#110391:21
#1103b0:1100000000210000
#110371:00000000000000000000112100000000
#110390:00000000000000000000001121000000
#110351:00000011
#111351:21
#1113b0:1121
#111370:00000011
#112370:21
#1123d1:1121
#112330:00001121
#1123a1:00000000000000000000000011210000
#112360:00000000000000000000000000112100
#112381:00000000000000000000000000001121
#112340:00000000000000000000000000000011
#113340:21
#1133a1:1121000000000000
#113350:0011002100000000
#1133b1:0000001121000000
#113370:0000000011210000
#113391:0000000000112100
#113350:0000000000001121
#113371:0000000000000011
#114371:21
#114330:1100000000000021
#114381:00000000000000000000000000001121
#114350:00000000000000000000000000000011
#115350:21
#1153a1:11
#1163a1:21
#117321:165500000000000000000000000000000000000000000000000000000000000000000000000000000000000000000000000000000000000000000000000000000000000000000000000000000000000000000000000000000000000000000000000000000000000000000000000000000000000000000000000000000000000000000000000000000000000000000000000000000000000000000000000000000000000000000000000000000000000000000000000000000000000000000000000000000000000000000000000000000000000000000000000000000000000000000000000000000000000000000000555400000000000000000000000000000000000000000000000000000000000000000000000000000000000000000000000000000000000000000000000000000000000000000000000000000000000000000000000000000000000000000000000000000000000000000000000000000000000000000000000000000000000000000000000000000000000000000000000000000000000000000000000000000000000000000000000000000000000000000000000000000000000000000000000000000000000000000000000000000000000000000000000000000000000000000000000000000000000000000000545300000000000000000000000000000000000000000000000000000000000000000000000000000000000000000000000000000000000000000000000000000000000000000000000000000000000000000000000000000000000000000000000000000000000000000000000000000000000000000000000000000000000000000000000000000000000000000000000000000000000000000000000000000000000000000000000000000000000000000000000000000000000000000000000000000000000000000000000000000000000000000000000000000000000000000000000000000000000000000000535200000000000000000000000000000000000000000000000000000000000000000000000000000000000000000000000000000000000000000000000000000000000000000000000000000000000000000000000000000000000000000000000000000000000000000000000000000000000000000000000000000000000000000000000000000000000000000000000000000000000000000000000000000000000000000000000000000000000000000000000000000000000000000000000000000000000000000000000000000000000000000000000000000000000000000000000000000000000000000000525100000000000000000000000000000000000000000000000000000000000000000000000000000000000000000000000000000000000000000000000000000000000000000000000000000000000000000000000000000000000000000000000000000000000000000000000000000000000000000000000000000000000000000000000000000000000000000000000000000000000000000000000000000000000000000000000000000000000000000000000000000000000000000000000000000000000000000000000000000000000000000000000000000000000000000000000000000000000000000000210000000000000000000000000000000000000000000000000000000000000000000000000000000000000000000000000000000000000000000000000000000000000000000000000000000000000000000000000000000000000000000000000000000000000000000000000000000000000000000000000000000000000000000000000000000000000000000000000000000000000000000000000000000000000000000000000000000000000000000000000000000000000000000000000000000000000000000000000000000000000000000000000000000000000000000000000000000000000000000000000000000000000000000000000000000000000000000000000000000000000000000000000000000000000000000000000000000000000000000000000000000000000000000000000000000000000000000000000000000000000000000000000000000000000000000000000000000000000000000000000000000000000000000000000000000000000000000000000000000000000000000000000000000000000000000000000000000000000000000000000000000000000000000000000000000000000000000000000000000000000000000000000000000000000000000000000000000000000000000000000000000000000000000000000000000000000000000000000000000000000000000000000000000000000000000000000000000000000000000000000000000000000000000000000000000000000000000000000000000000000000000000000000000000000000000000000000000000000000000000000000000000000000000000000000000000000000000000000000000000000000000000000000000000000000000000000000000000000000000000000000000000000000000000000000000000000000000000000000000000000000000000000000000000000000000000000000000000000000000000
#1193a1:14240000
#119341:0054000000000000
#119361:0000000000130000
#119321:00000023
#119370:00000013
#1193b0:0000000000000023
#120370:13
#1203b0:0023000000000000
#120361:0013000000000000
#120321:00230000
#1203b1:0000001300000000
#120371:0023
#120320:0013
#120360:0000000000230000
#1213a0:14000000000034545454545424000000
#121340:00000054000000000000000000000000
#121380:0000000000000000000000000054005400540054005400540000000000000000
#121321:00000000000014545454545424000000
#121341:0000000000000000000000000054005400540054005400540000000000000000
#122361:13230000
#122321:0053000000000000
#122371:00001323
#1223b1:0000000000530000
#125321:14280000
#125381:0054000000000000
#1253a1:0014
#125341:0000000000540000
#125361:00000028
#127361:14
#127321:00532300000000000000000000000000
#127360:0014000000000000
#1273b0:00000053530000000000000000000000
#127350:00000000005323000000000000000000
#127321:00130000
#127381:00000000005323000000000000000000
#1293b1:13000000000000535353535323000000
#129371:00520000000032000000000000000000
#129391:0000000000000000000000000000005300530053005300530000000000000000
#129320:13000000000000535353535323000000
#129370:000000000000000000000000000000000000000000000000000000000000000000000000000000000000000000000000000000000000000000000000000000000000000000000000000000000000000000000000000000000000000000000000000000000000000000000000000000000000000000000000005200000000000000000000000000000000000000000000000000000000000000000000000000000000000000000000000000000000000000000000000000000000000000000000000000000000000000000000000000000000000000000000000000000000000000000000000000000000000000000000000000000000000000000000000000000000000000000000000000000000000000000000000000000000000000000000000000000000000000000000000000000000000000000000000000000000000000000000000000000000000000000000000000000000000000000000000000000000000000000000000000000000000000000000000000000000000000000000000000000000000000000000000000000000000000000000000000000000000000000000000000000000000000000000000000000000000000000000000000000000000000000000000000000000000000000000000000000000000000000000000000000000000000000000000000000000000000000000000000000000000000000000000000000000000000000000000000000000000000000000000000000000000000000000000000000000000000000000000000000000000000000000000000000000000000000000000000000000000000000000000000000000000000000000000000000000000000000000000000000000000000000000000000000000000000000000000000000000000000000000000000000000000000000000000000000000000000000000000000000000000000000000000000000000000000000000000000000000000000000000005200000000000000000000000000000000000000000000000000000000000000000000000000000000000000000000000000000000000000000000000000000000000000000000000000000000000000000000000000000000000000000000000000000000000000000000000000000000000000000000000000000000000000000000000000000000000000000000000000000000000000000000000000000000000000000000000000000000000000000000000000000000000000000000000000000000000000000000000000000000000000000000000000000000000000000000000000000000000000000000000000000000000000000000000000000000000000000000000000000000000000000000000000000000000000000000000000000000000000000000000000000000000000000000000000000000000000000000000000000000000000000000000000000000000000000000000000000000000000000000000000000000000000000000000000000000000000000000000000000000000000000000000000000000000000000000000000000000000000000000000000000000000000000000000000000000000000000000000000000000000000000000000000000000000000000000000000000000000000000000000000000000000000000000000000000000000000000000000000000000000000000000000000000000000000000000000000000000000000000000000000000000000000000000000000000000000000000000000000000000000000000000000000000000000000000000000000000000000000000000000000000000000000000000000000000000000000000000000000000000000000000000000000000000000000000000000000000000000000000000000000000000000000000000000000000000000000000000000000000000000000000000000000000000000000000000000000000000000000000000000000000000000000000000000000000000000000000000000000000000000000000000000000000000000000000000000000000000000000000000000000000000000000000000000000000000000000000000000000000000000000000000000000000000000000000000000000000000000000000000000000000000000000000000000000000000000000000000000000000000000000000000000000000000000000000000000000000000000000000000000000000000000000000000000000000000000000000000000000000000000000000000000000000000000000000000000000000000000000000000000000000000000000000000000000000000000000000000000000000000000000000000000000000000000000000000000000000000000000000000000000000000000000000000000000000000000000000000000000000000000000000000000000000000000000000000000000000000000000000000000000000000000000000000000000000000000000000000000000000000000000000000000000000000000000000000000000000000000000000000000000000000000000000000000000000000000000000000000000000000000000000000000000000000000000000000000000000000000000000000
#129340:0000000000000000000000000000005300530053005300530000000000000000
#1303b0:0013
#130350:00000023
#131320:0000001300000000
#131380:0000000000230000
#132320:14240000
#1323a0:00001424
#1403c0:1200005200000000
#1403a0:0052000052000052
#1403b0:00520000
#140380:0000000000520000
#140390:00000052
#141380:5200005200000000
#141360:00005200000000520000520000000000
#141370:00520000
#141340:00000000000000005200005200005200
#141350:00000000000000000052000000000000
#141320:00000052
#141330:00000000000000000000000000520052
#142320:22
#144320:14240000
#144380:0054000000000000
#144350:0000000000000013
#1453b0:0023000000000000
#145381:0013000000000000
#145321:0000002300000000
#145360:0000001300002300
#1453b0:00000000000000000053000000000000
#147350:13
#147320:0023000000000000
#147380:0013
#1473b0:0000000000230000
#1483a0:14240000
#148340:0054000000000000
#148380:0000000000000013
#149320:0023000000000000
#149351:0013000000000000
#1493b1:0000002300000000
#149370:0000001300002300
#149320:00000000000000000053000000000000
#150390:15
#150380:005600000000000000000000000000000000000000000000000000000000000000000000000000000000000000000000000000000000000000000000000000000000000000000000000000000000000000000000000000000000000000000000000000000000000000000000000000000000000000000000000000000000000000000000000000000000000000000000000000000000000000000000000000000000000000000000000000000000000000000000000000000000000000000000000000000000000000000000000000000000000000000000000000000000000000000000000000000000000000000000560000000000000000000000000000000000000000000000000000000000000000000000000000000000000000000000000000000000000000000000000000000000000000000000000000000000000000000000000000000000000000000000000000000000000000000000000000000000000000000000000000000000000000000000000000000000000000000000000000000000000000000000000000000000000000000000000000000000000000000000000000000000000000000000000000000000000000000000000000000000000000000000000000000000000000000000000000000000000000000000000000000000000000000000000000000000000000000000000000000000000000000000000000000000000000000000000000000000000000000000000000000000000000000000000000000000000000000000000000000000000000000000000000000000000000000000000000000000000000000000000000000000000000000000000000000000000000000000000000000000000000000000000000000000000000000000000000000000000000000000000000000000000000000000000000000000000000000000000000000000000000000000000000000000000000000000000000000000000000000000000000000000000000000000000000000000000000000000000000000000000000000000000000000000000000000000000000000000000000000000000000000000000000000000000000000000000000000000000000000000000000000000000000000000000000000000000000000000000000000000000000000000000000000000000000000000000000000000000000000000000000000000000000000000000000000000000000000000000000000000000000000000000000000000000000000000000000000000000000000000000000000000000000000000000000000000000000000000000000000000000000000000000000000000000000000000000000000000000000000000000000000000000000000000000000000000000000000000000000000000000000000000000000000000000000000000000000000000000000000000000000000000000000000000000000000000000000000000000000000000000000000000000000000000000000000000000000000000000000000000000000000000000000000000000000000000000000000000000000000000000000000000000000000000000000000000000000000000000000000000000000000000000000000000000000000000000000000000000000000000000000000000000000000000000000000000000000000000000000000000000000000000000000000000000000000000000000000000000000000000000000000000000000000000000000000000000000000000000000000000000000000000000000000000000000000000000000000000000000000000000000000000000000000000000000000000000000000000000000000000000000000000000000000000000000000000000000000000000000000000000000000000000000000000000000000000000000000000000000000000000000000000000000000000000000000000000000000000000000000000000000000000000000000000000000000000000000000000000000000000000000000000000000000000000000000000000000000000000000000000000000000000000000000000000000000000000000000000000000000000000000000000000000000000000000000000000000000000000000000000000000000000000000000000000000000000000000000000000000000000000000000000000000000000000000000000000000000000000000000000000000000000000000000000000000000000000000000000000000000000000000000000000000000000000000000000000000000000000000000000000000000000000000000000000000000000000000000000000000000000000000000000000000000000000000000000000000000000000000000000000000000000000000000000000000000000000000000000000000000000000000000000000000000000000000000000000000000000000000000000000000000000000000000000000000000000000000000000000000000000000000000000000000000000000000000000000000000000000000000000000000000000000000000000000000000000000000000000000000000000000000000000000000000000000000000000000000000000000000000000
#150370:000000000000000000000000000000000000000000000000000000000000000000000000000000000000000000000000000000000000000000000000000000000000000000000000000000000000000000000000000000000000000000000000000000000000000000000000000000000000000000000000000000000000000000000000000000000000000000000000000000000000000000000000000000000000000000000000000000000000000000000000000000000000000000000000000000000000000000000000000000000000000000000000000000000000000000000000000000000000000000000000005600000000000000000000000000000000000000000000000000000000000000000000000000000000000000000000000000000000000000000000000000000000000000000000000000000000000000000000000000000000000000000000000000000000000000000000000000000000000000000000000000000000000000000000000000000000000000000000000000000000000000000000000000000000000000000000000000000000000000000000000000000000000000000000000000000000000000000000000000000000000000000000000000000000000000000000000000000000000000000000560000000000000000000000000000000000000000000000000000000000000000000000000000000000000000000000000000000000000000000000000000000000000000000000000000000000000000000000000000000000000000000000000000000000000000000000000000000000000000000000000000000000000000000000000000000000000000000000000000000000000000000000000000000000000000000000000000000000000000000000000000000000000000000000000000000000000000000000000000000000000000000000000000000000000000000000000000000000000000000000000000000000000000000000000000000000000000000000000000000000000000000000000000000000000000000000000000000000000000000000000000000000000000000000000000000000000000000000000000000000000000000000000000000000000000000000000000000000000000000000000000000000000000000000000000000000000000000000000000000000000000000000000000000000000000000000000000000000000000000000000000000000000000000000000000000000000000000000000000000000000000000000000000000000000000000000000000000000000000000000000000000000000000000000000000000000000000000000000000000000000000000000000000000000000000000000000000000000000000000000000000000000000000000000000000000000000000000000000000000000000000000000000000000000000000000000000000000000000000000000000000000000000000000000000000000000000000000000000000000000000000000000000000000000000000000000000000000000000000000000000000000000000000000000000000000000000000000000000000000000000000000000000000000000000000000000000000000000000000000000000000000000000000000000000000000000000000000000000000000000000000000000000000000000000000000000000000000000000000000000000000000000000000000000000000000000000000000000000000000000000000000000000000000000000000000000000000000000000000000000000000000000000000000000000000000000000000000000000000000000000000000000000000000000000000000000000000000000000000000000000000000000000000000000000000000000000000000000000000000000000000000000000000000000000000000000000000000000000000000000000000000000000000000000000000000000000000000000000000000000000000000000000000000000000000000000000000000000000000000000000000000000000000000000000000000000000000000000000000000000000000000000000000000000000000000000000000000000000000000000000000000000000000000000000000000000000000000000000000000000000000000000000000000000000000000000000000000000000000000000000000000000000000000000000000000000000000000000000000000000000000000000000000000000000000000000000000000000000000000000000000000000000000000000000000000000000000000000000000000000000000000000000000000000000000000000000000000000000000000000000000000000000000000000000000000000000000000000000000000000000000000000000000000000000000000000000000000000000000000000000000000000000000000000000000000000000000000000000000000000000000000000000000000000000000000000000000000000000000000000000000000000000000000000000000000000000000000000000000000000000000000000000000000000000000000000000000000000000000000000
#150360:000000000000000000000000000000000000000000000000000000000000000000000000000000000000000000000000000000000000000000000000000000000000000000000000000000000000000000000000000000000000000000000000000000000000000000000000000000000000000000000000000000000000000000000000000000000000000000000000000000000000000000000000000000000000000000000000000000000000000000000000000000000000000000000000000000000000000000000000000000000000000000000000000000000000000000000000000000000000000000000000000000000000000000000000000000000000000000000000000000000000000000000000000000000000000000000000000000000000000000000000000000000000000000000000000000000000000000000000000000000000000000000000000000000000000000000000000000000000000000000000000000000000000000000000000000000000000000000000000000000000000000000000000000000000000000000000000000000000000000000000000000000000000000000000000000000000000000000000000000000000000000000000000000000000000000000000000000000000000000000000005600000000000000000000000000000000000000000000000000000000000000000000000000000000000000000000000000000000000000000000000000000000000000000000000000000000000000000000000000000000000000000000000000000000000000000000000000000000000000000000000000000000000000000000000000000000000000000000000000000000000000000000000000000000000000000000000000000000000000000000000000000000000000000000000000000000000000000000000000000000000000000000000000000000000000000000000000000000000000000056000000000000000000000000000000000000000000000000000000000000000000000000000000000000000000000000000000000000000000000000000000000000000000000000000000000000000000000000000000000000000000000000000000000000000000000000000000000000000000000000000000000000000000000000000000000000000000000000000000000000000000000000000000000000000000000000000000000000000000000000000000000000000000000000000000000000000000000000000000000000000000000000000000000000000000000000000000000000000000000000000000000000000000000000000000000000000000000000000000000000000000000000000000000000000000000000000000000000000000000000000000000000000000000000000000000000000000000000000000000000000000000000000000000000000000000000000000000000000000000000000000000000000000000000000000000000000000000000000000000000000000000000000000000000000000000000000000000000000000000000000000000000000000000000000000000000000000000000000000000000000000000000000000000000000000000000000000000000000000000000000000000000000000000000000000000000000000000000000000000000000000000000000000000000000000000000000000000000000000000000000000000000000000000000000000000000000000000000000000000000000000000000000000000000000000000000000000000000000000000000000000000000000000000000000000000000000000000000000000000000000000000000000000000000000000000000000000000000000000000000000000000000000000000000000000000000000000000000000000000000000000000000000000000000000000000000000000000000000000000000000000000000000000000000000000000000000000000000000000000000000000000000000000000000000000000000000000000000000000000000000000000000000000000000000000000000000000000000000000000000000000000000000000000000000000000000000000000000000000000000000000000000000000000000000000000000000000000000000000000000000000000000000000000000000000000000000000000000000000000000000000000000000000000000000000000000000000000000000000000000000000000000000000000000000000000000000000000000000000000000000000000000000000000000000000000000000000000000000000000000000000000000000000000000000000000000000000000000000000000000000000000000000000000000000000000000000000000000000000000000000000000000000000000000000000000000000000000000000000000000000000000000000000000000000000000000000000000000000000000000000000000000000000000000000000000000000000000000000000000000000000000000000000000000000000000000000000000000000000000000000000000000000000000000000000000000000000000000000000000000
#150340:000000000000000000000000000000000000000000000000000000000000000000000000000000000000000000000000000000000000000000000000000000000000000000000000000000000000000000000000000000000000000000000000000000000000000000000000000000000000000000000000000000000000000000000000000000000000000000000000000000000000000000000000000000000000000000000000000000000000000000000000000000000000000000000000000000000000000000000000000000000000000000000000000000000000000000000000000000000000000000000000000000000000000000000000000000000000000000000000000000000000000000000000000000000000000000000000000000000000000000000000000000000000000000000000000000000000000000000000000000000000000000000000000000000000000000000000000000000000000000000000000000000000000000000000000000000000000000000000000000000000000000000000000000000000000000000000000000000000000000000000000000000000000000000000000000000000000000000000000000000000000000000000000000000000000000000000000000000000000000000000000000000000000000000000000000000000000000000000000000000000000000000000000000000000000000000000000000000000000000000000000000000000000000000000000000000000000000000000000000000000000000000000000000000000000000000000000000000000000000000000000000000000000000000000000000000000000000000000000000000000000000000000000000000000000000000000000000000000000000000000000000000000000000000000000000000000000000000000000000000000000000000000000000000000000000000000000000000000000000000000005600000000000000000000000000000000000000000000000000000000000000000000000000000000000000000000000000000000000000000000000000000000000000000000000000000000000000000000000000000000000000000000000000000000000000000000000000000000000000000000000000000000000000000000000000000000000000000000000000000000000000000000000000000000000000000000000000000000000000000000000000000000000000000000000000000000000000000000000000000000000000000000000000000000000000000000000000000000000000000056000000000000000000000000000000000000000000000000000000000000000000000000000000000000000000000000000000000000000000000000000000000000000000000000000000000000000000000000000000000000000000000000000000000000000000000000000000000000000000000000000000000000000000000000000000000000000000000000000000000000000000000000000000000000000000000000000000000000000000000000000000000000000000000000000000000000000000000000000000000000000000000000000000000000000000000000000000000000000000000000000000000000000000000000000000000000000000000000000000000000000000000000000000000000000000000000000000000000000000000000000000000000000000000000000000000000000000000000000000000000000000000000000000000000000000000000000000000000000000000000000000000000000000000000000000000000000000000000000000000000000000000000000000000000000000000000000000000000000000000000000000000000000000000000000000000000000000000000000000000000000000000000000000000000000000000000000000000000000000000000000000000000000000000000000000000000000000000000000000000000000000000000000000000000000000000000000000000000000000000000000000000000000000000000000000000000000000000000000000000000000000000000000000000000000000000000000000000000000000000000000000000000000000000000000000000000000000000000000000000000000000000000000000000000000000000000000000000000000000000000000000000000000000000000000000000000000000000000000000000000000000000000000000000000000000000000000000000000000000000000000000000000000000000000000000000000000000000000000000000000000000000000000000000000000000000000000000000000000000000000000000000000000000000000000000000000000000000000000000000000000000000000000000000000000000000000000000000000000000000000000000000000000000000000000000000000000000000000000000000000000000000000000000000000000000000000000000000000000000000000000000000000000000000000000000000000000000000000000000000000000000000000000000000000000000000000000000000000000000000000
#150330:000000000000000000000000000000000000000000000000000000000000000000000000000000000000000000000000000000000000000000000000000000000000000000000000000000000000000000000000000000000000000000000000000000000000000000000000000000000000000000000000000000000000000000000000000000000000000000000000000000000000000000000000000000000000000000000000000000000000000000000000000000000000000000000000000000000000000000000000000000000000000000000000000000000000000000000000000000000000000000000000000000000000000000000000000000000000000000000000000000000000000000000000000000000000000000000000000000000000000000000000000000000000000000000000000000000000000000000000000000000000000000000000000000000000000000000000000000000000000000000000000000000000000000000000000000000000000000000000000000000000000000000000000000000000000000000000000000000000000000000000000000000000000000000000000000000000000000000000000000000000000000000000000000000000000000000000000000000000000000000000000000000000000000000000000000000000000000000000000000000000000000000000000000000000000000000000000000000000000000000000000000000000000000000000000000000000000000000000000000000000000000000000000000000000000000000000000000000000000000000000000000000000000000000000000000000000000000000000000000000000000000000000000000000000000000000000000000000000000000000000000000000000000000000000000000000000000000000000000000000000000000000000000000000000000000000000000000000000000000000000000000000000000000000000000000000000000000000000000000000000000000000000000000000000000000000000000000000000000000000000000000000000000000000000000000000000000000000000000000000000000000000000000000000000000000000000000000000000000000000000000000000000000000000000000000000000000000000000000000000000000000000000000000000000000000000000000000000000000000000000000000000000000000000000000000000000000000000000000000000000000000000000000000000000000000000000000000000000000000000000560000000000000000000000000000000000000000000000000000000000000000000000000000000000000000000000000000000000000000000000000000000000000000000000000000000000000000000000000000000000000000000000000000000000000000000000000000000000000000000000000000000000000000000000000000000000000000000000000000000000000000000000000000000000000000000000000000000000000000000000000000000000000000000000000000000000000000000000000000000000000000000000000000000000000000000000000000000000000000000056000000000000000000000000000000000000000000000000000000000000000000000000000000000000000000000000000000000000000000000000000000000000000000000000000000000000000000000000000000000000000000000000000000000000000000000000000000000000000000000000000000000000000000000000000000000000000000000000000000000000000000000000000000000000000000000000000000000000000000000000000000000000000000000000000000000000000000000000000000000000000000000000000000000000000000000000000000000000000000000000000000000000000000000000000000000000000000000000000000000000000000000000000000000000000000000000000000000000000000000000000000000000000000000000000000000000000000000000000000000000000000000000000000000000000000000000000000000000000000000000000000000000000000000000000000000000000000000000000000000000000000000000000000000000000000000000000000000000000000000000000000000000000000000000000000000000000000000000000000000000000000000000000000000000000000000000000000000000000000000000000000000000000000000000000000000000000000000000000000000000000000000000000000000000000000000000000000000000000000000000000000000000000000000000000000000000000000000000000000000000000000000000000000000000000000000000000000000000000000000000000000000000000000000000000000000000000000000000000000000000000000000000000000000000000000000000000000000000000000000000000000000000000000000000000000000000000000000000000000000000000000000000000000000000000000000000000000000000000000000000
#150320:000000000000000000000000000000000000000000000000000000000000000000000000000000000000000000000000000000000000000000000000000000000000000000000000000000000000000000000000000000000000000000000000000000000000000000000000000000000000000000000000000000000000000000000000000000000000000000000000000000000000000000000000000000000000000000000000000000000000000000000000000000000000000000000000000000000000000000000000000000000000000000000000000000000000000000000000000000000000000000000000000000000000000000000000000000000000000000000000000000000000000000000000000000000000000000000000000000000000000000000000000000000000000000000000000000000000000000000000000000000000000000000000000000000000000000000000000000000000000000000000000000000000000000000000000000000000000000000000000000000000000000000000000000000000000000000000000000000000000000000000000000000000000000000000000000000000000000000000000000000000000000000000000000000000000000000000000000000000000000000000000000000000000000000000000000000000000000000000000000000000000000000000000000000000000000000000000000000000000000000000000000000000000000000000000000000000000000000000000000000000000000000000000000000000000000000000000000000000000000000000000000000000000000000000000000000000000000000000000000000000000000000000000000000000000000000000000000000000000000000000000000000000000000000000000000000000000000000000000000000000000000000000000000000000000000000000000000000000000000000000000000000000000000000000000000000000000000000000000000000000000000000000000000000000000000000000000000000000000000000000000000000000000000000000000000000000000000000000000000000000000000000000000000000000000000000000000000000000000000000000000000000000000000000000000000000000000000000000000000000000000000000000000000000000000000000000000000000000000000000000000000000000000000000000000000000000000000000000000000000000000000000000000000000000000000000000000000000000000000000000000000000000000000000000000000000000000000000000000000000000000000000000000000000000000000000000000000000000000000000000000000000000000000000000000000000000000000000000000000000000000000000000000000000000000000000000000000000000000000000000000000000000000000000000000000000000000000000000000000000000000000000000000000000000000000000000000000000000000000000000000000000000000000000000000000000000000000000000000000000000000000000000000000000000000000000000000000000000000000000000560000000000000000000000000000000000000000000000000000000000000000000000000000000000000000000000000000000000000000000000000000000000000000000000000000000000000000000000000000000000000000000000000000000000000000000000000000000000000000000000000000000000000000000000000000000000000000000000000000000000000000000000000000000000000000000000000000000000000000000000000000000000000000000000000000000000000000000000000000000000000000000000000000000000000000000000000000000000000000000056250000000000000000000000000000000000000000000000000000000000000000000000000000000000000000000000000000000000000000000000000000000000000000000000000000000000000000000000000000000000000000000000000000000000000000000000000000000000000000000000000000000000000000000000000000000000000000000000000000000000000000000000000000000000000000000000000000000000000000000000000000000000000000000000000000000000000000000000000000000000000000000000000000000000000000000000000000000000000000000000000000000000000000000000000000000000000000000000000000000000000000000000000000000000000000000000000000000000000000000000000000000000000000000000000000000000000000000000000000000000000000000000000000000000000000000000000000000000000000000000000000000000000000000000000000000000000000000000000000000000000000000000000000000000000000000000000000000000000000000000000000000000000000000000000000000000000000000000000000000000000000000000000000000000000000000000000000000000000000000000
#1513a0:14
#151390:005500000000000000000000000000000000000000000000000000000000000000000000000000000000000000000000000000000000000000000000000000000000000000000000000000000000000000000000000000000000000000000000000000000000000000000000000000000000000000000000000000000000000000000000000000000000000000000000000000000000000000000000000000000000000000000000000000000000000000000000000000000000000000000000000000000000000000000000000000000000000000000000000000000000000000000000000000000000000000000000550000000000000000000000000000000000000000000000000000000000000000000000000000000000000000000000000000000000000000000000000000000000000000000000000000000000000000000000000000000000000000000000000000000000000000000000000000000000000000000000000000000000000000000000000000000000000000000000000000000000000000000000000000000000000000000000000000000000000000000000000000000000000000000000000000000000000000000000000000000000000000000000000000000000000000000000000000000000000000000000000000000000000000000000000000000000000000000000000000000000000000000000000000000000000000000000000000000000000000000000000000000000000000000000000000000000000000000000000000000000000000000000000000000000000000000000000000000000000000000000000000000000000000000000000000000000000000000000000000000000000000000000000000000000000000000000000000000000000000000000000000000000000000000000000000000000000000000000000000000000000000000000000000000000000000000000000000000000000000000000000000000000000000000000000000000000000000000000000000000000000000000000000000000000000000000000000000000000000000000000000000000000000000000000000000000000000000000000000000000000000000000000000000000000000000000000000000000000000000000000000000000000000000000000000000000000000000000000000000000000000000000000000000000000000000000000000000000000000000000000000000000000000000000000000000000000000000000000000000000000000000000000000000000000000000000000000000000000000000000000000000000000000000000000000000000000000000000000000000000000000000000000000000000000000000000000000000000000000000000000000000000000000000000000000000000000000000000000000000000000000000000000000000000000000000000000000000000000000000000000000000000000000000000000000000000000000000000000000000000000000000000000000000000000000000000000000000000000000000000000000000000000000000000000000000000000000000000000000000000000000000000000000000000000000000000000000000000000000000000000000000000000000000000000000000000000000000000000000000000000000000000000000000000000000000000000000000000000000000000000000000000000000000000000000000000000000000000000000000000000000000000000000000000000000000000000000000000000000000000000000000000000000000000000000000000000000000000000000000000000000000000000000000000000000000000000000000000000000000000000000000000000000000000000000000000000000000000000000000000000000000000000000000000000000000000000000000000000000000000000000000000000000000000000000000000000000000000000000000000000000000000000000000000000000000000000000000000000000000000000000000000000000000000000000000000000000000000000000000000000000000000000000000000000000000000000000000000000000000000000000000000000000000000000000000000000000000000000000000000000000000000000000000000000000000000000000000000000000000000000000000000000000000000000000000000000000000000000000000000000000000000000000000000000000000000000000000000000000000000000000000000000000000000000000000000000000000000000000000000000000000000000000000000000000000000000000000000000000000000000000000000000000000000000000000000000000000000000000000000000000000000000000000000000000000000000000000000000000000000000000000000000000000000000000000000000000000000000000000000000000000000000000000000000000000000000000000000000000000000000000000000000000000000000000000000000000000000000000000000000000000000000000000000000000000000000000000000000000000000000
#151380:000000000000000000000000000000000000000000000000000000000000000000000000000000000000000000000000000000000000000000000000000000000000000000000000000000000000000000000000000000000000000000000000000000000000000000000000000000000000000000000000000000000000000000000000000000000000000000000000000000000000000000000000000000000000000000000000000000000000000000000000000000000000000000000000000000000000000000000000000000000000000000000000000000000000000000000000000000000000000000000000005500000000000000000000000000000000000000000000000000000000000000000000000000000000000000000000000000000000000000000000000000000000000000000000000000000000000000000000000000000000000000000000000000000000000000000000000000000000000000000000000000000000000000000000000000000000000000000000000000000000000000000000000000000000000000000000000000000000000000000000000000000000000000000000000000000000000000000000000000000000000000000000000000000000000000000000000000000000000000000000550000000000000000000000000000000000000000000000000000000000000000000000000000000000000000000000000000000000000000000000000000000000000000000000000000000000000000000000000000000000000000000000000000000000000000000000000000000000000000000000000000000000000000000000000000000000000000000000000000000000000000000000000000000000000000000000000000000000000000000000000000000000000000000000000000000000000000000000000000000000000000000000000000000000000000000000000000000000000000000000000000000000000000000000000000000000000000000000000000000000000000000000000000000000000000000000000000000000000000000000000000000000000000000000000000000000000000000000000000000000000000000000000000000000000000000000000000000000000000000000000000000000000000000000000000000000000000000000000000000000000000000000000000000000000000000000000000000000000000000000000000000000000000000000000000000000000000000000000000000000000000000000000000000000000000000000000000000000000000000000000000000000000000000000000000000000000000000000000000000000000000000000000000000000000000000000000000000000000000000000000000000000000000000000000000000000000000000000000000000000000000000000000000000000000000000000000000000000000000000000000000000000000000000000000000000000000000000000000000000000000000000000000000000000000000000000000000000000000000000000000000000000000000000000000000000000000000000000000000000000000000000000000000000000000000000000000000000000000000000000000000000000000000000000000000000000000000000000000000000000000000000000000000000000000000000000000000000000000000000000000000000000000000000000000000000000000000000000000000000000000000000000000000000000000000000000000000000000000000000000000000000000000000000000000000000000000000000000000000000000000000000000000000000000000000000000000000000000000000000000000000000000000000000000000000000000000000000000000000000000000000000000000000000000000000000000000000000000000000000000000000000000000000000000000000000000000000000000000000000000000000000000000000000000000000000000000000000000000000000000000000000000000000000000000000000000000000000000000000000000000000000000000000000000000000000000000000000000000000000000000000000000000000000000000000000000000000000000000000000000000000000000000000000000000000000000000000000000000000000000000000000000000000000000000000000000000000000000000000000000000000000000000000000000000000000000000000000000000000000000000000000000000000000000000000000000000000000000000000000000000000000000000000000000000000000000000000000000000000000000000000000000000000000000000000000000000000000000000000000000000000000000000000000000000000000000000000000000000000000000000000000000000000000000000000000000000000000000000000000000000000000000000000000000000000000000000000000000000000000000000000000000000000000000000000000000000000000000000000000000000000000000000000000000000000000000000000000000000000000000
#151360:000000000000000000000000000000000000000000000000000000000000000000000000000000000000000000000000000000000000000000000000000000000000000000000000000000000000000000000000000000000000000000000000000000000000000000000000000000000000000000000000000000000000000000000000000000000000000000000000000000000000000000000000000000000000000000000000000000000000000000000000000000000000000000000000000000000000000000000000000000000000000000000000000000000000000000000000000000000000000000000000000000000000000000000000000000000000000000000000000000000000000000000000000000000000000000000000000000000000000000000000000000000000000000000000000000000000000000000000000000000000000000000000000000000000000000000000000000000000000000000000000000000000000000000000000000000000000000000000000000000000000000000000000000000000000000000000000000000000000000000000000000000000000000000000000000000000000000000000000000000000000000000000000000000000000000000000000000000000000000000000005500000000000000000000000000000000000000000000000000000000000000000000000000000000000000000000000000000000000000000000000000000000000000000000000000000000000000000000000000000000000000000000000000000000000000000000000000000000000000000000000000000000000000000000000000000000000000000000000000000000000000000000000000000000000000000000000000000000000000000000000000000000000000000000000000000000000000000000000000000000000000000000000000000000000000000000000000000000000000000055000000000000000000000000000000000000000000000000000000000000000000000000000000000000000000000000000000000000000000000000000000000000000000000000000000000000000000000000000000000000000000000000000000000000000000000000000000000000000000000000000000000000000000000000000000000000000000000000000000000000000000000000000000000000000000000000000000000000000000000000000000000000000000000000000000000000000000000000000000000000000000000000000000000000000000000000000000000000000000000000000000000000000000000000000000000000000000000000000000000000000000000000000000000000000000000000000000000000000000000000000000000000000000000000000000000000000000000000000000000000000000000000000000000000000000000000000000000000000000000000000000000000000000000000000000000000000000000000000000000000000000000000000000000000000000000000000000000000000000000000000000000000000000000000000000000000000000000000000000000000000000000000000000000000000000000000000000000000000000000000000000000000000000000000000000000000000000000000000000000000000000000000000000000000000000000000000000000000000000000000000000000000000000000000000000000000000000000000000000000000000000000000000000000000000000000000000000000000000000000000000000000000000000000000000000000000000000000000000000000000000000000000000000000000000000000000000000000000000000000000000000000000000000000000000000000000000000000000000000000000000000000000000000000000000000000000000000000000000000000000000000000000000000000000000000000000000000000000000000000000000000000000000000000000000000000000000000000000000000000000000000000000000000000000000000000000000000000000000000000000000000000000000000000000000000000000000000000000000000000000000000000000000000000000000000000000000000000000000000000000000000000000000000000000000000000000000000000000000000000000000000000000000000000000000000000000000000000000000000000000000000000000000000000000000000000000000000000000000000000000000000000000000000000000000000000000000000000000000000000000000000000000000000000000000000000000000000000000000000000000000000000000000000000000000000000000000000000000000000000000000000000000000000000000000000000000000000000000000000000000000000000000000000000000000000000000000000000000000000000000000000000000000000000000000000000000000000000000000000000000000000000000000000000000000000000000000000000000000000000000000000000000000000000000000000000000000000000000000000000000
#151350:000000000000000000000000000000000000000000000000000000000000000000000000000000000000000000000000000000000000000000000000000000000000000000000000000000000000000000000000000000000000000000000000000000000000000000000000000000000000000000000000000000000000000000000000000000000000000000000000000000000000000000000000000000000000000000000000000000000000000000000000000000000000000000000000000000000000000000000000000000000000000000000000000000000000000000000000000000000000000000000000000000000000000000000000000000000000000000000000000000000000000000000000000000000000000000000000000000000000000000000000000000000000000000000000000000000000000000000000000000000000000000000000000000000000000000000000000000000000000000000000000000000000000000000000000000000000000000000000000000000000000000000000000000000000000000000000000000000000000000000000000000000000000000000000000000000000000000000000000000000000000000000000000000000000000000000000000000000000000000000000000000000000000000000000000000000000000000000000000000000000000000000000000000000000000000000000000000000000000000000000000000000000000000000000000000000000000000000000000000000000000000000000000000000000000000000000000000000000000000000000000000000000000000000000000000000000000000000000000000000000000000000000000000000000000000000000000000000000000000000000000000000000000000000000000000000000000000000000000000000000000000000000000000000000000000000000000000000000000000000000005500000000000000000000000000000000000000000000000000000000000000000000000000000000000000000000000000000000000000000000000000000000000000000000000000000000000000000000000000000000000000000000000000000000000000000000000000000000000000000000000000000000000000000000000000000000000000000000000000000000000000000000000000000000000000000000000000000000000000000000000000000000000000000000000000000000000000000000000000000000000000000000000000000000000000000000000000000000000000000055000000000000000000000000000000000000000000000000000000000000000000000000000000000000000000000000000000000000000000000000000000000000000000000000000000000000000000000000000000000000000000000000000000000000000000000000000000000000000000000000000000000000000000000000000000000000000000000000000000000000000000000000000000000000000000000000000000000000000000000000000000000000000000000000000000000000000000000000000000000000000000000000000000000000000000000000000000000000000000000000000000000000000000000000000000000000000000000000000000000000000000000000000000000000000000000000000000000000000000000000000000000000000000000000000000000000000000000000000000000000000000000000000000000000000000000000000000000000000000000000000000000000000000000000000000000000000000000000000000000000000000000000000000000000000000000000000000000000000000000000000000000000000000000000000000000000000000000000000000000000000000000000000000000000000000000000000000000000000000000000000000000000000000000000000000000000000000000000000000000000000000000000000000000000000000000000000000000000000000000000000000000000000000000000000000000000000000000000000000000000000000000000000000000000000000000000000000000000000000000000000000000000000000000000000000000000000000000000000000000000000000000000000000000000000000000000000000000000000000000000000000000000000000000000000000000000000000000000000000000000000000000000000000000000000000000000000000000000000000000000000000000000000000000000000000000000000000000000000000000000000000000000000000000000000000000000000000000000000000000000000000000000000000000000000000000000000000000000000000000000000000000000000000000000000000000000000000000000000000000000000000000000000000000000000000000000000000000000000000000000000000000000000000000000000000000000000000000000000000000000000000000000000000000000000000000000000000000000000000000000000000000000000000000000000000000000000000000000000000000000
#151330:000000000000000000000000000000000000000000000000000000000000000000000000000000000000000000000000000000000000000000000000000000000000000000000000000000000000000000000000000000000000000000000000000000000000000000000000000000000000000000000000000000000000000000000000000000000000000000000000000000000000000000000000000000000000000000000000000000000000000000000000000000000000000000000000000000000000000000000000000000000000000000000000000000000000000000000000000000000000000000000000000000000000000000000000000000000000000000000000000000000000000000000000000000000000000000000000000000000000000000000000000000000000000000000000000000000000000000000000000000000000000000000000000000000000000000000000000000000000000000000000000000000000000000000000000000000000000000000000000000000000000000000000000000000000000000000000000000000000000000000000000000000000000000000000000000000000000000000000000000000000000000000000000000000000000000000000000000000000000000000000000000000000000000000000000000000000000000000000000000000000000000000000000000000000000000000000000000000000000000000000000000000000000000000000000000000000000000000000000000000000000000000000000000000000000000000000000000000000000000000000000000000000000000000000000000000000000000000000000000000000000000000000000000000000000000000000000000000000000000000000000000000000000000000000000000000000000000000000000000000000000000000000000000000000000000000000000000000000000000000000000000000000000000000000000000000000000000000000000000000000000000000000000000000000000000000000000000000000000000000000000000000000000000000000000000000000000000000000000000000000000000000000000000000000000000000000000000000000000000000000000000000000000000000000000000000000000000000000000000000000000000000000000000000000000000000000000000000000000000000000000000000000000000000000000000000000000000000000000000000000000000000000000000000000000000000000000000000000000000000000550000000000000000000000000000000000000000000000000000000000000000000000000000000000000000000000000000000000000000000000000000000000000000000000000000000000000000000000000000000000000000000000000000000000000000000000000000000000000000000000000000000000000000000000000000000000000000000000000000000000000000000000000000000000000000000000000000000000000000000000000000000000000000000000000000000000000000000000000000000000000000000000000000000000000000000000000000000000000000000055000000000000000000000000000000000000000000000000000000000000000000000000000000000000000000000000000000000000000000000000000000000000000000000000000000000000000000000000000000000000000000000000000000000000000000000000000000000000000000000000000000000000000000000000000000000000000000000000000000000000000000000000000000000000000000000000000000000000000000000000000000000000000000000000000000000000000000000000000000000000000000000000000000000000000000000000000000000000000000000000000000000000000000000000000000000000000000000000000000000000000000000000000000000000000000000000000000000000000000000000000000000000000000000000000000000000000000000000000000000000000000000000000000000000000000000000000000000000000000000000000000000000000000000000000000000000000000000000000000000000000000000000000000000000000000000000000000000000000000000000000000000000000000000000000000000000000000000000000000000000000000000000000000000000000000000000000000000000000000000000000000000000000000000000000000000000000000000000000000000000000000000000000000000000000000000000000000000000000000000000000000000000000000000000000000000000000000000000000000000000000000000000000000000000000000000000000000000000000000000000000000000000000000000000000000000000000000000000000000000000000000000000000000000000000000000000000000000000000000000000000000000000000000000000000000000000000000000000000000000000000000000000000000000000000000000000000000000000000000000000
#151320:000000000000000000000000000000000000000000000000000000000000000000000000000000000000000000000000000000000000000000000000000000000000000000000000000000000000000000000000000000000000000000000000000000000000000000000000000000000000000000000000000000000000000000000000000000000000000000000000000000000000000000000000000000000000000000000000000000000000000000000000000000000000000000000000000000000000000000000000000000000000000000000000000000000000000000000000000000000000000000000000000000000000000000000000000000000000000000000000000000000000000000000000000000000000000000000000000000000000000000000000000000000000000000000000000000000000000000000000000000000000000000000000000000000000000000000000000000000000000000000000000000000000000000000000000000000000000000000000000000000000000000000000000000000000000000000000000000000000000000000000000000000000000000000000000000000000000000000000000000000000000000000000000000000000000000000000000000000000000000000000000000000000000000000000000000000000000000000000000000000000000000000000000000000000000000000000000000000000000000000000000000000000000000000000000000000000000000000000000000000000000000000000000000000000000000000000000000000000000000000000000000000000000000000000000000000000000000000000000000000000000000000000000000000000000000000000000000000000000000000000000000000000000000000000000000000000000000000000000000000000000000000000000000000000000000000000000000000000000000000000000000000000000000000000000000000000000000000000000000000000000000000000000000000000000000000000000000000000000000000000000000000000000000000000000000000000000000000000000000000000000000000000000000000000000000000000000000000000000000000000000000000000000000000000000000000000000000000000000000000000000000000000000000000000000000000000000000000000000000000000000000000000000000000000000000000000000000000000000000000000000000000000000000000000000000000000000000000000000000000000000000000000000000000000000000000000000000000000000000000000000000000000000000000000000000000000000000000000000000000000000000000000000000000000000000000000000000000000000000000000000000000000000000000000000000000000000000000000000000000000000000000000000000000000000000000000000000000000000000000000000000000000000000000000000000000000000000000000000000000000000000000000000000000000000000000000000000000000000000000000000000000000000000000000000000000000000000000000000000000000550000000000000000000000000000000000000000000000000000000000000000000000000000000000000000000000000000000000000000000000000000000000000000000000000000000000000000000000000000000000000000000000000000000000000000000000000000000000000000000000000000000000000000000000000000000000000000000000000000000000000000000000000000000000000000000000000000000000000000000000000000000000000000000000000000000000000000000000000000000000000000000000000000000000000000000000000000000000000000000055240000000000000000000000000000000000000000000000000000000000000000000000000000000000000000000000000000000000000000000000000000000000000000000000000000000000000000000000000000000000000000000000000000000000000000000000000000000000000000000000000000000000000000000000000000000000000000000000000000000000000000000000000000000000000000000000000000000000000000000000000000000000000000000000000000000000000000000000000000000000000000000000000000000000000000000000000000000000000000000000000000000000000000000000000000000000000000000000000000000000000000000000000000000000000000000000000000000000000000000000000000000000000000000000000000000000000000000000000000000000000000000000000000000000000000000000000000000000000000000000000000000000000000000000000000000000000000000000000000000000000000000000000000000000000000000000000000000000000000000000000000000000000000000000000000000000000000000000000000000000000000000000000000000000000000000000000000000000000000000000
#1523b0:13
#1523a0:005400000000000000000000000000000000000000000000000000000000000000000000000000000000000000000000000000000000000000000000000000000000000000000000000000000000000000000000000000000000000000000000000000000000000000000000000000000000000000000000000000000000000000000000000000000000000000000000000000000000000000000000000000000000000000000000000000000000000000000000000000000000000000000000000000000000000000000000000000000000000000000000000000000000000000000000000000000000000000000000540000000000000000000000000000000000000000000000000000000000000000000000000000000000000000000000000000000000000000000000000000000000000000000000000000000000000000000000000000000000000000000000000000000000000000000000000000000000000000000000000000000000000000000000000000000000000000000000000000000000000000000000000000000000000000000000000000000000000000000000000000000000000000000000000000000000000000000000000000000000000000000000000000000000000000000000000000000000000000000000000000000000000000000000000000000000000000000000000000000000000000000000000000000000000000000000000000000000000000000000000000000000000000000000000000000000000000000000000000000000000000000000000000000000000000000000000000000000000000000000000000000000000000000000000000000000000000000000000000000000000000000000000000000000000000000000000000000000000000000000000000000000000000000000000000000000000000000000000000000000000000000000000000000000000000000000000000000000000000000000000000000000000000000000000000000000000000000000000000000000000000000000000000000000000000000000000000000000000000000000000000000000000000000000000000000000000000000000000000000000000000000000000000000000000000000000000000000000000000000000000000000000000000000000000000000000000000000000000000000000000000000000000000000000000000000000000000000000000000000000000000000000000000000000000000000000000000000000000000000000000000000000000000000000000000000000000000000000000000000000000000000000000000000000000000000000000000000000000000000000000000000000000000000000000000000000000000000000000000000000000000000000000000000000000000000000000000000000000000000000000000000000000000000000000000000000000000000000000000000000000000000000000000000000000000000000000000000000000000000000000000000000000000000000000000000000000000000000000000000000000000000000000000000000000000000000000000000000000000000000000000000000000000000000000000000000000000000000000000000000000000000000000000000000000000000000000000000000000000000000000000000000000000000000000000000000000000000000000000000000000000000000000000000000000000000000000000000000000000000000000000000000000000000000000000000000000000000000000000000000000000000000000000000000000000000000000000000000000000000000000000000000000000000000000000000000000000000000000000000000000000000000000000000000000000000000000000000000000000000000000000000000000000000000000000000000000000000000000000000000000000000000000000000000000000000000000000000000000000000000000000000000000000000000000000000000000000000000000000000000000000000000000000000000000000000000000000000000000000000000000000000000000000000000000000000000000000000000000000000000000000000000000000000000000000000000000000000000000000000000000000000000000000000000000000000000000000000000000000000000000000000000000000000000000000000000000000000000000000000000000000000000000000000000000000000000000000000000000000000000000000000000000000000000000000000000000000000000000000000000000000000000000000000000000000000000000000000000000000000000000000000000000000000000000000000000000000000000000000000000000000000000000000000000000000000000000000000000000000000000000000000000000000000000000000000000000000000000000000000000000000000000000000000000000000000000000000000000000000000000000000000000000000000000000000000000000000000000000000000000000000000000000000000000000000000000000000000000000000000000
#152390:000000000000000000000000000000000000000000000000000000000000000000000000000000000000000000000000000000000000000000000000000000000000000000000000000000000000000000000000000000000000000000000000000000000000000000000000000000000000000000000000000000000000000000000000000000000000000000000000000000000000000000000000000000000000000000000000000000000000000000000000000000000000000000000000000000000000000000000000000000000000000000000000000000000000000000000000000000000000000000000000005400000000000000000000000000000000000000000000000000000000000000000000000000000000000000000000000000000000000000000000000000000000000000000000000000000000000000000000000000000000000000000000000000000000000000000000000000000000000000000000000000000000000000000000000000000000000000000000000000000000000000000000000000000000000000000000000000000000000000000000000000000000000000000000000000000000000000000000000000000000000000000000000000000000000000000000000000000000000000000000540000000000000000000000000000000000000000000000000000000000000000000000000000000000000000000000000000000000000000000000000000000000000000000000000000000000000000000000000000000000000000000000000000000000000000000000000000000000000000000000000000000000000000000000000000000000000000000000000000000000000000000000000000000000000000000000000000000000000000000000000000000000000000000000000000000000000000000000000000000000000000000000000000000000000000000000000000000000000000000000000000000000000000000000000000000000000000000000000000000000000000000000000000000000000000000000000000000000000000000000000000000000000000000000000000000000000000000000000000000000000000000000000000000000000000000000000000000000000000000000000000000000000000000000000000000000000000000000000000000000000000000000000000000000000000000000000000000000000000000000000000000000000000000000000000000000000000000000000000000000000000000000000000000000000000000000000000000000000000000000000000000000000000000000000000000000000000000000000000000000000000000000000000000000000000000000000000000000000000000000000000000000000000000000000000000000000000000000000000000000000000000000000000000000000000000000000000000000000000000000000000000000000000000000000000000000000000000000000000000000000000000000000000000000000000000000000000000000000000000000000000000000000000000000000000000000000000000000000000000000000000000000000000000000000000000000000000000000000000000000000000000000000000000000000000000000000000000000000000000000000000000000000000000000000000000000000000000000000000000000000000000000000000000000000000000000000000000000000000000000000000000000000000000000000000000000000000000000000000000000000000000000000000000000000000000000000000000000000000000000000000000000000000000000000000000000000000000000000000000000000000000000000000000000000000000000000000000000000000000000000000000000000000000000000000000000000000000000000000000000000000000000000000000000000000000000000000000000000000000000000000000000000000000000000000000000000000000000000000000000000000000000000000000000000000000000000000000000000000000000000000000000000000000000000000000000000000000000000000000000000000000000000000000000000000000000000000000000000000000000000000000000000000000000000000000000000000000000000000000000000000000000000000000000000000000000000000000000000000000000000000000000000000000000000000000000000000000000000000000000000000000000000000000000000000000000000000000000000000000000000000000000000000000000000000000000000000000000000000000000000000000000000000000000000000000000000000000000000000000000000000000000000000000000000000000000000000000000000000000000000000000000000000000000000000000000000000000000000000000000000000000000000000000000000000000000000000000000000000000000000000000000000000000000000000000000000000000000000000000000000000000000000000000000000000000000000000000000000000000000
#152370:000000000000000000000000000000000000000000000000000000000000000000000000000000000000000000000000000000000000000000000000000000000000000000000000000000000000000000000000000000000000000000000000000000000000000000000000000000000000000000000000000000000000000000000000000000000000000000000000000000000000000000000000000000000000000000000000000000000000000000000000000000000000000000000000000000000000000000000000000000000000000000000000000000000000000000000000000000000000000000000000000000000000000000000000000000000000000000000000000000000000000000000000000000000000000000000000000000000000000000000000000000000000000000000000000000000000000000000000000000000000000000000000000000000000000000000000000000000000000000000000000000000000000000000000000000000000000000000000000000000000000000000000000000000000000000000000000000000000000000000000000000000000000000000000000000000000000000000000000000000000000000000000000000000000000000000000000000000000000000000000005400000000000000000000000000000000000000000000000000000000000000000000000000000000000000000000000000000000000000000000000000000000000000000000000000000000000000000000000000000000000000000000000000000000000000000000000000000000000000000000000000000000000000000000000000000000000000000000000000000000000000000000000000000000000000000000000000000000000000000000000000000000000000000000000000000000000000000000000000000000000000000000000000000000000000000000000000000000000000000054000000000000000000000000000000000000000000000000000000000000000000000000000000000000000000000000000000000000000000000000000000000000000000000000000000000000000000000000000000000000000000000000000000000000000000000000000000000000000000000000000000000000000000000000000000000000000000000000000000000000000000000000000000000000000000000000000000000000000000000000000000000000000000000000000000000000000000000000000000000000000000000000000000000000000000000000000000000000000000000000000000000000000000000000000000000000000000000000000000000000000000000000000000000000000000000000000000000000000000000000000000000000000000000000000000000000000000000000000000000000000000000000000000000000000000000000000000000000000000000000000000000000000000000000000000000000000000000000000000000000000000000000000000000000000000000000000000000000000000000000000000000000000000000000000000000000000000000000000000000000000000000000000000000000000000000000000000000000000000000000000000000000000000000000000000000000000000000000000000000000000000000000000000000000000000000000000000000000000000000000000000000000000000000000000000000000000000000000000000000000000000000000000000000000000000000000000000000000000000000000000000000000000000000000000000000000000000000000000000000000000000000000000000000000000000000000000000000000000000000000000000000000000000000000000000000000000000000000000000000000000000000000000000000000000000000000000000000000000000000000000000000000000000000000000000000000000000000000000000000000000000000000000000000000000000000000000000000000000000000000000000000000000000000000000000000000000000000000000000000000000000000000000000000000000000000000000000000000000000000000000000000000000000000000000000000000000000000000000000000000000000000000000000000000000000000000000000000000000000000000000000000000000000000000000000000000000000000000000000000000000000000000000000000000000000000000000000000000000000000000000000000000000000000000000000000000000000000000000000000000000000000000000000000000000000000000000000000000000000000000000000000000000000000000000000000000000000000000000000000000000000000000000000000000000000000000000000000000000000000000000000000000000000000000000000000000000000000000000000000000000000000000000000000000000000000000000000000000000000000000000000000000000000000000000000000000000000000000000000000000000000000000000000000000000000000000000000000000000000000000
#152350:000000000000000000000000000000000000000000000000000000000000000000000000000000000000000000000000000000000000000000000000000000000000000000000000000000000000000000000000000000000000000000000000000000000000000000000000000000000000000000000000000000000000000000000000000000000000000000000000000000000000000000000000000000000000000000000000000000000000000000000000000000000000000000000000000000000000000000000000000000000000000000000000000000000000000000000000000000000000000000000000000000000000000000000000000000000000000000000000000000000000000000000000000000000000000000000000000000000000000000000000000000000000000000000000000000000000000000000000000000000000000000000000000000000000000000000000000000000000000000000000000000000000000000000000000000000000000000000000000000000000000000000000000000000000000000000000000000000000000000000000000000000000000000000000000000000000000000000000000000000000000000000000000000000000000000000000000000000000000000000000000000000000000000000000000000000000000000000000000000000000000000000000000000000000000000000000000000000000000000000000000000000000000000000000000000000000000000000000000000000000000000000000000000000000000000000000000000000000000000000000000000000000000000000000000000000000000000000000000000000000000000000000000000000000000000000000000000000000000000000000000000000000000000000000000000000000000000000000000000000000000000000000000000000000000000000000000000000000000000000000005400000000000000000000000000000000000000000000000000000000000000000000000000000000000000000000000000000000000000000000000000000000000000000000000000000000000000000000000000000000000000000000000000000000000000000000000000000000000000000000000000000000000000000000000000000000000000000000000000000000000000000000000000000000000000000000000000000000000000000000000000000000000000000000000000000000000000000000000000000000000000000000000000000000000000000000000000000000000000000054000000000000000000000000000000000000000000000000000000000000000000000000000000000000000000000000000000000000000000000000000000000000000000000000000000000000000000000000000000000000000000000000000000000000000000000000000000000000000000000000000000000000000000000000000000000000000000000000000000000000000000000000000000000000000000000000000000000000000000000000000000000000000000000000000000000000000000000000000000000000000000000000000000000000000000000000000000000000000000000000000000000000000000000000000000000000000000000000000000000000000000000000000000000000000000000000000000000000000000000000000000000000000000000000000000000000000000000000000000000000000000000000000000000000000000000000000000000000000000000000000000000000000000000000000000000000000000000000000000000000000000000000000000000000000000000000000000000000000000000000000000000000000000000000000000000000000000000000000000000000000000000000000000000000000000000000000000000000000000000000000000000000000000000000000000000000000000000000000000000000000000000000000000000000000000000000000000000000000000000000000000000000000000000000000000000000000000000000000000000000000000000000000000000000000000000000000000000000000000000000000000000000000000000000000000000000000000000000000000000000000000000000000000000000000000000000000000000000000000000000000000000000000000000000000000000000000000000000000000000000000000000000000000000000000000000000000000000000000000000000000000000000000000000000000000000000000000000000000000000000000000000000000000000000000000000000000000000000000000000000000000000000000000000000000000000000000000000000000000000000000000000000000000000000000000000000000000000000000000000000000000000000000000000000000000000000000000000000000000000000000000000000000000000000000000000000000000000000000000000000000000000000000000000000000000000000000000000000000000000000000000000000000000000000000000000000000000000000000000000000
#152330:000000000000000000000000000000000000000000000000000000000000000000000000000000000000000000000000000000000000000000000000000000000000000000000000000000000000000000000000000000000000000000000000000000000000000000000000000000000000000000000000000000000000000000000000000000000000000000000000000000000000000000000000000000000000000000000000000000000000000000000000000000000000000000000000000000000000000000000000000000000000000000000000000000000000000000000000000000000000000000000000000000000000000000000000000000000000000000000000000000000000000000000000000000000000000000000000000000000000000000000000000000000000000000000000000000000000000000000000000000000000000000000000000000000000000000000000000000000000000000000000000000000000000000000000000000000000000000000000000000000000000000000000000000000000000000000000000000000000000000000000000000000000000000000000000000000000000000000000000000000000000000000000000000000000000000000000000000000000000000000000000000000000000000000000000000000000000000000000000000000000000000000000000000000000000000000000000000000000000000000000000000000000000000000000000000000000000000000000000000000000000000000000000000000000000000000000000000000000000000000000000000000000000000000000000000000000000000000000000000000000000000000000000000000000000000000000000000000000000000000000000000000000000000000000000000000000000000000000000000000000000000000000000000000000000000000000000000000000000000000000000000000000000000000000000000000000000000000000000000000000000000000000000000000000000000000000000000000000000000000000000000000000000000000000000000000000000000000000000000000000000000000000000000000000000000000000000000000000000000000000000000000000000000000000000000000000000000000000000000000000000000000000000000000000000000000000000000000000000000000000000000000000000000000000000000000000000000000000000000000000000000000000000000000000000000000000000000000000000000000000540000000000000000000000000000000000000000000000000000000000000000000000000000000000000000000000000000000000000000000000000000000000000000000000000000000000000000000000000000000000000000000000000000000000000000000000000000000000000000000000000000000000000000000000000000000000000000000000000000000000000000000000000000000000000000000000000000000000000000000000000000000000000000000000000000000000000000000000000000000000000000000000000000000000000000000000000000000000000000000054000000000000000000000000000000000000000000000000000000000000000000000000000000000000000000000000000000000000000000000000000000000000000000000000000000000000000000000000000000000000000000000000000000000000000000000000000000000000000000000000000000000000000000000000000000000000000000000000000000000000000000000000000000000000000000000000000000000000000000000000000000000000000000000000000000000000000000000000000000000000000000000000000000000000000000000000000000000000000000000000000000000000000000000000000000000000000000000000000000000000000000000000000000000000000000000000000000000000000000000000000000000000000000000000000000000000000000000000000000000000000000000000000000000000000000000000000000000000000000000000000000000000000000000000000000000000000000000000000000000000000000000000000000000000000000000000000000000000000000000000000000000000000000000000000000000000000000000000000000000000000000000000000000000000000000000000000000000000000000000000000000000000000000000000000000000000000000000000000000000000000000000000000000000000000000000000000000000000000000000000000000000000000000000000000000000000000000000000000000000000000000000000000000000000000000000000000000000000000000000000000000000000000000000000000000000000000000000000000000000000000000000000000000000000000000000000000000000000000000000000000000000000000000000000000000000000000000000000000000000000000000000000000000000000000000000000000000000000000000000000
#152320:000000000000000000000000000000000000000000000000000000000000000000000000000000000000000000000000000000000000000000000000000000000000000000000000000000000000000000000000000000000000000000000000000000000000000000000000000000000000000000000000000000000000000000000000000000000000000000000000000000000000000000000000000000000000000000000000000000000000000000000000000000000000000000000000000000000000000000000000000000000000000000000000000000000000000000000000000000000000000000000000000000000000000000000000000000000000000000000000000000000000000000000000000000000000000000000000000000000000000000000000000000000000000000000000000000000000000000000000000000000000000000000000000000000000000000000000000000000000000000000000000000000000000000000000000000000000000000000000000000000000000000000000000000000000000000000000000000000000000000000000000000000000000000000000000000000000000000000000000000000000000000000000000000000000000000000000000000000000000000000000000000000000000000000000000000000000000000000000000000000000000000000000000000000000000000000000000000000000000000000000000000000000000000000000000000000000000000000000000000000000000000000000000000000000000000000000000000000000000000000000000000000000000000000000000000000000000000000000000000000000000000000000000000000000000000000000000000000000000000000000000000000000000000000000000000000000000000000000000000000000000000000000000000000000000000000000000000000000000000000000000000000000000000000000000000000000000000000000000000000000000000000000000000000000000000000000000000000000000000000000000000000000000000000000000000000000000000000000000000000000000000000000000000000000000000000000000000000000000000000000000000000000000000000000000000000000000000000000000000000000000000000000000000000000000000000000000000000000000000000000000000000000000000000000000000000000000000000000000000000000000000000000000000000000000000000000000000000000000000000000000000000000000000000000000000000000000000000000000000000000000000000000000000000000000000000000000000000000000000000000000000000000000000000000000000000000000000000000000000000000000000000000000000000000000000000000000000000000000000000000000000000000000000000000000000000000000000000000000000000000000000000000000000000000000000000000000000000000000000000000000000000000000000000000000000000000000000000000000000000000000000000000000000000000000000000000000000000000000000000000540000000000000000000000000000000000000000000000000000000000000000000000000000000000000000000000000000000000000000000000000000000000000000000000000000000000000000000000000000000000000000000000000000000000000000000000000000000000000000000000000000000000000000000000000000000000000000000000000000000000000000000000000000000000000000000000000000000000000000000000000000000000000000000000000000000000000000000000000000000000000000000000000000000000000000000000000000000000000000000054230000000000000000000000000000000000000000000000000000000000000000000000000000000000000000000000000000000000000000000000000000000000000000000000000000000000000000000000000000000000000000000000000000000000000000000000000000000000000000000000000000000000000000000000000000000000000000000000000000000000000000000000000000000000000000000000000000000000000000000000000000000000000000000000000000000000000000000000000000000000000000000000000000000000000000000000000000000000000000000000000000000000000000000000000000000000000000000000000000000000000000000000000000000000000000000000000000000000000000000000000000000000000000000000000000000000000000000000000000000000000000000000000000000000000000000000000000000000000000000000000000000000000000000000000000000000000000000000000000000000000000000000000000000000000000000000000000000000000000000000000000000000000000000000000000000000000000000000000000000000000000000000000000000000000000000000000000000000000000000000
#1533c0:12
#1533b0:005300000000000000000000000000000000000000000000000000000000000000000000000000000000000000000000000000000000000000000000000000000000000000000000000000000000000000000000000000000000000000000000000000000000000000000000000000000000000000000000000000000000000000000000000000000000000000000000000000000000000000000000000000000000000000000000000000000000000000000000000000000000000000000000000000000000000000000000000000000000000000000000000000000000000000000000000000000000000000000000530000000000000000000000000000000000000000000000000000000000000000000000000000000000000000000000000000000000000000000000000000000000000000000000000000000000000000000000000000000000000000000000000000000000000000000000000000000000000000000000000000000000000000000000000000000000000000000000000000000000000000000000000000000000000000000000000000000000000000000000000000000000000000000000000000000000000000000000000000000000000000000000000000000000000000000000000000000000000000000000000000000000000000000000000000000000000000000000000000000000000000000000000000000000000000000000000000000000000000000000000000000000000000000000000000000000000000000000000000000000000000000000000000000000000000000000000000000000000000000000000000000000000000000000000000000000000000000000000000000000000000000000000000000000000000000000000000000000000000000000000000000000000000000000000000000000000000000000000000000000000000000000000000000000000000000000000000000000000000000000000000000000000000000000000000000000000000000000000000000000000000000000000000000000000000000000000000000000000000000000000000000000000000000000000000000000000000000000000000000000000000000000000000000000000000000000000000000000000000000000000000000000000000000000000000000000000000000000000000000000000000000000000000000000000000000000000000000000000000000000000000000000000000000000000000000000000000000000000000000000000000000000000000000000000000000000000000000000000000000000000000000000000000000000000000000000000000000000000000000000000000000000000000000000000000000000000000000000000000000000000000000000000000000000000000000000000000000000000000000000000000000000000000000000000000000000000000000000000000000000000000000000000000000000000000000000000000000000000000000000000000000000000000000000000000000000000000000000000000000000000000000000000000000000000000000000000000000000000000000000000000000000000000000000000000000000000000000000000000000000000000000000000000000000000000000000000000000000000000000000000000000000000000000000000000000000000000000000000000000000000000000000000000000000000000000000000000000000000000000000000000000000000000000000000000000000000000000000000000000000000000000000000000000000000000000000000000000000000000000000000000000000000000000000000000000000000000000000000000000000000000000000000000000000000000000000000000000000000000000000000000000000000000000000000000000000000000000000000000000000000000000000000000000000000000000000000000000000000000000000000000000000000000000000000000000000000000000000000000000000000000000000000000000000000000000000000000000000000000000000000000000000000000000000000000000000000000000000000000000000000000000000000000000000000000000000000000000000000000000000000000000000000000000000000000000000000000000000000000000000000000000000000000000000000000000000000000000000000000000000000000000000000000000000000000000000000000000000000000000000000000000000000000000000000000000000000000000000000000000000000000000000000000000000000000000000000000000000000000000000000000000000000000000000000000000000000000000000000000000000000000000000000000000000000000000000000000000000000000000000000000000000000000000000000000000000000000000000000000000000000000000000000000000000000000000000000000000000000000000000000000000000000000000000000000000000000000000000000000000000000000000000000000000000000000000000000000000000000000000000
#153390:000000000000000000000000000000000000000000000000000000000000000000000000000000000000000000000000000000000000000000000000000000000000000000000000000000000000000000000000000000000000000000000000000000000000000000000000000000000000000000000000000000000000000000000000000000000000000000000000000000000000000000000000000000000000000000000000000000000000000000000000000000000000000000000000000000000000000000000000000000000000000000000000000000000000000000000000000000000000000000000000005300000000000000000000000000000000000000000000000000000000000000000000000000000000000000000000000000000000000000000000000000000000000000000000000000000000000000000000000000000000000000000000000000000000000000000000000000000000000000000000000000000000000000000000000000000000000000000000000000000000000000000000000000000000000000000000000000000000000000000000000000000000000000000000000000000000000000000000000000000000000000000000000000000000000000000000000000000000000000000000530000000000000000000000000000000000000000000000000000000000000000000000000000000000000000000000000000000000000000000000000000000000000000000000000000000000000000000000000000000000000000000000000000000000000000000000000000000000000000000000000000000000000000000000000000000000000000000000000000000000000000000000000000000000000000000000000000000000000000000000000000000000000000000000000000000000000000000000000000000000000000000000000000000000000000000000000000000000000000000000000000000000000000000000000000000000000000000000000000000000000000000000000000000000000000000000000000000000000000000000000000000000000000000000000000000000000000000000000000000000000000000000000000000000000000000000000000000000000000000000000000000000000000000000000000000000000000000000000000000000000000000000000000000000000000000000000000000000000000000000000000000000000000000000000000000000000000000000000000000000000000000000000000000000000000000000000000000000000000000000000000000000000000000000000000000000000000000000000000000000000000000000000000000000000000000000000000000000000000000000000000000000000000000000000000000000000000000000000000000000000000000000000000000000000000000000000000000000000000000000000000000000000000000000000000000000000000000000000000000000000000000000000000000000000000000000000000000000000000000000000000000000000000000000000000000000000000000000000000000000000000000000000000000000000000000000000000000000000000000000000000000000000000000000000000000000000000000000000000000000000000000000000000000000000000000000000000000000000000000000000000000000000000000000000000000000000000000000000000000000000000000000000000000000000000000000000000000000000000000000000000000000000000000000000000000000000000000000000000000000000000000000000000000000000000000000000000000000000000000000000000000000000000000000000000000000000000000000000000000000000000000000000000000000000000000000000000000000000000000000000000000000000000000000000000000000000000000000000000000000000000000000000000000000000000000000000000000000000000000000000000000000000000000000000000000000000000000000000000000000000000000000000000000000000000000000000000000000000000000000000000000000000000000000000000000000000000000000000000000000000000000000000000000000000000000000000000000000000000000000000000000000000000000000000000000000000000000000000000000000000000000000000000000000000000000000000000000000000000000000000000000000000000000000000000000000000000000000000000000000000000000000000000000000000000000000000000000000000000000000000000000000000000000000000000000000000000000000000000000000000000000000000000000000000000000000000000000000000000000000000000000000000000000000000000000000000000000000000000000000000000000000000000000000000000000000000000000000000000000000000000000000000000000000000000000000000000000000000000000000000000000000000000000000000000000000000000000000000000000000
#153370:000000000000000000000000000000000000000000000000000000000000000000000000000000000000000000000000000000000000000000000000000000000000000000000000000000000000000000000000000000000000000000000000000000000000000000000000000000000000000000000000000000000000000000000000000000000000000000000000000000000000000000000000000000000000000000000000000000000000000000000000000000000000000000000000000000000000000000000000000000000000000000000000000000000000000000000000000000000000000000000000000000000000000000000000000000000000000000000000000000000000000000000000000000000000000000000000000000000000000000000000000000000000000000000000000000000000000000000000000000000000000000000000000000000000000000000000000000000000000000000000000000000000000000000000000000000000000000000000000000000000000000000000000000000000000000000000000000000000000000000000000000000000000000000000000000000000000000000000000000000000000000000000000000000000000000000000000000000000000000000000005300000000000000000000000000000000000000000000000000000000000000000000000000000000000000000000000000000000000000000000000000000000000000000000000000000000000000000000000000000000000000000000000000000000000000000000000000000000000000000000000000000000000000000000000000000000000000000000000000000000000000000000000000000000000000000000000000000000000000000000000000000000000000000000000000000000000000000000000000000000000000000000000000000000000000000000000000000000000000000053000000000000000000000000000000000000000000000000000000000000000000000000000000000000000000000000000000000000000000000000000000000000000000000000000000000000000000000000000000000000000000000000000000000000000000000000000000000000000000000000000000000000000000000000000000000000000000000000000000000000000000000000000000000000000000000000000000000000000000000000000000000000000000000000000000000000000000000000000000000000000000000000000000000000000000000000000000000000000000000000000000000000000000000000000000000000000000000000000000000000000000000000000000000000000000000000000000000000000000000000000000000000000000000000000000000000000000000000000000000000000000000000000000000000000000000000000000000000000000000000000000000000000000000000000000000000000000000000000000000000000000000000000000000000000000000000000000000000000000000000000000000000000000000000000000000000000000000000000000000000000000000000000000000000000000000000000000000000000000000000000000000000000000000000000000000000000000000000000000000000000000000000000000000000000000000000000000000000000000000000000000000000000000000000000000000000000000000000000000000000000000000000000000000000000000000000000000000000000000000000000000000000000000000000000000000000000000000000000000000000000000000000000000000000000000000000000000000000000000000000000000000000000000000000000000000000000000000000000000000000000000000000000000000000000000000000000000000000000000000000000000000000000000000000000000000000000000000000000000000000000000000000000000000000000000000000000000000000000000000000000000000000000000000000000000000000000000000000000000000000000000000000000000000000000000000000000000000000000000000000000000000000000000000000000000000000000000000000000000000000000000000000000000000000000000000000000000000000000000000000000000000000000000000000000000000000000000000000000000000000000000000000000000000000000000000000000000000000000000000000000000000000000000000000000000000000000000000000000000000000000000000000000000000000000000000000000000000000000000000000000000000000000000000000000000000000000000000000000000000000000000000000000000000000000000000000000000000000000000000000000000000000000000000000000000000000000000000000000000000000000000000000000000000000000000000000000000000000000000000000000000000000000000000000000000000000000000000000000000000000000000000000000000000000000000000000000000000000000000000000
#153360:000000000000000000000000000000000000000000000000000000000000000000000000000000000000000000000000000000000000000000000000000000000000000000000000000000000000000000000000000000000000000000000000000000000000000000000000000000000000000000000000000000000000000000000000000000000000000000000000000000000000000000000000000000000000000000000000000000000000000000000000000000000000000000000000000000000000000000000000000000000000000000000000000000000000000000000000000000000000000000000000000000000000000000000000000000000000000000000000000000000000000000000000000000000000000000000000000000000000000000000000000000000000000000000000000000000000000000000000000000000000000000000000000000000000000000000000000000000000000000000000000000000000000000000000000000000000000000000000000000000000000000000000000000000000000000000000000000000000000000000000000000000000000000000000000000000000000000000000000000000000000000000000000000000000000000000000000000000000000000000000000000000000000000000000000000000000000000000000000000000000000000000000000000000000000000000000000000000000000000000000000000000000000000000000000000000000000000000000000000000000000000000000000000000000000000000000000000000000000000000000000000000000000000000000000000000000000000000000000000000000000000000000000000000000000000000000000000000000000000000000000000000000000000000000000000000000000000000000000000000000000000000000000000000000000000000000000000000000000000000000005300000000000000000000000000000000000000000000000000000000000000000000000000000000000000000000000000000000000000000000000000000000000000000000000000000000000000000000000000000000000000000000000000000000000000000000000000000000000000000000000000000000000000000000000000000000000000000000000000000000000000000000000000000000000000000000000000000000000000000000000000000000000000000000000000000000000000000000000000000000000000000000000000000000000000000000000000000000000000000053000000000000000000000000000000000000000000000000000000000000000000000000000000000000000000000000000000000000000000000000000000000000000000000000000000000000000000000000000000000000000000000000000000000000000000000000000000000000000000000000000000000000000000000000000000000000000000000000000000000000000000000000000000000000000000000000000000000000000000000000000000000000000000000000000000000000000000000000000000000000000000000000000000000000000000000000000000000000000000000000000000000000000000000000000000000000000000000000000000000000000000000000000000000000000000000000000000000000000000000000000000000000000000000000000000000000000000000000000000000000000000000000000000000000000000000000000000000000000000000000000000000000000000000000000000000000000000000000000000000000000000000000000000000000000000000000000000000000000000000000000000000000000000000000000000000000000000000000000000000000000000000000000000000000000000000000000000000000000000000000000000000000000000000000000000000000000000000000000000000000000000000000000000000000000000000000000000000000000000000000000000000000000000000000000000000000000000000000000000000000000000000000000000000000000000000000000000000000000000000000000000000000000000000000000000000000000000000000000000000000000000000000000000000000000000000000000000000000000000000000000000000000000000000000000000000000000000000000000000000000000000000000000000000000000000000000000000000000000000000000000000000000000000000000000000000000000000000000000000000000000000000000000000000000000000000000000000000000000000000000000000000000000000000000000000000000000000000000000000000000000000000000000000000000000000000000000000000000000000000000000000000000000000000000000000000000000000000000000000000000000000000000000000000000000000000000000000000000000000000000000000000000000000000000000000000000000000000000000000000000000000000000000000000000000000000000000000000000000000000000
#153340:000000000000000000000000000000000000000000000000000000000000000000000000000000000000000000000000000000000000000000000000000000000000000000000000000000000000000000000000000000000000000000000000000000000000000000000000000000000000000000000000000000000000000000000000000000000000000000000000000000000000000000000000000000000000000000000000000000000000000000000000000000000000000000000000000000000000000000000000000000000000000000000000000000000000000000000000000000000000000000000000000000000000000000000000000000000000000000000000000000000000000000000000000000000000000000000000000000000000000000000000000000000000000000000000000000000000000000000000000000000000000000000000000000000000000000000000000000000000000000000000000000000000000000000000000000000000000000000000000000000000000000000000000000000000000000000000000000000000000000000000000000000000000000000000000000000000000000000000000000000000000000000000000000000000000000000000000000000000000000000000000000000000000000000000000000000000000000000000000000000000000000000000000000000000000000000000000000000000000000000000000000000000000000000000000000000000000000000000000000000000000000000000000000000000000000000000000000000000000000000000000000000000000000000000000000000000000000000000000000000000000000000000000000000000000000000000000000000000000000000000000000000000000000000000000000000000000000000000000000000000000000000000000000000000000000000000000000000000000000000000000000000000000000000000000000000000000000000000000000000000000000000000000000000000000000000000000000000000000000000000000000000000000000000000000000000000000000000000000000000000000000000000000000000000000000000000000000000000000000000000000000000000000000000000000000000000000000000000000000000000000000000000000000000000000000000000000000000000000000000000000000000000000000000000000000000000000000000000000000000000000000000000000000000000000000000000000000000000000000000000530000000000000000000000000000000000000000000000000000000000000000000000000000000000000000000000000000000000000000000000000000000000000000000000000000000000000000000000000000000000000000000000000000000000000000000000000000000000000000000000000000000000000000000000000000000000000000000000000000000000000000000000000000000000000000000000000000000000000000000000000000000000000000000000000000000000000000000000000000000000000000000000000000000000000000000000000000000000000000000053000000000000000000000000000000000000000000000000000000000000000000000000000000000000000000000000000000000000000000000000000000000000000000000000000000000000000000000000000000000000000000000000000000000000000000000000000000000000000000000000000000000000000000000000000000000000000000000000000000000000000000000000000000000000000000000000000000000000000000000000000000000000000000000000000000000000000000000000000000000000000000000000000000000000000000000000000000000000000000000000000000000000000000000000000000000000000000000000000000000000000000000000000000000000000000000000000000000000000000000000000000000000000000000000000000000000000000000000000000000000000000000000000000000000000000000000000000000000000000000000000000000000000000000000000000000000000000000000000000000000000000000000000000000000000000000000000000000000000000000000000000000000000000000000000000000000000000000000000000000000000000000000000000000000000000000000000000000000000000000000000000000000000000000000000000000000000000000000000000000000000000000000000000000000000000000000000000000000000000000000000000000000000000000000000000000000000000000000000000000000000000000000000000000000000000000000000000000000000000000000000000000000000000000000000000000000000000000000000000000000000000000000000000000000000000000000000000000000000000000000000000000000000000000000000000000000000000000000000000000000000000000000000000000000000000000000000000000000000000000000
#153320:000000000000000000000000000000000000000000000000000000000000000000000000000000000000000000000000000000000000000000000000000000000000000000000000000000000000000000000000000000000000000000000000000000000000000000000000000000000000000000000000000000000000000000000000000000000000000000000000000000000000000000000000000000000000000000000000000000000000000000000000000000000000000000000000000000000000000000000000000000000000000000000000000000000000000000000000000000000000000000000000000000000000000000000000000000000000000000000000000000000000000000000000000000000000000000000000000000000000000000000000000000000000000000000000000000000000000000000000000000000000000000000000000000000000000000000000000000000000000000000000000000000000000000000000000000000000000000000000000000000000000000000000000000000000000000000000000000000000000000000000000000000000000000000000000000000000000000000000000000000000000000000000000000000000000000000000000000000000000000000000000000000000000000000000000000000000000000000000000000000000000000000000000000000000000000000000000000000000000000000000000000000000000000000000000000000000000000000000000000000000000000000000000000000000000000000000000000000000000000000000000000000000000000000000000000000000000000000000000000000000000000000000000000000000000000000000000000000000000000000000000000000000000000000000000000000000000000000000000000000000000000000000000000000000000000000000000000000000000000000000000000000000000000000000000000000000000000000000000000000000000000000000000000000000000000000000000000000000000000000000000000000000000000000000000000000000000000000000000000000000000000000000000000000000000000000000000000000000000000000000000000000000000000000000000000000000000000000000000000000000000000000000000000000000000000000000000000000000000000000000000000000000000000000000000000000000000000000000000000000000000000000000000000000000000000000000000000000000000000000000000000000000000000000000000000000000000000000000000000000000000000000000000000000000000000000000000000000000000000000000000000000000000000000000000000000000000000000000000000000000000000000000000000000000000000000000000000000000000000000000000000000000000000000000000000000000000000000000000000000000000000000000000000000000000000000000000000000000000000000000000000000000000000000000000000000000000000000000000000000000000000000000000000000000000000000000000000000000000000000000530000000000000000000000000000000000000000000000000000000000000000000000000000000000000000000000000000000000000000000000000000000000000000000000000000000000000000000000000000000000000000000000000000000000000000000000000000000000000000000000000000000000000000000000000000000000000000000000000000000000000000000000000000000000000000000000000000000000000000000000000000000000000000000000000000000000000000000000000000000000000000000000000000000000000000000000000000000000000000000053220000000000000000000000000000000000000000000000000000000000000000000000000000000000000000000000000000000000000000000000000000000000000000000000000000000000000000000000000000000000000000000000000000000000000000000000000000000000000000000000000000000000000000000000000000000000000000000000000000000000000000000000000000000000000000000000000000000000000000000000000000000000000000000000000000000000000000000000000000000000000000000000000000000000000000000000000000000000000000000000000000000000000000000000000000000000000000000000000000000000000000000000000000000000000000000000000000000000000000000000000000000000000000000000000000000000000000000000000000000000000000000000000000000000000000000000000000000000000000000000000000000000000000000000000000000000000000000000000000000000000000000000000000000000000000000000000000000000000000000000000000000000000000000000000000000000000000000000000000000000000000000000000000000000000000000000000000000000000000000000
#154370:122200000000000000000000000000000000000000000000000000000000000000000000000000000000000000000000000000000000000000000000000000000000000000000000000000000000000000000000000000000000000000000000000000000000000000000000000000000000000000000000000000000000000000000000000000000000000000000000000000000000000000000000000000000000000000000000000000000000000000000000000000000000000000000000000000000000000000000000000000000000000000000000000000000000000000000000000000000000000000000000000000000000000000000000000000000000000000000000000000000000000000000000000000000000000000000000000000000000000000000000000000000000000000000000000000000000000000000000000000000000000000000000000000000000000000000000000000000000000000000000000000000000000000000000000000000000000000000000000000000000000000000000000000000000000000000000000000000000000000000000000000000000000000000000000000000000000000000000000000000000000000000000000000000000000000000000000000000000000000000000000000000000000000000000000000000000000000000000000000000000000000000000000000000000000000000000000000000000000000000000000000000000000000000000000000000000000000000000000000000000000000000000000000000000000000000000000000000000000000000000000000000000000000000000000000000000000000000000000000000000000000000000000000000000000000000000000000000000000000000000000000000000000000000000000000000000000000000000000000000000000000000000000000000000000000000000000000000000000000000000000000000000000000000000000000000000000000000000000000000000000000000000000000000000000000000000000000000000000000000000000000000000000000000000000000000000000000000000000000000000000000000000000000000000000000000000000000000000000000000000000000000000000000000000000000000000000000000000000000000000000000000000000000000000000000000000000000000000000000000000000000000000000000000000000000000000000000000000000000000000000000000000000000000000000000000000000000000000000000000000000000000000000000000000000000000000000000000000000000000000000000000000000000000000000000000000000000000000000000000000000000000000000000000000000000000000000000000000000000000000000000000000000000000000000000000000000000000000000000000000000000000000000000000000000000000000000000000000000000000000000000000000000000000000000000000000000000000000000000000000000000000000000000000000000000000000000000000000000000000000000000000000000000000000000000000000000000000000000000000000000000000000000000000000000000000000000000000000000000000000000000000000000000000000000000000000000000000000000000000000000000000000000000000000000000000000000000000000000000000000000000000000000000000000000000000000000000000000000000000000000000000000000000000000000000000000000000000000000000000000000000000000000000000000000000000000000000000000000000000000000000000000000000000000000000000000000000000000000000000000000000000000000000000000000000000000000000000000000000000000000000000000000000000000000000000000000000000000000000000000000000000000000000000000000000000000000000000000000000000000000000000000000000000000000000000000000000000000000000000000000000000000000000000000000000000000000000000000000000000000000000000000000000000000000000000000000000000000000000000000000000000000000000000000000000000000000000000000000000000000000000000000000000000000000000000000000000000000000000000000000000000000000000000000000000000000000000000000000000000000000000000000000000000000000000000000000000000000000000000000000000000000000000000000000000000000000000000000000000000000000000000000000000000000000000000000000000000000000000000000000000000000000000000000000000000000000000000000000000000000000000000000000000000000000000000000000000000000000000000000000000000000000000000000000000000000000000000000000000000000000000000000000000000000000000000000000000000000000000000000000000000000000000000000000000000000000000000000000000000000
#154360:001400000000000000000000000000000000000000000000000000000000000000000000000000000000000000000000000000000000000000000000000000000000000000000000000000000000000000000000000000000000000000000000000000000000000000000000000000000000000000000000000000000000000000000000000000000000000000000000000000000000000000000000000000000000000000000000000000000000000000000000000000000000000000000000000000000000000000000000000000000000000000000000000000000000000000000000000000000000000000000000000000000000000000000000000000000000000000000000000000000000000000000000000000000000000000000000000000000000000000000000000000000000000000000000000000000000000000000000000000000000000000000000000000000000000000000000000000000000000000000000000000000000000000000000000000000000000000000000000000000000000000000000000000000000000000000000000000000000000000000000000000000000000000000000000000000000000000000000000000000000000000000000000000000000000000000000000000000000000000000000000000000000000000000000000000000000000000000000000000000000000000000000000000000000000000000000000000000000000000000000000000000000000000000000000000000000000000000000000000000000000000000000000000000000000000000000000000000000000000000000000000000000000000000000000000000000000000000000000000000000000000000000000000000000000000000000000000000000000000000000000000000000000000000000000000000000000000000000000000000000000000000000000000000000000000000000000000000000000000000000000000000000000000000000000000000000000000000000000000000000000000000000000000000000000000000000000000000000000000000000000000000000000000000000000000000000000000000000000000000000000000000000000000000000000000000000000000000000000000000000000000000000000000000000000000000000000000000000000000000000000000000000000000000000000000000000000000000000000000000000000000000000000000000000000000000000000000000000000000000000000000000000000000000000000000000000000000000000000000000000
#155360:0034
#1553b0:0000000000000053
#156360:00340000
#156320:0000000000530000
#157360:34000034
#1573b0:0000005300000000
#158320:0053000000000000
#158360:0024
#160320:0013000000000000
#160370:00230000
#161320:13000000533323000000000000000000
#161370:00533333000000000000000000000000
#1613b1:00000013000000000000000000000000
#161361:00000000533323000000000000000000
#1613b1:00000000000000001300000053332300
#161361:00000000000000000053333300000000
#161320:00000000000000000000001300000000
#161370:00000000000000000000000053332300
#1623b0:0013
#162350:00000000000000000053333300000000
#162320:00000000000000000000000053332300
#162321:0013
#162381:00000000000000000053333300000000
#1623b1:00000000000000000000000053332300
#1643b1:0013000000000000
#164361:00230000
#1653b1:13000000533323000000000000000000
#165361:00533333000000000000000000000000
#165320:00000013000000000000000000000000
#165370:00000000533323000000000000000000
#165320:0014
#1653a0:00000000000000000000342400000000
#166320:14
#1663a0:00003424000000000000000000000000
#168320:001c0000
#1683b0:000000000000003333333333230000000000000000000000
#169320:0000000000001c3333333333230000000000000000000000
#170320:0000000000001c3333333333230000000000000000000000
#171320:000000000000000000000000001323000000000000000000
#171350:000000000000000000000000000000132300000000000000
#171380:000000000000000000000000000000000013230000000000
#171350:000000000000000000000000000000000000001323000000
#171320:000000000000000000000000000000000000000000132300
#1723b0:001323000000000000000000000000000000000000000000
#172380:000000132300000000000000000000000000000000000000
#172350:000000000013230000000000000000000000000000000000
#172380:000000000000001323000000000000000000000000000000
#1723b0:000000000000000000132300000000000000000000000000
#172320:000000000000000000000000001323000000000000000000
#172350:000000000000000000000000000000132300000000000000
#172380:000000000000000000000000000000000013230000000000
#172350:000000000000000000000000000000000000001323000000
#172320:000000000000000000000000000000000000000000132300
#1733b0:001323000000000000000000000000000000000000000000
#173380:000000132300000000000000000000000000000000000000
#173350:000000000013230000000000000000000000000000000000
#173380:000000000000001323000000000000000000000000000000
#1733b0:000000000000000000132300000000000000000000000000
#173320:0014
#1733a0:00000000000000000000342400000000
#1743a0:14
#174320:00003424000000000000000000000000
#1743b0:00000000000000001300000053230000
#174360:00000000000000000053333300000000
#174321:00000000000000000000001300000000
#174371:00000000000000000000000053230000
#175321:0014
#176321:0034
#1763a1:00000000000000000054000000000000
#1773a1:24
#1763a0:0014
#176320:00000000000000000054000000000000
#177320:24
#182320:13333323000000000000000000000000
#1823b0:00000000000013333323000000000000
#182320:00000000000000000000000013333323
#2013a0:1400002400000000
#201320:00000054000000000000000000000000
#201321:0000001300000000
#201371:00000023
#2033b1:13230000
#203371:0053000000000000
#203361:0000001300230000
#203321:0053
#2043a1:14240000
#204341:0054000000000000
#204320:00142400
#204380:0000005400000000
#2043a1:00001424
#204341:0000000000540000
#204320:00000014
#204380:0000000000000054
#205320:24
#206320:13
#206370:00230000
#2063b0:0000001300000000
#206360:0000000000230000
#2083a0:00140024
#208320:00000000000000003454000000000000
#2083a1:00000000000000001454000000000000
#208321:00000024
#209321:1400002400000000
#2093a1:00000054000000000000000000000000
#2093b0:0000001300000000
#209360:00000023
#211320:13230000
#211360:0053000000000000
#211370:0000001300230000
#2113b0:0053
#212320:14240000
#212380:0054000000000000
#2123a1:00142400
#212341:0000005400000000
#212320:00001424
#212380:0000000000540000
#2123a1:00000014
#212341:0000000000000054
#2133a1:24
#2143b1:13
#214361:00230000
#214321:0000001300000000
#214371:0000000000230000
#216321:00140024
#2163a1:00000000000000003454000000000000
#216320:00000000000000001454000000000000
#2163a0:00000024
#241380:132300000000000000000000
#241320:000000132300000000000000
#241380:000000000000132300000000
#241320:000000000000000000132300
#242350:132300000000000000000000
#2423b0:000000132300000000000000
#242350:000000000000132300000000
#2423b0:000000000000000000132300
#245350:13
#245320:002300000000000000000000
#2453b0:00130000
#245380:002300
#245350:0013
#245320:000000000000002300000000
#2453b0:00000013
#245380:000000000023
#246380:13
#2463b0:002300000000000000000000
#246320:00130000
#246350:002300
#246380:0013
#2463b0:000000000000002300000000
#246320:00000013
#246350:000000000023
#257370:12525252525252525252525252525252
#257320:005c005c005c005c005c005c005c005c005c005c005c005c005c005c005c005c
#258370:52525252525252525252525252525252
#258330:005a005a005a005a005a005a005a005a005a005a005a005a005a005a005a005a
#259370:52525252525252525252525252525252
#259340:0058005800580058005800580058005800580058005800580058005800580058
#260370:52525252525252525252525252525252
#260350:0056005600560056005600560056005600560056005600560056005600560056
#261370:525252525252525252525252220000000000000000000000
#261360:005400540054005400540054005400540054005400540054000000000000000000000000000000000000000000000000
