This file was generated by Ched 2.7.0.0.
#TITLE ""
#ARTIST ""
#DESIGNER ""
#DIFFICULTY 0
#PLAYLEVEL
#SONGID ""
#WAVE ""
#WAVEOFFSET 0
#JACKET ""
#REQUEST "ticks_per_beat 480"
#00002: 4
#BPM01: 183
#00008: 01
#TIL00: ""
#VOLUME: ""
#HISPEED 00
#MEASUREHS 00
#0501a:0014
#05012:14
#04812:0014
#0481a:24
#04810:41
#0161a:14
#01610:41
#01712:14
#02018:14
#02114:14
#0241a:14
#02512:14
#05218:14
#05214:0014
#05318:14
#05314:0014
#05514:14
#05518:0014
#00018:14
#00118:14
#00218:14
#00318:14
#00414:14
#00514:14
#00614:14
#00714:14
#0181a:14
#01912:14
#02218:14
#02314:14
#0231f:0011
#02618:14
#02714:14
#0281a:14
#02912:14
#03018:14
#03114:14
#06618:0016
#06712:16
#06812:0016
#06918:16
#06912:0016
#07112:16
#07118:0016
#07212:1616
#07412:0016
#07518:16
#07618:0016
#07712:16
#07718:0016
#07918:16
#07912:0016
#03914:14
#03918:0014
#04718:14
#04714:0014
#05812:0014
#0581a:14
#0561a:0014
#05612:24
#05610:41
#06014:14
#06018:0014
#06114:14
#06118:0014
#06318:14
#06314:0014
#07318:16
#0321a:24
#0321f:21
#04012:24
#06512:26
#06510:41
#03310:41
#08010:41
#0083a0:14
#0093a0:24
#010320:14
#011320:24
#012380:14
#013380:24
#014340:14
#015340:24
#0323a0:1424
#033320:1424
#0343a0:1424
#035320:1424
#036380:1424
#037340:1424
#038380:1424
#040320:1424
#0413a0:1424
#042320:1424
#0433a0:1424
#044340:1424
#045380:1424
#046340:1424
#0493a0:1424
#051320:1424
#0543a0:1424
#057320:1424
#0593a0:1424
#062320:1424
#064390:14
#064380:0026
#065320:0016
#066320:26
#067380:0016
#068380:26
#070380:1626
#073380:0016
#074380:26
#075320:0016
#076320:26
#078320:1626
#080380:1434
#081380:34
#081390:0034
#0823a0:3434
#0833a0:34
#083380:0024
#084340:1434
#085340:34
#085330:0034
#086320:3434
#087320:34
#087340:00003424
