This file was generated by Ched 2.7.0.0.
#TITLE ""
#ARTIST ""
#DESIGNER ""
#DIFFICULTY 0
#PLAYLEVEL
#SONGID ""
#WAVE ""
#WAVEOFFSET 0
#JACKET ""
#REQUEST "ticks_per_beat 480"
#00002: 4
#BPM01: 183
#00008: 01
#TIL00: ""
#VOLUME: ""
#HISPEED 00
#MEASUREHS 00
#0231f:0011
#02316:13
#02317:00130000
#02312:0013
#0231b:1313
#07118:0000001300130013
#07115:00001313
#0711a:14
#07112:24140000
#06712:00162600
#0671b:13
#06716:14
#06715:0000001600000000
#0671a:00000014
#06714:0000000000000014
#06718:00260000
#06518:2600160026000014
#06515:0000001600000000
#06512:26260014
#06510:41
#06918:00130000
#06915:00000013000013000000000000000000
#0691b:0013
#06912:13001313
#06916:14
#06917:0000000000000013
#07915:0000000000130000
#07918:0000001300000000
#07914:00000013
#07919:00000013
#0791b:23130000
#07912:23130000
#07916:0000000000000014
#0791a:0013
#07913:0013
#0781b:1300000000000013
#07812:0000001313000000
#07816:00000013
#07817:00130000
#07714:0016000000000000
#07712:00260024
#07719:0025
#07718:26
#07616:0000000000000016
#07615:0000000000130000
#07612:13241326
#07618:0000001300002600
#0761b:00130000
#0761a:2424
#07316:00130000
#07312:1300000000130000
#07318:0000000000000013
#07315:00000013
#0731a:24242424
#07212:2613
#07214:0000001300000013
#07216:00130000
#0721a:00242424
#07218:26
#06112:13231400
#06116:0013001400000000
#0611b:13000013
#06114:0000000000000013
#0611a:00240000
#07515:0000000000000013
#07518:00000013
#0751b:13
#07517:00230000
#07512:24242424
#0741b:1300130000005313
#07417:0000000013130000
#07419:00000000000013000000005300000000
#07412:24242424
#0541b:1300000000000013
#05417:0013
#05412:1300001313000000
#07016:0000001313000000
#0701b:0013
#07017:13
#07012:13
#0701a:0000000000000024
#06816:00001413
#06814:0000000000000013
#0681a:00000014
#06817:00130000
#0681b:0013
#06819:0000001300000000
#06812:14140000
#06818:14
#06617:00000013
#06619:0000000000000013
#06612:00001314
#06614:1400001300000000
#06616:00131400
#0661a:14140000
#0601b:0013
#06015:0000001300001300
#06018:0000130000000013
#06012:0013
#0601a:14
#06212:1300000000000013
#06216:0013
#0621b:1300001313000000
#06412:1456
#0641a:14
#06418:00005623
#06415:0000000000000023
#05918:13130000
#05912:13002514
#05915:00130000
#05916:0000000000000014
#05919:0025
#0581b:0013000013001300
#05815:0000000013000013
#05812:13130000
#05816:14
#05818:0000001300000000
#05716:1400001414001414
#0571b:13131300
#05712:0013000000000000
#05616:0000001414001414
#05612:26131300
#05618:16
#05610:41
#0631a:00140014
#06316:2400001400140014
#06312:0014
#05314:0000000000000013
#0531b:00001313
#05312:13
#05315:00130000
#05318:0000001300000000
#05218:0000001300001300
#05215:0000130000000013
#0521b:0013
#05212:14
#05115:13130000
#0511b:13
#05118:00130000
#05116:0000000000000014
#0511a:00000014
#05112:0025
#05119:0025
#05012:0013000013001300
#05018:0000000013000013
#0501b:13130000
#05016:14
#05015:0000001300000000
#0471a:1414
#04716:0000001400001400
#04714:0000000000000014
#04718:0000000000140000
#04712:26140000
#04916:1400001414001414
#04912:13131300
#0491b:0013000000000000
#04816:0000001414001414
#0481b:00131300
#04812:16
#04818:26
#04810:41
#08716:0000220000000012
#08718:0000001200002200
#0871a:0022
#08719:22
#08617:0000220022000012
#08615:0000001200002200
#08618:22
#08516:0000000000000012
#08517:0000001200000000
#08518:22000022
#08519:0022
#08515:00220000
#08416:0000000000000012
#08417:0000001200000000
#08414:22000022
#08419:00222200
#0841a:22
#08316:0000220000000012
#08318:0000001200002200
#0831a:0022
#08319:22
#08217:0000220022000012
#08215:0000001200002200
#08218:22
#08116:0000000000000012
#08117:0000001200000000
#08118:22000022
#08119:0022
#08115:00220000
#08016:0000000000000012
#08017:0000001200000000
#08014:22000022
#08019:00222200
#0801a:22
#08010:41
#04617:0000001313000000
#04616:13
#04618:0000000000000013
#04615:00000013
#04612:0013
#0461b:13
#03817:13
#03816:0000001313000000
#0381b:0000000013000013
#03812:13
#0391b:13
#03912:13220000
#0391c:0000000000000022
#0391a:0000000000220000
#03916:00000022
#03914:0022
#03918:0000002200000000
#04018:0000130000000013
#04015:00130013
#04016:24
#0451b:00001313
#04514:0000001300000000
#04512:13130000
#04516:0000000000000013
#0441b:00001313
#04419:0000000000000013
#04412:13130000
#04414:0000001300000000
#04318:00000013
#04315:0000000000000013
#04316:00130000
#0431b:00130000
#04317:0023
#04312:0023
#04217:00130000
#04212:00000013
#04214:0000000000000013
#04219:0000001300000000
#0421b:13
#0411b:00130000
#04116:00130000
#04115:00000013
#04118:0000000000000013
#04112:13
#03717:00000013
#0371a:0013
#03718:00130000
#0371b:13
#03712:0000000000000013
#03612:00001313
#03614:0000000000000013
#0361b:13130000
#03619:0000001300000000
#03515:00000013
#03518:0000000000000013
#03517:00130000
#03512:00130000
#03516:0023
#0351b:0023
#03416:00130000
#0341b:00000013
#03419:0000000000000013
#03414:0000001300000000
#03412:13
#03218:26002313
#03215:0000000023000013
#03212:16130000
#0321b:00130000
#0321f:21
#03312:00130000
#03317:00130000
#03318:00000013
#03315:0000000000000013
#0331b:13
#03310:41
#02816:13130013
#02812:0013
#0281b:13130013
#02819:0000001300000000
#02817:0013
#02116:13
#02114:0013
#02119:00130000
#02112:0000000000000013
#02117:00000013
#0211b:13
#01716:00130000
#01714:00000013
#01719:0013
#0171b:13
#02012:00131300
#02017:0000001300000000
#02016:0000000000000013
#0201b:00000013
#02212:0013
#0221b:00130013
#02214:0013000000000000
#02219:13
#02216:0000000000000013
#03118:0023000000000016
#03112:1400240013241526
#0311a:2400140000140000
#03119:00000025
#0311b:0023
#03115:0000002300000000
#0291b:00001313
#02918:0000000000000013
#02912:00130013
#02914:0000000000130000
#02916:0013
#02917:00130000
#02919:0000001300000000
#03016:00140000
#0301a:00000014
#03018:0000000000130000
#03015:1300000013000023
#03012:0013001300002400
#02715:0000000000000013
#02717:0013
#02714:0000001300001300
#02719:00000013
#02718:0000000000130000
#0271b:13130000
#02712:1313
#02612:00000013
#02616:1313
#02617:00130000
#0261b:1313
#02619:0000000000000013
#02614:0000001300000000
#02512:13130013
#0251b:1313
#02519:0000000000000013
#02418:00130013
#02415:0013001300000013
#0241b:1313
#02412:1313
#01914:0000000000130000
#01919:00000013
#01912:1300000000000013
#0191b:00131300
#01917:13
#01916:0000001300000000
#0181b:0013
#01817:13
#01812:0000000000000013
#01816:0000001300000000
#01613:13
#01615:0000130013000013
#01618:0013001300001300
#0161a:13
#01610:41
#01516:0000120000000012
#01518:0000001200001200
#0151a:0012
#01519:12
#01214:12000012
#0121a:12
#01216:0000000000000012
#01219:00121200
#01217:0000001200000000
#01417:0000120012000012
#01415:0000001200001200
#01418:12
#01316:0000000000000012
#01318:12000012
#01319:0012
#01317:0000001200000000
#01315:00120000
#01116:0000120000000012
#01118:0000001200001200
#0111a:0012
#01119:12
#00814:12000012
#0081a:12
#00816:0000000000000012
#00819:00121200
#00817:0000001200000000
#05512:00140014
#05516:2400001400140014
#0551a:0014
#01017:0000120012000012
#01015:0000001200001200
#01018:12
#00916:0000000000000012
#00918:12000012
#00919:0012
#00917:0000001200000000
#00915:00120000
#0071a:52005252
#00714:00525200
#00717:0052000000005200
#00715:52
#00615:0052
#00619:5252
#00613:52
#00513:00000052
#00515:0000000000520000
#00517:0052
#00519:0000005200000000
#0051b:00520000
#00512:52
#0051c:52
#00416:00525252
#0041c:00000052
#00418:0000005200000000
#00413:52
#0041b:52
#0031b:00000052
#00319:0000000000520000
#00317:5252
#00315:0000005200000000
#00313:00520000
#00312:52
#00217:0052
#00212:5252
#00114:00000052
#00116:0052
#00118:00520000
#0011a:52
#0001c:00000052
#00013:0052
#00015:0000005200000000
#00017:00520000
#00019:0052000000000000
#0001b:52
#0785b:6343
#07856:13000023
#07852:0053
#07857:00230000
#07756:00000014
#07754:0026000015000000
#07758:66460000
#07752:36560054
#07759:0065
#0755b:1313
#06758:00664600
#06752:00365600
#06756:14
#06755:0000002600000000
#06552:16563600
#06558:16466600
#06555:0000002600000000
#0615a:00644400
#06152:53335400
#06156:0023002400000000
#0615b:13
#0405b:0013
#04052:0013
#04056:14
#04058:00530000
#04055:00630000
#0435b:13630000
#04357:0013
#04352:0013
#04356:00630000
#04152:1313
#04157:0013
#0415b:00630000
#04156:00630000
#03552:13530000
#03556:0013
#0355b:0013
#03557:00530000
#0335b:1313
#03356:0013
#03352:00530000
#03357:00530000
#02957:13
#02952:13
#02355:00000013
#02358:00000013
#02356:63
#02357:00530000
#02352:0053
#0235b:0063
#0795b:43
#07952:33
#07652:13000056
#07658:00000046
#07656:0000000000000026
#07252:1653
#07258:16
#07152:14
#0715a:64
#05959:0015
#05952:0015
#05958:13530000
#05955:00630000
#06356:14
#05652:1613
#05656:0054
#05658:66
#05152:0015
#05159:0015
#05155:13630000
#05158:00530000
#03255:0013
#03258:1613
#03252:66530000
#0325b:00630000
#05556:14
#04858:16
#04856:0064
#0485b:0013
#04852:56
#04752:16
#0475a:64
#07356:00630000
#07352:13
#0745b:13
#0545b:63
#05457:0013
#05452:1353
#07056:0063
#0705b:0013
#07057:53
#07052:13
#0695b:0063
#06952:0013
#06956:14
#06856:0014
#06852:14
#06858:14
#06654:14
#06656:0014
#0665a:14
#0605b:0063
#0605a:14
#06252:53
#06256:0013
#0625b:1363
#05855:0013
#05852:13
#0585b:0023000000000000
#05856:54
#0575b:1313
#05752:0023000000000000
#05756:6464
#05058:0013
#0505b:13
#05052:0023000000000000
#05056:64
#04952:1313
#0495b:0023000000000000
#04956:5454
#04657:0053
#04656:63
#03857:53
#03856:0063
#0395b:63
#03952:13
#04452:13
#0425b:13
#0365b:13
#03452:13
#02856:00000063
#02852:0053
#0285b:00000063
#02156:63
#02154:0063
#02159:00630000
#0215b:13
#01756:00630000
#01754:00000063
#01759:0063
#0175b:63
#02052:0053
#02252:0053
#0225b:00630000
#02752:53
#0265b:0063
#02656:63
#0255b:6363
#02552:00530000
#01952:53
#0185b:0063
#01857:53
#05252:14
#0173b0:13
#017390:00230000
#017361:00130000
#017341:0023
#017390:0013
#017370:00000023
#017341:00000013
#018321:23
#018370:13
#0183b0:0000002300000000
#0183b0:0013
#018370:0000000000000023
#019320:13
#019360:00230000
#020370:13230000
#020320:0013
#020360:00000023
#021360:13
#021340:00230000
#021391:00130000
#021371:0023
#021340:0013
#021320:00000023
#0223b0:00130000
#022370:0023
#022321:0013
#022361:00000023
#023361:13
#023321:00230000
#023370:00130000
#0233b0:0033
#023380:00000023
#023321:0013
#023351:00000023
#0253b1:13
#025371:00230000
#025320:00130000
#025360:0023
#0253b1:0013
#025371:00000023
#026361:13
#026321:00230000
#0263b1:0013
#026371:00000023
#027321:13
#027361:00230000
#028321:0013
#028361:00000033
#029321:23
#0283b0:00000013
#029370:23
#032320:16330000
#032350:0023
#0323b1:00130000
#032381:0023
#033321:13330000
#033361:0023
#033370:00130000
#0333b0:0023
#0343b0:1323
#034321:0013
#035321:23
#035370:13330000
#0353b0:0023
#035321:00130000
#035361:0023
#036321:13230000
#036371:00001323
#037361:13
#037331:00330000
#037351:0033
#037321:00000023
#038371:13
#0383b1:0000002300000000
#038361:0013
#038321:0000000000000023
#0393b1:13
#039371:00230000
#039320:0000122200000000
#039381:0000001222000000
#039340:0000000012220000
#0393a1:0000000000122200
#039360:0000000000001222
#0393c1:0000000000000012
#0403c1:22
#040381:00130000
#0403b1:0023
#040350:00130000
#040320:0023
#0413b0:13330000
#041370:0023
#041361:00130000
#041321:0023
#042321:1323
#0423b0:0013
#0433b0:23
#043361:13330000
#043321:0023
#0433b0:00130000
#043370:0023
#0443b0:13230000
#044360:00001323
#045370:13230000
#045360:00001323
#046360:13
#046320:0000002300000000
#046370:0013
#0463b0:00000023
#0473a0:14
#047360:00240000
#048320:16
#048360:00240000
#048360:0014
#048320:00000023
#049360:14240000
#0493b0:0053000000000000
#049360:0014
#0493b0:00000023
#050360:14240000
#050320:0053000000000000
#051350:00130000
#051320:0025
#051381:00130000
#051391:0025
#052321:00001323
#0533b1:13230000
#053321:0013
#053361:00000023
#0543b1:13
#054371:0000002300000000
#054321:0013
#054361:0000000000000023
#0553b1:13
#055361:00240000
#056381:16
#056361:00240000
#056361:0014
#0563b1:00000023
#057361:14240000
#057321:0053000000000000
#057361:0014
#057321:00000023
#058361:14240000
#0583b1:0053000000000000
#059381:00130000
#059391:0025
#059350:00130000
#059320:0025
#0603b0:0013
#060380:00000023
#061320:13230000
#061360:0053000000000000
#0613a1:00142400
#061361:0000005400000000
#061320:0014
#061360:00000024
#062320:13
#062360:0000002300000000
#0623b0:0013
#062370:0000000000000023
#063320:13
#063360:00240000
#065320:00162600
#065350:0000005600000000
#065381:0016
#065361:00000024
#067381:00162600
#067351:0000005600000000
#067320:0016
#067360:00000024
#0693b0:0013
#069370:00000023
#070370:13
#0703b0:0000002300000000
#070360:0013
#070320:0000000000000023
#0713a0:14
#071360:00240000
#072320:0013
#072360:00000023
#073360:00130000
#073320:0023
#075370:00130000
#075390:000000000000000000000000000000000000000000000000000000000000000000000000000000000000000000000000000000000000000000000000000000000000000000000000000000000000000000000000000000000000000000000000000000000000000000000000000000000000000000000000000000000000000000000000000000000000000000000000000000000000000000000000000000000000000000000000000000000000000000000000000000000000000000000000000000000000000000000000000000000000000000000000000000000000000000000000000000000000000000000000000000000000000000000000000000000000000000000000000000000000000000000000000000000000000000000000000000000000000000000000000000000000000000000000000000000000000000000000000000000000000000000000000000000000000000000000000000000000000000000000000000000000000000000000000000000000000000000000000000000000000000000000000000000000000000000000000000000000000000000000000000000000000000000000000000000000000000000000000000000000000000000000000000000000000000000000000000000000000000000000000000000000000000000000000000000000000000000000000000000000000000005300000000000000000000000000000000000000000000000000000000000000000000000000000000000000000000000000000000000000000000000000000000000000000000000000000000000000000000000000000000000000000000000000000000000053000000000000000000000000000000000000000000000000000000000000000000000000000000000000000000000000000000000000000000000000000000000000000000000000000000000000000000000000000000000000000000000000000000000000000000000000000000000000000000000000000000000000000000000000000000000000000000000000000000000000000000000000000000000000000000000000000000000000000000000000000000000000000000000000000000000000000000000000000000000000000000000000000000000000000000000000000000000000000000000000000000000000000000000000000000000000000000000000000000000000000000000000000000000000000000000000000000000000000000000000000000000000000000000000000000000000000000000000000000000000000000000000000000000000000000000000000000000000000000000000000000000000000000000000000000000000000000000000000000000000000000000000000000000000000000000000000000000000000000000000000000000000000000000000000000000000000000000000000000000000000000000000000000000000000000000000000000000000000000000000000000000000000000000000000000000000000000000000000000000000000000000000000000000000000000000000000000000000000000000000000000000000000000000000000000000000000000000000000000000000000000000000000000000000000000000000000000000000000000000000000000000000000000000000000000000000000000000000000000000000000000000000000000000000000000000000000000000000000000000000000000000000000000000000000000000000000000000000000000000000000000000000000000000000000000000000000000000000000000000000000000000000000000000000000000000000000000000000000000000000000000000000000000000000000000000000000000000000000000000000000000000000000000000000000000000000000000000000000000000000000000000000000000000000000000000000000000000000000000000000000000000000000000000000000000000000000000000000000000000000000000000000000000000000000000000000000000000000000000000000000000000000000000000000000000000000000000000000000000000000000000000000000000000000000000000000000000000000000000000000000000000000000000000000000000000000000000000000000000000000000000000000000000000000000000000000000000000000000000000000000000000000000000000000000000000000000000000000000000000000000000000000000000000000000000000000000000000000000000000000000000000000000000000000000000000000000000000000000000000000000000000000000000000000000000000000000000000000000000000000000000000000000000000000000000000000000000000000000000000000000000000000000000000000000000000000000000000000000000000000000000000000000000000000000000000000000000000000000000000000000000000000000000000000000000000000000000000000000000000000000000000000000000000000000000000000000000000000000000000000000000000000000000000000
#075380:000000000000000000000000000000000000000000000000000000000000000000000000000000000000000000000000000000000000000000000000000000000000000000000000000000000000000000000000000000000000000000000000000000000000000000000000000000000000000000000000000000000000000000000000000000000053000000000000000000000000000000000000000000000000000000000000000000000000000000000000000000000000000000000000000000000000000000000000000000000000000000000000000000000000000000000000000000000000000000000000000000000000000000000000000000000000000000000000000000000000000000000000000000000000000000000000000000000000000000000000000000000000000000000000000000000000000000000000000000000000000000000000000000000000000000000000000000000000000000000000000000000000000000000000000000000000000000000000000000000000000000000000000000000000000000000000000000000000000000000000000000000000000000000000000000000000000000000000000000000000000000000000000000000000000000000000000000000000000000000000
#0753a0:000000000000000000000000000000000000000000000000000000000000000000000000000000000000000000000000000000000000000000000000000000000000000000000000000000000000000000000000000000000000000000000000000000000000000000000000000000000000000000000000000000000000000000000000000000000000000000000000000000000000000000000000000000000000000000000000000000000000000000000000000000000000000000000000000000000000000000000000000000000000000000000000000000000000000000000000000000000000000000000000000000000000000000000000000000000000000000000000000000000000000000000000000000000000000000000000000000000000000000000000000000000000000000000000000000000000000000000000000000000000000000000000000000000000000000000000000000000000000000000000000000000000000000000000000000000000000000000000000000000000000000000000000000000000000000000000000000000000000000000000000000000000000000000000000000000000000000000000000000000000000000000000000000000000000000000000000000000000000000000000000000000000000000000000000000000000000000000000000000000000000000000000000000000000000000000000000000000000000000000000000000000000000000000000000000000000000000000000000000000000000000000000000000000000530000000000000000000000000000000000000000000000000000000000000000000000000000000000000000000000000000000000000000000000000000000000000000000000000000000000000000000000000000000000000000000000000000000000005300000000000000000000000000000000000000000000000000000000000000000000000000000000000000000000000000000000000000000000000000000000000000000000000000005300000000000000000000000000000000000000000000000000000000000000000000000000000000000000000000000000000000000000000000000000000000000000000000000000000000000000530000000000000000000000000000000000000000000000000000000000000000000000000000000000000000000000000000000000000000000000000000000000000000000000000000000000000053000000000000000000000000000000000000000000000000000000000000000000000000000000000000000000000000000000000000000000000000000000000000000000000000000000000000000000000000000000000000000000000000000000000000000000000000000000000000000000000000000000000000000000000000000000000000000000000000000000000000000000000000000000000000000000000000000000000000000000000000000000000000000000000000000000000000000000000000000000000000000000000000000000000000000000000000000000000000000000000000000000000000000000000000000000000000000000000000000000000000000000000000000000000000000000000000000000000000000000000000000000000000000000000000000000000000000000000000000000000000000000000000000000000000000000000000000000000000000000000000000000000000000000000000000000000000000000000000000000000000000000000000000000000000000000000000000000000000000000000000000000000000000000000000000000000000000000000000000000000000000000000000000000000000000000000000000000000000000000000000000000000000000000000000000000000000000000000000000000000000000000000000000000000000000000000000000000000000000000000000000000000000000000000000000000000000000000000000000000000000000000000000000000000000000000000000000000000000000000000000000000000000000000000000000000000000000000000000000000000000000000000000000000000000000000000000000000000000000000000000000000000000000000000000000000000000000000000000000000000000000000000000000000000000000000000000000000000000000000000000000000000000000000000000000000000000000000000000000000000000000000000000000000000000000000000000000000000000000000000000000000000000000000000000000000000000000000000000000000000000000000000000000000000000000000000000000000000000000000000000000000000000000000000000000000000000000000000000000000000000000000000000000000000000000000000000000000000000000000000000000000000000000000000000000000000000000000000000000000000000000000000000000000000000000000000000000000000000000000000000000000000000000000000000000000000000000000000000000000000000000000000000000000
#0753b0:000000000000000000000000000000000000000000000000000000000000000000000000000000000000000000000000000000000000000000000000000000000000000000000000000000000000000000000000000000000000000000000000000000000000000000000000000000000000000000000000000000000000000000000000000000000000000000000000000000000000000000000000000000000000000000000000000000000000000000000000000000000000000000000000000000000000000000000000000000000000000000000000000000000000000000000000000000000000000000000000000000000000000000000000000000000000000000000000000000000000000000000000000000000000000000000000000000000000000000000000000000000000000000000000000000000000000000000000000000000000000000000000000000000000000000000000000000000000000000000000000000000000000000000000000000000000000000000000000000000000000000000000000000000000000000000000000000000000000000000000000000000000000000000000000000000000000000000000000000000000000000000000000000000000000000000000000000000000000000000000000000000000000000000000000000000000000000000000000000000000000000000000000000000000000000000000000000000000000000000000000000000000000000000000000000000000000000000000000000000000000000000000000000000000000000000000000000000000000000000000000000000000000000000000000000000000000000000000000000000000000000000000000000000000000000000000000000530000000000000000000000000000000000000000000000000000000000000000000000000000000000000000000000000000000000000000000000000000000000000000530000000000000000000000000000000000000000000000000000000000000000000000000000000000000000000000000000000000000000000000000000000000000000000000000000000000000053000000000000000000000000000000000000000000000000000000000000000000000000000000000000000000000000000000000000000000000000000000000000000000000000000000000000005300000000000000000000000000000000000000000000000000000000000000000000000000000000000000000000000000000000000000000000000000000000000000000000000000000000000000230000000000000000000000000000000000000000000000000000000000000000000000000000000000000000000000000000000000000000000000000000000000000000000000000000000000000000000000000000000000000000000000000000000000000000000000000000000000000000000000000000000000000000000000000000000000000000000000000000000000000000000000000000000000000000000000000000000000000000000000000000000000000000000000000000000000000000000000000000000000000000000000000000000000000000000000000000000000000000000000000000000000000000000000000000000000000000000000000000000000000000000000000000000000000000000000000000000000000000000000000000000000000000000000000000000000000000000000000000000000000000000000000000000000000000000000000000000000000000000000000000000000000000000000000000000000000000000000000000000000000000000000000000000000000000000000000000000000000000000000000000000000000000000000000000000000000000000000000000000000000000000000000000000000000000000000000000000000000000000000000000000000000000000000000000000000000000000000000000000000000000000000000000000000000000000000000000000000000000000000000000000000000000000000000000000000000000000000000000000000000000000000000000000000000000000000000000000000000000000000000000000000000000000000000000000000000000000000000000000000000000000000000000000000000000000000000000000000000000000000000000000000000000000000000000000000000000000000000000000000000000000000000000000000000000000000000000000000000000000000000000000000000000000000000000000000000000000000000000000000000000000000000000000000000000000000000000000000000000000000000000000000000000000000000000000000000000000000000000000000000000000000000000000000000000000000000000000000000000000000000000000000000000000000000000000000000000000000000000000000000000000000000000000000000000000000000000000000000000000000000000000000000000000000000000000000000000000000000000000000000000000000000000000000000000000000000000000000000000000000
#076320:00000016
#076360:0000000000000056
#077320:26
#077381:16260000
#077341:0056000000000000
#077320:00160000
#077340:0025
#077391:0015
#077361:00000024
#077320:00000014
#078360:23
#0783b1:1323
#078371:00530000
#078320:0013
#078360:00000053
#079320:23
#002920:1222
#002971:0012
#003971:22
#0039b1:00000012
#0049b1:22
#004961:00001222
#0049c0:00000012
#0059c0:22
#005930:00000012
#006930:22
#006991:1222
#006950:0012
#007950:22
#007940:00122200
#0079a1:00001222
#064921:1426
#0649a0:14
#064980:0026
#074970:0000000000130000
#0749b0:000000000000000000000000000000000000000000000000000000000000000000000000000000000000000000000000000000000000000000000000000000000000000000000000000000000000000000000000000000000000000000000000000000000000000000000000000000000000000000000000000000000000000000000000000000000000000000000000000000000000000000000000000000000000000000000000000000000000000000000000000000000000000000000000000000000000000000000000000000000000000000000000000000000000000000000000000000000000000000000000000000000000000000000000000000000000000000000000000000000000000000000000000000000000000000000000000000000000000000000000000000000000000000000000000000000000000000000000000000000000000000000000000000000000000000000000000000000000000000000000000000000000000000000000000000000000000000000000000000000000000000000000000000000000000000000000000000000000000000000000000000000000000000000000000000000000000000000000000000000000000000000000000000000000000000000000000000000000000000000000000000000000000000000000000000000000000000000000000000000000000000000000000000000000000000000000000000000000000000000000000000000000000000000000000000000000000000000000000000000000000000000000000000000000000000000000000000000000000000000000000000000000000000000000000000000000000000000000000000000000000000000000000000000000000000000000000000000000000000000000000000000000000000000000000000000000000000000000000000000000000000000000000000000000000000000000000000000000000000000000000000000000000000000000000000000000000000000000000000000000000000000000000000000000000000000000000000000000000000000000000000000000000000000000000000000000000000000000000000000000000000000000000000000000000000000000000000000000000000000000000000000000000000000000000000000000000000000000000000000000000000000000000000000000000000000000000000000000000000000000000000000000000000000000000000000000000000000000000000000000000000000000000000000000000000000000000000000000000000000000000000000000000000000000000000000000000000000000000000000000000000000000000000000000000000000000000000000000000000000000000000000000000000000000000000000000000000000000000000000000000000000000000000000000000000000000000000000000000000000000000000000000000000000000000000000000000000000000000000000000000000000000000000000000000000000000000000000000000000000000000000000000000000000000000000000000000000000000000000000000000000000000000000000000000000000000000000000000000000000000000000000000000000000000000000000000000000000000000000000000000000000000000000000000000000000000000000000000000000000000000000000000000000000000000000000000000000000000000000000000000000000000000000000000000000000000000000000000000000000000000000000000000000000000000000000000000000000000000000000000000000000000000000000000000000000000000000000000000000000000000000000000000000000000000000000000000000000000000000000000000000000000000000000000000000000000000000000000000000000053230000000000000000000000000000000000000000000000000000000000000000000000000000000000000000000000000000000000000000000000000000000000000000000000000000000000000000000000000000000000000000000000000000000000000000000000000000000000000000000000000000000000000000000000000000000000000000000000000000000000000000000000000000000000000000000000000000000000000000000000000000000000000000000000000000000000000000000000000000000000000000000000000000000000000000000000000000000000000000000000000000000000000000000000000000000000000000000000000000000000000000000000000000000000000000000000000000000000000000000000000000000000000000000000000000000000000000000000000000000000000000000000000000000000000000000000000000000000000000000000000000000000000000000000000000000000000000000000000000000000000000000000000000000000000000000000000000000000000000000000000000000000000000000000000000000000000000000000000000000000000000000000000000000000000000000000000000000000000000000000
