This file was generated by Ched 2.7.0.0.
#TITLE ""
#ARTIST ""
#DESIGNER ""
#DIFFICULTY 0
#PLAYLEVEL
#SONGID ""
#WAVE ""
#WAVEOFFSET 0
#JACKET ""
#REQUEST "ticks_per_beat 480"
#00002: 4
#BPM01: 183
#00008: 01
#TIL00: ""
#VOLUME: ""
#HISPEED 00
#MEASUREHS 00
#0501a:14000014
#05012:00140000
#05014:0014
#04914:00000014
#04912:14
#0491a:00140000
#07112:00140000
#07116:0014
#0711a:00000014
#03214:00140000
#03218:00000014
#0321a:24
#0321f:21
#04818:00000014
#04812:00140000
#0481a:24
#04810:41
#0651a:00000014
#06518:26
#06512:00260000
#06510:41
#06612:14000014
#06616:0014
#0661a:00140000
#06914:00140000
#06918:14
#0691a:0014
#06916:00000014
#05118:14000014
#05112:00140000
#05114:0024
#05212:14000014
#0521a:00140000
#05218:0014
#06716:14
#06712:00000014
#06718:00260000
#01818:14
#01618:1414
#01614:00140000
#01610:41
#01714:1414
#01718:00140000
#01914:1414
#01918:00140014
#02014:14
#02018:0014
#02112:1414
#0211a:00140000
#0221a:1414
#02214:00140000
#02312:1414
#02318:00140000
#0231f:0011
#02618:14
#0261a:00140000
#02418:14
#02414:00140000
#0241a:0014
#02514:14
#02518:00140000
#02512:0014
#02714:14
#02719:00140000
#02713:0014
#02718:00000014
#0291a:1414
#02912:00140014
#03018:1414
#03014:00140014
#0311a:14
#03112:00140000
#03118:0014
#03114:00000014
#02812:14
#02816:0014
#03314:14000014
#03318:00140000
#03310:41
#03418:14
#03412:00141400
#0341a:00000014
#0351a:14
#03514:00140000
#03518:00000014
#03614:14
#0361a:00141400
#03612:00000014
#03712:14
#0371a:00140000
#03714:0014
#03718:00000014
#0391a:00140000
#03914:0014
#03918:00000014
#04018:00140000
#04014:00000014
#04012:24
#04118:14000014
#04114:00140000
#04214:14
#0421a:00141400
#04212:00000014
#04312:14
#04314:00000014
#04318:00140000
#0431a:0024
#04418:14
#04412:00141400
#0441a:00000014
#0451a:14
#04512:00140000
#04518:0014
#04514:00000014
#0461a:14
#04618:0014
#04712:00140000
#04718:0014
#04714:00000014
#05314:14
#05318:00140000
#05312:0014
#0531a:00000014
#05414:14
#05412:0014
#03812:14
#03814:0014
#05518:00140000
#05514:0014
#0551a:00000014
#05812:14000014
#0581a:00140000
#05818:0014
#05718:00000014
#0571a:14
#05712:00140000
#05614:00000014
#0561a:00140000
#05612:24
#05610:41
#05914:14000014
#0591a:00140000
#05918:0024
#0601a:14000014
#06012:00140000
#06014:0014
#06118:14
#06114:00140000
#0611a:0014
#06112:00000014
#06218:14
#0621a:0014
#06314:00140000
#06318:0014
#06312:00000014
#0641a:14
#06414:00000014
#0681a:14
#06812:00000014
#06818:0014
#06814:00140000
#0701a:14
#07016:0014
#07312:00000014
#07316:1414
#0731a:00140000
#0741a:14000014
#07416:0014
#07412:00140000
#07212:14
#07218:00140000
#07214:0014
#0721a:00000014
#0751a:00000014
#07516:14
#07512:00260000
#07812:14
#07816:0014
#07718:00140000
#07714:14
#07712:0014
#07716:00000014
#07612:14
#0761a:00000014
#07614:0014
#07618:00140000
#0791a:00140000
#07916:0014
#07912:00000014
#08010:41
#0485a:14
#04852:00540000
#04854:0014
#06558:16
#06552:00560000
#06555:0016
#03254:00640000
#0325a:14
#03252:0014
#0335a:0014
#03358:00540000
#06758:00660000
#06755:0016
#01858:54
#0185a:0014
#02658:5414
#0265a:00240000
#03554:00640000
#03552:0014
#04058:00540000
#04052:14
#0405a:0014
#04154:00640000
#04152:0014
#0465a:64
#04658:0054
#0475a:14
#0495a:00640000
#04958:0014
#04358:00540000
#0435a:0014
#05152:00540000
#05154:0014
#05454:64
#05452:0054
#05554:14
#03852:54
#03854:0064
#03952:14
#0565a:00640000
#05652:14
#05658:0014
#05752:00540000
#05754:0014
#0595a:00640000
#05958:0014
#06258:54
#0625a:0064
#06358:14
#0645a:64
#0705a:64
#07056:0054
#0715a:14
#07852:54
#07856:0064
#07552:00560000
#07555:0016
#07952:14
#0003a0:1424
#001320:1424
#0023a0:1424
#003320:1424
#004380:1424
#005340:1424
#006380:1424
#007340:1424
#008380:14
#0083a0:0034
#0093a0:34
#009380:0034
#010380:34
#0103a0:0034
#0113a0:34
#011380:0024
#012340:14
#012320:0034
#013320:34
#013340:0034
#014340:34
#014320:0034
#015320:34
#015340:0024
#018380:14
#0183a0:0024
#026380:1424
#0263a0:00540000
#032340:00140000
#032320:0024
#033380:00140000
#0333a0:0024
#035340:00140000
#035320:0024
#038320:14
#038340:0034
#039320:24
#040380:00140000
#0403a0:0024
#041340:00140000
#041320:0024
#043380:00140000
#0433a0:0024
#0463a0:14
#046380:0034
#0473a0:24
#048320:00140000
#048340:0024
#0493a0:00140000
#049380:0024
#051320:00140000
#051340:0024
#054340:14
#054320:0034
#055340:24
#0563a0:00140000
#056380:0024
#057320:00140000
#057340:0024
#0593a0:00140000
#059380:0024
#062380:14
#0623a0:0034
#063380:24
#0643a0:14
#064380:0024
#065320:00160000
#065350:0026
#067380:00160000
#067350:0026
#0703a0:14
#070360:0034
#0713a0:24
#075320:00160000
#075350:0026
#078320:14
#078360:0034
#079320:24
#0803a0:14000034
#080380:00343400
#0813a0:34000024
#081380:00343400
#082320:14000034
#082340:00343400
#083320:34000024
#083340:00343400
#084380:14000034
#0843a0:00343400
#085380:34000024
#0853a0:00343400
#086340:14000034
#086320:00343400
#087340:34000024
#087320:00343400
