This file was generated by Ched 2.7.0.0.
#TITLE ""
#ARTIST ""
#DESIGNER ""
#DIFFICULTY 0
#PLAYLEVEL
#SONGID ""
#WAVE ""
#WAVEOFFSET 0
#JACKET ""
#REQUEST "ticks_per_beat 480"
#00002: 4
#BPM01: 170
#00008: 01
#TIL00: ""
#VOLUME: ""
#HISPEED 00
#MEASUREHS 00
#00018:14
#00114:14
#00314:14
#00418:14
#00512:14
#0061a:14
#00714:14
#00818:14
#00912:14
#00910:41
#0181a:14
#01814:0014
#0191a:14
#02012:14
#02018:0014
#02112:14
#0221a:14
#02214:0014
#0231a:14
#02412:14
#02418:0014
#02512:14
#02510:41
#03412:0016
#03418:26
#0341f:21
#03518:16
#03512:0016
#03510:41
#03818:1616
#03918:16
#04012:1616
#04112:16
#04618:00160016
#04812:00160016
#05114:00000014
#0511a:00240000
#0521a:00140000
#05312:00140000
#05318:00000014
#05310:41
#05412:00140000
#0551a:00140000
#05514:00000014
#0561a:00140000
#05712:00140000
#05718:00000014
#05812:00140000
#05914:00000014
#0591a:00240000
#0601a:00140000
#06014:00000014
#06118:00140000
#06112:00000014
#06218:00140000
#06312:00140000
#06318:00000014
#06412:00140000
#06418:00000014
#06514:00140000
#0651a:00000014
#0261f:11
#0021a:24
#04218:26
#04312:26
#04318:0026
#04412:00260000
#04418:00000026
#04512:00260000
#04510:41
#01710:41
#0103a0:14
#0113a0:24
#012340:14
#013340:24
#014380:14
#015380:24
#016320:14
#017320:24
#026390:15
#027370:35
#028390:35
#029370:25
#030320:15
#031340:35
#032320:35
#033340:25
#036380:1626
#037320:1626
#045320:00160026
#047380:00160026
#049320:00160026
#066340:00140024
