This file was generated by Ched 2.7.0.0.
#TITLE ""
#ARTIST ""
#DESIGNER ""
#DIFFICULTY 0
#PLAYLEVEL
#SONGID ""
#WAVE ""
#WAVEOFFSET 0
#JACKET ""
#REQUEST "ticks_per_beat 480"
#00002: 4
#BPM01: 170
#00008: 01
#TIL00: ""
#VOLUME: ""
#HISPEED 00
#MEASUREHS 00
#00014:12525252
#0001a:1200000000120012
#00018:0012001200001200
#00118:12
#00116:0012001200000000
#00114:52120000
#0011a:00000012
#00215:00130013
#00218:0000001300000013
#0021b:00000013
#00212:2400000000130000
#0021a:24
#00312:1313
#0031b:1313
#00315:0013001300001300
#00318:0000130000130013
#00412:1300001300000000
#00415:0013000000001300
#00418:0000000000130013
#0041b:1300001300000000
#00512:13
#00515:0013001300000000
#00518:0000130000240000
#0051b:0013
#00514:00000024
#00615:0013001300000013
#00612:13000013
#0061b:1300000000130000
#00618:0000001300001300
#0071b:1313
#00712:1313
#00718:0013001300001300
#00715:0000130000130013
#00815:0000000000130013
#00818:0013000000001300
#0081b:1300001300000000
#00812:1300001300000000
#0091b:13
#00918:0013001300001300
#00915:0000130000130013
#00912:0013
#00910:41
#01012:13
#01016:00130000
#0101b:23130000
#01015:00000013
#0101a:0013
#01014:0000000000000053
#01019:0000000000530000
#01018:00000053
#0121b:13
#01216:13
#01217:0013
#01212:0013
#01312:00130000
#01315:0000001300001300
#01318:0000000013000013
#0131b:0000000000130000
#0141b:13
#01417:00130000
#01412:13130000
#01418:00000013
#01413:0013
#01419:0000000000000053
#01414:0000000000530000
#01415:00000053
#01512:13
#01515:0013001300000013
#01518:00130013
#0151b:0000000000130000
#0151a:53
#01616:0013
#0161b:0013
#01612:23
#01617:23
#01719:0013000000000000
#01714:0013000000000000
#01716:00130000
#0171b:00130000
#01718:0000001300001300
#01715:00000000000000130000000000000000
#0171a:0014
#01712:00000014
#01710:41
#01812:00001313
#01817:0000000013131300
#0181b:23
#01816:23
#01916:13130013
#0191b:13000013
#01917:0013000013000000
#01912:0013
#01919:0000000000130000
#02016:13
#02012:0013000013131300
#0201b:1300130000130000
#02017:0013
#02117:13130013
#02112:13000013
#02116:0013000013000000
#0211b:0013
#02114:0000000000130000
#0221b:00001313
#02216:00001313
#02219:0000000000130000
#02312:13001313
#02317:13001313
#02314:0000000000130000
#0241b:13000013
#02416:13
#02412:00001313
#02415:0000000000130000
#02418:0000000013000013
#02515:13
#0251b:13130000
#02512:00130000
#02518:00000000000012000000001200120000
#02516:00000000000000120000120000001200
#0251a:0023
#02513:00000023
#02510:41
#0261b:13330000
#02618:0013
#02612:1313
#02615:00130000
#0261f:11
#02712:13330000
#02715:0013
#02718:00130000
#0271b:0013
#02818:13330000
#0281b:0013
#02812:00130000
#02815:0013
#02915:13330000
#02912:0013
#0291b:00130000
#02918:0013
#0301b:13330000
#03012:00131300
#03016:00000013
#03112:13330013
#03117:13000013
#0311b:00131300
#03216:13
#03212:0033333333333333
#0331a:14
#03318:00000013
#03312:0013
#03315:00000013
#0331b:0013
#03412:1414
#03416:0014000000141300
#03417:00130000
#0341a:2414
#0341f:21
#03516:1414
#03512:0014000014001300
#0351a:1400000000140000
#0351b:00130000
#03510:41
#03615:13000013
#03612:0014000000140000
#03618:13131300
#0361a:0014000000140000
#03712:0014000000140000
#0371a:0014000000140000
#03718:00131300
#03715:13000013
#03812:13
#03815:0013000000000000
#03818:00130000
#0381b:0000001300000000
#03816:0013
#03819:0000000000130000
#03814:00000013
#03817:0000000000000013
#03912:0013000000000000
#03915:0000131300000013
#03918:0000001300001300
#0391b:0000000000130000
#04012:1313
#04015:0013000000130000
#04018:00130013
#0401b:0000000000000013
#04112:0013000000000000
#04114:00130000
#04116:0000001300000000
#0411b:0000001300130000
#04118:00000013
#04115:0000000000000013
#04218:0000000000000013
#04215:00000000000000000000000000000013
#04212:24
#0421a:24
#04416:0000001400140015
#04412:00240024
#0441a:00242400
#04515:0015000000000000
#0451a:2400000000140014
#04512:0000240000000014
#04510:41
#04316:0000121200000000
#04318:26000000001200120000002600001400
#04314:00000000000000000000001400000000
#04312:0000000026000026
#0461a:14
#04612:14130000
#04615:0000001300000000
#04618:0013
#0461b:0000000000130000
#04716:0014000000000000
#04712:0000000000150000
#04715:00000014
#04718:0000000000000013
#0481a:13
#04818:0013001300000013
#04815:00141300
#0481b:0000130000130000
#04812:0000000000130000
#04918:13
#04915:13
#04912:00140000
#0491a:00140014
#04916:0000000000000014
#05012:14
#05016:00000013
#0501b:00000063
#05117:13
#05116:0000131300000000
#0511a:00241400
#05115:0000000000160000
#05118:0000000000000013
#05112:6300000000000033
#0521a:1414
#05213:00130013
#0521b:00130013
#05216:0000001300130013
#0531a:1414
#05316:0013001300000000
#05319:00130000
#05315:0000000000160000
#05318:0000000000000013
#05312:0000000000000033
#05310:41
#0541a:1414
#05415:0000130000130000
#05418:0000001300001300
#05412:0000000013000026
#0541b:0000000000000013
#0591a:0014
#05916:0013
#05918:0000000000000013
#05912:00000000000000000000000000153300
#05914:0000000000180000
#05915:26
#0601a:1414
#06012:00130013
#06017:00130000
#06014:0013001300130000
#06016:0014
#0601b:00000013
#06018:0000000000000013
#0611a:1414
#06115:13
#06112:00001300000000000000000000153300
#06116:0000141400000000
#0611b:00130000
#06118:0000000000000013
#06114:0000000000180000
#0621a:1414
#06216:0014000000000000
#06218:0000001300000000
#06212:0000000013000026
#06215:0000000000130000
#0661a:00002413
#06615:0000000000000013
#06618:00000000000000000000000000000013
#06612:14240000
#06616:0014000000000000
#06613:00000013
#06715:13
#0671a:0014000000000000
#06712:0014000000000000
#05517:0000131300000000
#05512:00131400
#05515:0000000000160013
#05518:26
#0551b:0000000000000033
#05612:14131413
#0561a:00130013
#05617:0000001300130013
#05712:1414
#05717:0013001300000000
#05714:00130000
#05715:0000000000160013
#0571b:0000000000000033
#05812:1414
#05818:0000130000130013
#05815:0000001300001300
#0581b:0013
#06312:00131400
#06317:0000131313000000
#06315:0000000000000013
#06319:00000000000000000000000000150000
#06314:0000000000180000
#06318:26
#0631b:0000000000000033
#06412:14001413
#0641b:00130013
#06416:00131400
#06419:0013001300130000
#06415:0000000000000013
#06512:14131400
#06518:13
#0651b:0013000000000033
#06516:0000141400000000
#06515:0000000000000013
#06519:00000000000000000000000000150000
#06514:0000000000180000
#0111b:13
#01118:0013001300000013
#01115:00130013
#01112:0000000000130000
#01113:53
#00252:14
#0025a:14
#00258:0000005300000000
#00452:0000005300000000
#0045b:53
#00554:00000014
#00558:0000000000140000
#00655:0000006300000000
#0065b:63
#01052:53
#01056:00530000
#0105b:13
#01256:53
#0125b:53
#01257:0023
#01252:0023
#0145b:63
#01457:00630000
#01555:0000005300000000
#01652:53
#01657:53
#0165b:0023
#01656:0023
#0175a:0014
#01752:00000014
#01856:00130000
#0185b:00130000
#01852:00000013
#01857:00000013
#0195b:53130013
#01957:0023000000000000
#01956:00130013
#02056:53130000
#02052:0023000000001300
#0205b:0000130000230000
#02057:00006313
#02157:00130013
#02152:63130013
#02156:0023000000000000
#02252:00140000
#0225a:00140000
#02256:00000013
#0225b:00000013
#02356:00130000
#0235b:00130000
#02352:53000013
#02357:53000013
#0245b:63
#02456:63
#02457:00130000
#02452:00130013
#02458:0013
#0255b:13
#02552:00130000
#0265b:53
#02658:0023
#02752:63
#02755:0023
#02858:63
#0285b:0023
#02955:53
#02952:0023
#0305b:53
#03052:0053
#03056:00000023
#03152:53
#03157:00000023
#0315b:0053
#03256:53
#03352:14
#0335a:14
#03358:00000053
#0345a:14006444
#03452:54340000
#03456:0024000000240000
#03556:64145414
#03552:0024000000000000
#0355a:0000000000240000
#03655:53000013
#03652:0024000000000000
#03658:00136300
#0365a:0000000000240000
#03752:0024000000000000
#03755:53000013
#03758:00136300
#0375a:0000000000240000
#0385b:0000001300000000
#03859:0000000000130000
#03857:0000000000000053
#03955:0000005300000000
#04058:00530000
#0405b:0000000000000053
#0415b:0000001300000000
#04156:0000001300000000
#0425a:14
#04252:14
#04452:00543554
#04456:0000002400240025
#0445a:00446400
#04459:00000045
#04555:0025000000000000
#0455a:64
#04552:36540000
#04558:00460000
#0465a:54
#0465b:0000000000530000
#04756:0024000000000000
#04955:5313
#04958:5313
#04952:00540000
#0495a:00640000
#04852:0000000000530000
#05052:14
#0085b:0000006300000000
#00852:53
#0515a:00444400
#05155:0000000000560000
#0525a:4444
#0535a:4444
#05355:0000000000560000
#0545a:4444
#05452:0000000000000036
#05558:46
#05552:0034
#05555:0000000000660000
#0595a:0044
#05955:00160000
#05954:0000000000580000
#05952:00000000000000000000000000250000
#0605a:4444
#0615a:4444
#06152:00000000000000000000000000250000
#06154:0000000000580000
#0625a:4444
#06252:0000000000000036
#06358:46
#06352:0034
#06359:00000000000000000000000000250000
#06354:0000000000680000
#05652:3434
#05752:3434
#05755:0000000000660000
#05852:3434
#06452:3434
#06552:3434
#06559:00000000000000000000000000250000
#06554:0000000000680000
#06652:34
#0675a:0014000000000000
#06752:0014000000000000
#01158:0000006300000000
#001380:0000000012220000
#001361:0000000000122200
#002381:0000001300000000
#0023b1:0000000000230000
#0043b1:13
#004381:0023000000000000
#004321:0000001300000000
#004351:0000000000230000
#0053b1:1323000000000000
#005321:0000000013230000
#0063b1:13
#006381:0023000000000000
#006351:0000001300000000
#006321:0000000000230000
#008321:13
#008351:0023000000000000
#0083b1:0000001300000000
#008381:0000000000230000
#009321:1323000000000000
#0093b1:0000000013230000
#010321:1323
#010361:00330000
#011381:0000001300000000
#0113b1:0000000000230000
#0123b1:13
#012371:0053
#0133b1:23
#012360:13
#012320:0053
#013360:23
#0143b0:1323
#014370:00330000
#015350:0000001300000000
#015320:0000000000230000
#016320:13
#016360:0053
#017320:23
#016371:13
#0163b1:0053
#017371:23
#018361:13535353230000000000000000000000
#018351:0053005300530053000000000000000000000000000000000000000000000000
#0183b0:13535353230000000000000000000000
#0183a0:0053005300530053000000000000000000000000000000000000000000000000
#0193b0:13230000
#019370:0053000000000000
#020360:13230000
#020320:0053000000000000
#020370:00001323
#0203b0:0000000000530000
#021320:13230000
#021360:0053000000000000
#022350:13
#022320:00540000240000000000000000000000
#022381:13
#0223a1:00540000240000000000000000000000
#023321:13
#023361:00230000
#023370:13
#0233b0:00230000
#0243b0:13
#024370:00230000
#024361:13
#024321:00230000
#0263b1:13330000
#026381:0033
#0273b1:23
#027320:13330000
#027350:0033
#028320:23
#028381:13330000
#0283b1:0033
#029381:23
#029350:13330000
#029320:0033
#030350:23
#0303b1:13330000
#030371:0023
#030320:0013
#030360:00000053
#031320:33330000
#031360:0023
#0313b1:0013
#031371:00000053
#0323b1:23
#032360:13
#032320:0033333333333333
#033320:24
#033380:00000013
#0343a0:24
#034321:14240000
#034361:0054000000000000
#0343a1:00001424
#034361:0000000000540000
#035361:14240000
#035321:0054000000000000
#035361:00001424
#0353a1:0000000000540000
#036351:13332300
#036321:0034000000000000
#036380:00001333
#0363a0:0000000000340000
#037380:23
#037351:13332300
#037321:0034000000000000
#037380:00001333
#0373a0:0000000000340000
#038380:23
#038370:0000000000000013
#0393b0:0023000000000000
#039350:0000001300000000
#039320:0000000000230000
#040380:00130000
#0403b0:0023
#0403b0:0000000000000013
#041370:0023000000000000
#044320:00142500
#044360:0000005400000000
#0443a1:0014
#044361:0000000000540000
#044391:00000025
#044320:00000014
#044360:0000000000000055
#045320:26
#0453a1:14
#045351:0055000000000000
#045381:00260000
#045320:00140000
#045360:0000000000240000
#0463a0:14
#046360:00240000
#0463b0:0000000000130000
#047360:0054000000000000
#047390:0000000000250000
#048320:0000000000130000
#048350:0000000000000033
#049350:3323
#049320:00340000
#049381:1323
#0493a1:00340000
#051351:0000000000160000
#051321:0000000000000033
#052321:23
#053351:0000000000160000
#053321:0000000000000033
#054321:23
#055351:0000000000160000
#0553b1:0000000000000033
#0563b1:23
#057351:0000000000160000
#0573b1:0000000000000033
#0583b1:23
#059351:1656565656565656260000000000000000000000000000000000000000000000
#059361:00540054005400540054005400540054000000000000000000000000000000000000000000000000000000000000000000000000000000000000000000000000
#059341:0000000000180000
#059321:00000000000000000000000000553300
#060361:23
#061341:0000000000180000
#061321:00000000000000000000000000553300
#062361:23
#062321:00130000
#062351:0000002300000000
#062381:00000013
#0623b1:0000000000000023
#063341:0000000000180000
#063391:00000000000000000000000000550000
#0633b1:0000000000000033
#064371:23
#065341:0000000000180000
#065391:00000000000000000000000000550000
#0653b1:0000000000000033
#066371:23
#0663a1:00140000
#066361:0000002400000000
#066321:0014
#066361:0000000000240000
#000940:120000000000000000000000000000000000000000000000000000000000000000000000000000000000000000000000000000000000000000000000000000000000000000000000000000000000000000000000000000000000000000000000000000000000000000000000000000000000000000000000000000000000000000000000000000000000000000000000000000000000000000000000000000000000000000000000000000000000000000000000000000000000000000000000000000000000000000000000000000000000000000000000000000000000000000000000000000000000000000000000000000000000000000000000000000000000000000000000000000000000000000000000000000000000000000000000000000000000000000000000000000000000000000000000000000000000000000000000000000000000000000000000000000000000000000000000000000000000000000000000000000000000000000000000000000000000000000000000000000000000000000000000000000000000000000000000000000000000000000000000000000000000000000000000000000000000000000000000000000000000000000000000000000000000000000000000000000000000000000000000000000000000000000000000000000000000000000000000000000000000000000000000000000000000000000000000000000000000000000000000000000000000000000000000000000000000000000000000000000000000000000000000000000000000000000000000000000000000000000000000000000000000000000000000000000000000000000000000000000000000000000000000000000000000000000000000000000000000000000000000000000000000000000000000000000000000000000000000000000000000000000000000000000000000000000000000000000000000000000000000000000000000000000000000000000000000000000000000000000000000000000000000000000000000000000000000000000000000000000000000000000000000000000000000000000000000000000000000000000000000000000000000000000000000000000000000000000000000000000000000000000000000000000000000000000000000000000000000000000000000000000000000000000000000000000000000000000000000000000000000000000000000000000000000000000000000000000000000000000000000000000000000000000000000000000000000000000000000000000000000000000000000000000000000000000000000000000000000000000000000000000000000000000000000000000000000000000000000000000000000000000000000000000000000000000000000000000000000000000000000000000000000000000000000000000000000000000000000000000000000000000000000000000000000000000000000000000000000000000000000000000000000000000000000000000000000000000000000000000000000000000000000000000000000000000000000000000000000000000000000000000000000000000000000000000000000000000000000000000000000000000000000000000000000000000000000000000000000000000000000000000000000000000000000000000000000000000000000000000000000000000000000000000000000000000000000000000000000000000000000000000000000000000000000000000000000000000000000000000000000000000000000000000000000000000000000000000000000000000000000000000000000000000000000000000000000000000000000000000000000000000000000000000000000000000000000000000000000000000000000000000000000000000000000000000000000000000000000000000000000000000000000000000000000000000000000000000000000000000000000000000000000000000000000000000000000000000000000000000000000000000000000000000000000000000000000000000000000000000000000000000000000000000000000000000000000000000000000000000000000000000000000000000000000000000000000000000000000000000000000000000000000000000000000000000000000000000000000000000000000000000000000000000000000000000000000000000000000000000000000000000000000000000000000000000000000000000000000000000000000000000000000000000000000000000000000000000000000000000000000000000000000000000000000000000000000000000000000000000000000000000000000000000000000000000000000000000000000000000000000000000000000000000000000000000000000000000000000000000000000000000000000000000000000000000000000000000000000000000000000000000000000000000000000000000000000000000000000000000000000000000000000000000000000000000000000000000000000000000000000000000000000000000000000000000000000000000000000000000005252
#001940:22
#0109a0:0013
#010980:000000000000000000000000000000000000000000000000000000000000000000000000000000000000000000000000000000000000000000000000000000000000000000000000000000000000000000000000000000000000000000000000000000000000000000000000000000000000000000000000000000000000000000000000000000000000000000000000000000000000000000000000000000000000000000000000000000000000000000000000000000000000000000000000000000000000000000000000000000000000000000000000000000000000000000000000000000000000000000000000000000000000000000000000000000000000000000000000000000000000000000000000000000000000000000000000000000000000000000000000000000000000000000000000000000000000000000000000000000000000000000000000000000000000000000000000000000000000000000000000000000000000000000000000000000000000000000000000000000000000000000000000000000000000000000000000000000000000000000000000000000000000000000000000000000000000000000000000000000000000000000000000000000000000000000000000000000000000000000000000000000000000000000000000000000000000000000000000000000000000000000000000000000000000000000000000000000000000000000000000000000000000000000000000000000000000000000000000000000000000000000000000000000000000000000000000000000000000000000000000000000000000000000000000000000000000000000000000000000000000000000000000000000000000000000000000000000000000000000000000000000000000000000000000000000000000000000000000000000000000000000000000000000000000000000000000000000000000000000000000000000000000000000000000000000000000000000000000000000000000000000000000000000000000000000000000000000000000000000000000000000000000000000000000000000000000000000000000000000000000000000000000000000000000000000000000000000000000000000000000000000000000000000000000000000000000000000000000000000000000000000000000000000000000000000000000000000000000000000000000000000000000000000000000000000000000000000000000000000000000000000000000000000000000000000000000000000000000000000000000000000000000000000000000000000000000000000000000000000000000000000000000000000000000000000000000000000000000000000000000000000000000000000000000000000000000000000000000000000000000000000000000000000000000000000000000000000000000000000000000000000000000000000000000000000000000000000000000000000000000000000000000000000000000000000000000000000000000000000000000000000000000000000000000000000000000000000000000000000000000000000000000000000000000000000000000000000000000000000000000000000000000000000000000000000000000000000000000000000000000000000000000000000000000000000000000000000000000000000000000000000000000000000000000000000000000000000000000000000000000000000000000000000000000000000000000000000000000000000000000000000000000000000000000000000000000000000000000000000000000000000000000000000000000000000000000000000000000000000000000000000000000000000000000000000000000000000000000000000000000000000000000000000000000000000000000000000000000000000005353230000000000000000000000000000000000000000000000000000000000000000000000000000000000000000000000000000000000000000000000000000000000000000000000000000000000000000000000000000000000000000000000000000000000000000000000000000000000000000000000000000000000000000000000000000000000000000000000000000000000000000000000000000000000000000000000000000000000000000000000000000000000000000000000000000000000000000000000000000000000000000000000000000000000000000000000000000000000000000000000000000000000000000000000000000000000000000000000000000000000000000000000000000000000000000000000000000000000000000000000000000000000000000000000000000000000000000000000000000000000000000000000000000000000000000000000000000000000000000000000000000000000000000000000000000000000000000000000000000000000000000000000000000000000000000000000000000000000000000000000000000000000000000000000000000000000000000000000000000000000000000000000000000000000000000000000000000000000000000000000
#010951:00000013
#010931:000000000000000000000000000000000000000000000000000000000000000000000000000000000000000000000000000000000000000000000000000000000000000000000000000000000000000000000000000000000000000000000000000000000000000000000000000000000000000000000000000000000000000000000000000000000000000000000000000000000000000000000000000000000000000000000000000000000000000000000000000000000000000000000000000000000000000000000000000000000000000000000000000000000000000000000000000000000000000000000000000000000000000000000000000000000000000000000000000000000000000000000000000000000000000000000000000000000000000000000000000000000000000000000000000000000000000000000000000000000000000000000000000000000000000000000000000000000000000000000000000000000000000000000000000000000000000000000000000000000000000000000000000000000000000000000000000000000000000000000000000000000000000000000000000000000000000000000000000000000000000000000000000000000000000000000000000000000000000000000000000000000000000000000000000000000000000000000000000000000000000000000000000000000000000000000000000000000000000000000000000000000000000000000000000000000000000000000000000000000000000000000000000000000000000000000000000000000000000000000000000000000000000000000000000000000000000000000000000000000000000000000000000000000000000000000000000000000000000000000000000000000000000000000000000000000000000000000000000000000000000000000000000000000000000000000000000000000000000000000000000000000000000000000000000000000000000000000000000000000000000000000000000000000000000000000000000000000000000000000000000000000000000000000000000000000000000000000000000000000000000000000000000000000000000000000000000000000000000000000000000000000000000000000000000000000000000000000000000000000000000000000000000000000000000000000000000000000000000000000000000000000000000000000000000000000000000000000000000000000000000000000000000000000000000000000000000000000000000000000000000000000000000000000000000000000000000000000000000000000000000000000000000000000000000000000000000000000000000000000000000000000000000000000000000000000000000000000000000000000000000000000000000000000000000000000000000000000000000000000000000000000000000000000000000000000000000000000000000000000000000000000000000000000000000000000000000000000000000000000000000000000000000000000000000000000000000000000000000000000000000000000000000000000000000000000000000000000000000000000000000000000000000000000000000000000000000000000000000000000000000000000000000000000000000000000000000000000000000000000000000000000000000000000000000000000000000000000000000000000000000000000000000000000000000000000000000000000000000000000000000000000000000000000000000000000000000000000000000000000000000000000000000000000000000000000000000000000000000000000000000000000000000000000000000000000000000000000000000000000000000000000000000000000000000000000000000000000000000000000000000000000000000000000000000000000000000000000000000000000000000000000000000000000000000000000000000000000000000000000000000000000000000000000000000000000000000000000000000000000000000000000000000000000000000000000000000000000000000000000000000000000000000000000000000000000000000000000000000000000000000000000000000000000000000000000000000000000000000000000000000000000000000000000000000000000000000000000000000000000000000000000000000000000000000000000000000000000000000000000000000000000000000000000000000000000000000000000000000000000000000000000000000000000000000000000000000000000000000000000000000000000000000000000000000000000000000000000000000000000000000000000000000000000000000000000000000000000000000000000000000000000000000000000000000000000000000000000000000000000000000000000000000000000000000000000000000000000000000000000000000000000000000000000000000000000000000000000000000000000000000000000000000000000000000000000000000000000000000000005353
#011931:23
#014931:0013
#014951:000000000000000000000000000000000000000000000000000000000000000000000000000000000000000000000000000000000000000000000000000000000000000000000000000000000000000000000000000000000000000000000000000000000000000000000000000000000000000000000000000000000000000000000000000000000000000000000000000000000000000000000000000000000000000000000000000000000000000000000000000000000000000000000000000000000000000000000000000000000000000000000000000000000000000000000000000000000000000000000000000000000000000000000000000000000000000000000000000000000000000000000000000000000000000000000000000000000000000000000000000000000000000000000000000000000000000000000000000000000000000000000000000000000000000000000000000000000000000000000000000000000000000000000000000000000000000000000000000000000000000000000000000000000000000000000000000000000000000000000000000000000000000000000000000000000000000000000000000000000000000000000000000000000000000000000000000000000000000000000000000000000000000000000000000000000000000000000000000000000000000000000000000000000000000000000000000000000000000000000000000000000000000000000000000000000000000000000000000000000000000000000000000000000000000000000000000000000000000000000000000000000000000000000000000000000000000000000000000000000000000000000000000000000000000000000000000000000000000000000000000000000000000000000000000000000000000000000000000000000000000000000000000000000000000000000000000000000000000000000000000000000000000000000000000000000000000000000000000000000000000000000000000000000000000000000000000000000000000000000000000000000000000000000000000000000000000000000000000000000000000000000000000000000000000000000000000000000000000000000000000000000000000000000000000000000000000000000000000000000000000000000000000000000000000000000000000000000000000000000000000000000000000000000000000000000000000000000000000000000000000000000000000000000000000000000000000000000000000000000000000000000000000000000000000000000000000000000000000000000000000000000000000000000000000000000000000000000000000000000000000000000000000000000000000000000000000000000000000000000000000000000000000000000000000000000000000000000000000000000000000000000000000000000000000000000000000000000000000000000000000000000000000000000000000000000000000000000000000000000000000000000000000000000000000000000000000000000000000000000000000000000000000000000000000000000000000000000000000000000000000000000000000000000000000000000000000000000000000000000000000000000000000000000000000000000000000000000000000000000000000000000000000000000000000000000000000000000000000000000000000000000000000000000000000000000000000000000000000000000000000000000000000000000000000000000000000000000000000000000000000000000000000000000000000000000000000000000000000000000000000000000000000000000000000000000000000000000000000000000000000000000000000000000000000000000000000000000000000000005353230000000000000000000000000000000000000000000000000000000000000000000000000000000000000000000000000000000000000000000000000000000000000000000000000000000000000000000000000000000000000000000000000000000000000000000000000000000000000000000000000000000000000000000000000000000000000000000000000000000000000000000000000000000000000000000000000000000000000000000000000000000000000000000000000000000000000000000000000000000000000000000000000000000000000000000000000000000000000000000000000000000000000000000000000000000000000000000000000000000000000000000000000000000000000000000000000000000000000000000000000000000000000000000000000000000000000000000000000000000000000000000000000000000000000000000000000000000000000000000000000000000000000000000000000000000000000000000000000000000000000000000000000000000000000000000000000000000000000000000000000000000000000000000000000000000000000000000000000000000000000000000000000000000000000000000000000000000000000000000000
#014980:00000013
#0149a0:000000000000000000000000000000000000000000000000000000000000000000000000000000000000000000000000000000000000000000000000000000000000000000000000000000000000000000000000000000000000000000000000000000000000000000000000000000000000000000000000000000000000000000000000000000000000000000000000000000000000000000000000000000000000000000000000000000000000000000000000000000000000000000000000000000000000000000000000000000000000000000000000000000000000000000000000000000000000000000000000000000000000000000000000000000000000000000000000000000000000000000000000000000000000000000000000000000000000000000000000000000000000000000000000000000000000000000000000000000000000000000000000000000000000000000000000000000000000000000000000000000000000000000000000000000000000000000000000000000000000000000000000000000000000000000000000000000000000000000000000000000000000000000000000000000000000000000000000000000000000000000000000000000000000000000000000000000000000000000000000000000000000000000000000000000000000000000000000000000000000000000000000000000000000000000000000000000000000000000000000000000000000000000000000000000000000000000000000000000000000000000000000000000000000000000000000000000000000000000000000000000000000000000000000000000000000000000000000000000000000000000000000000000000000000000000000000000000000000000000000000000000000000000000000000000000000000000000000000000000000000000000000000000000000000000000000000000000000000000000000000000000000000000000000000000000000000000000000000000000000000000000000000000000000000000000000000000000000000000000000000000000000000000000000000000000000000000000000000000000000000000000000000000000000000000000000000000000000000000000000000000000000000000000000000000000000000000000000000000000000000000000000000000000000000000000000000000000000000000000000000000000000000000000000000000000000000000000000000000000000000000000000000000000000000000000000000000000000000000000000000000000000000000000000000000000000000000000000000000000000000000000000000000000000000000000000000000000000000000000000000000000000000000000000000000000000000000000000000000000000000000000000000000000000000000000000000000000000000000000000000000000000000000000000000000000000000000000000000000000000000000000000000000000000000000000000000000000000000000000000000000000000000000000000000000000000000000000000000000000000000000000000000000000000000000000000000000000000000000000000000000000000000000000000000000000000000000000000000000000000000000000000000000000000000000000000000000000000000000000000000000000000000000000000000000000000000000000000000000000000000000000000000000000000000000000000000000000000000000000000000000000000000000000000000000000000000000000000000000000000000000000000000000000000000000000000000000000000000000000000000000000000000000000000000000000000000000000000000000000000000000000000000000000000000000000000000000000000000000000000000000000000000000000000000000000000000000000000000000000000000000000000000000000000000000000000000000000000000000000000000000000000000000000000000000000000000000000000000000000000000000000000000000000000000000000000000000000000000000000000000000000000000000000000000000000000000000000000000000000000000000000000000000000000000000000000000000000000000000000000000000000000000000000000000000000000000000000000000000000000000000000000000000000000000000000000000000000000000000000000000000000000000000000000000000000000000000000000000000000000000000000000000000000000000000000000000000000000000000000000000000000000000000000000000000000000000000000000000000000000000000000000000000000000000000000000000000000000000000000000000000000000000000000000000000000000000000000000000000000000000000000000000000000000000000000000000000000000000000000000000000000000000000000000000000000000000000000000000000000000000000000000000000000000000000000000000000000000000000005353
#0159a0:23
