This file was generated by Ched 2.7.0.0.
#TITLE ""
#ARTIST ""
#DESIGNER ""
#DIFFICULTY 0
#PLAYLEVEL
#SONGID ""
#WAVE ""
#WAVEOFFSET 0
#JACKET ""
#REQUEST "ticks_per_beat 480"
#00002: 4
#BPM01: 170
#00008: 01
#TIL00: ""
#VOLUME: ""
#HISPEED 00
#MEASUREHS 00
#00019:12
#00015:0012000000000000
#00018:0000001200001200
#00014:0000000000120000
#00016:0000000000000012
#0011a:1212
#00116:0012000000000000
#00118:00120000
#00114:0000001200001200
#00117:0000000000120000
#00215:0013000000001300
#00218:0000001300000013
#0021b:23
#00312:13
#00318:0013000000130013
#00315:00131313
#0031b:0000001300000000
#00412:13
#00418:0013000000001300
#00415:0000001300000013
#00615:0013000000001300
#0061b:1300001300000000
#00618:0000000000000013
#00712:1313
#00715:0013000000001300
#00718:0000130000130000
#0071b:0000001300000013
#00818:0013000000001300
#00812:1300001300000000
#00815:0000000000000013
#0091b:1313
#00918:0013000000001300
#00915:0000130000130000
#00912:0000001300000013
#00910:41
#0051b:13
#00515:0013000000130013
#00518:00131313
#00512:0000001300000000
#0101b:13
#01018:00130013
#01015:0000000000130013
#0111b:13
#01112:0000000000130000
#01115:00000013
#01118:0033330000000013
#0121b:13
#01218:0013
#01318:0000000000130000
#01315:00000013
#0131b:0000000000000013
#01412:13
#01415:00130013
#01418:0000000000130013
#01512:13
#0151b:0000000000130000
#01518:00000013
#01515:0033330000000013
#01615:0013
#01612:23
#0171b:0013
#01715:0013
#01712:00000013
#01718:00000013
#01710:41
#01818:0000130000000013
#01815:2300001300000000
#0181b:2300000000130000
#01812:00000013
#01912:0013000000000000
#01918:00130000
#01915:0000001300000000
#0191b:0013
#0201b:00130000
#02018:0000000013000013
#02015:00000013
#02112:0013000000000013
#02118:00130013
#02115:0000001300130000
#0211b:0013
#02218:1300000000000013
#02215:0013
#02212:00000013
#0221b:0033333300000000
#02315:1300000000000013
#02318:0013
#0231b:00000013
#02312:0033333300000000
#02418:13
#0241b:0013
#02515:00130013
#02518:0013
#02512:0013
#0251b:00000013
#02510:41
#02618:1313
#0261f:11
#02715:0013
#0281b:0013
#02912:0013
#03018:0013
#03115:0013
#03318:0013
#03315:00000013
#03418:00130013
#03415:0013
#03412:23
#0341b:23
#0341f:21
#0351b:13
#03515:13
#03512:0013
#03518:0013
#03510:41
#0361b:13
#03615:1313
#03618:00000013
#03712:13000013
#0371b:0000001300000013
#03715:0013
#03718:0000000000130000
#03815:1300000000000013
#03818:0000000000130000
#03812:0033330000000000
#0391b:0013000000000000
#03915:00130013
#03918:0000001300000013
#03912:0000000000130000
#0401b:13
#04012:0013
#04018:0033000000130013
#04015:00000013
#0411b:0013000000000000
#04115:0000000000130013
#04118:00330013
#04418:0014
#04416:00000014
#04514:14
#04512:00140000
#0451a:00140000
#04518:0000000000130000
#04515:0000000000000013
#04510:41
#04618:1313
#04612:00130000
#04615:0000001300000000
#0461b:0000000000130000
#04718:00130000000000000000000000001300
#04712:0000000000130000
#04715:00000013
#04815:1313
#04812:0013000000130000
#0481b:00130000
#04818:0000001300000000
#0491b:1313
#04915:0000000013000013
#04918:00000013
#05012:13
#05019:00000012
#05015:00000012
#05114:12
#0511a:12240000
#05112:00240000
#05515:0000001300000000
#05518:0000000000130000
#0551b:00230000
#05612:13130000
#05618:0013000013000000
#05615:0000001300001300
#0561b:0000000000130013
#05718:1300001300000000
#05715:0013000000130000
#05712:00130000
#0581b:13130000
#05815:0013000013000000
#05818:0000001300001300
#05812:0000000000130013
#05918:0000000000130000
#05915:0013
#0591b:00000013
#0591a:24
#06015:1300001300130000
#06018:0013000013000013
#06012:00130000
#0601b:00000013
#06115:1300000000130000
#06118:0013001300000000
#06112:00130013
#06218:1300001300130000
#06215:0013000013000013
#0621b:00130000
#06212:00000013
#06318:1300000000130000
#06315:0013001300000000
#0631b:00130013
#06415:1300001300130000
#06418:0013000013000013
#06412:00130000
#0641b:00000013
#06515:1300000000130000
#06518:0013001300000000
#06512:00130013
#06618:13
#06615:0013000000000000
#06616:0000001400140014
#0661a:00240014
#06612:0024
#06712:14
#0671a:0014000000000000
#05315:000000000000000000000000000000000000000000000000000000000000000000000000000000000000000000000000000000000000000000000000000000000000000000000000000000000000000000000000000000000000000000000000000000000000000000000000000000000000000000000000000000000000000000000000000000000000000000000000000000000000000000000000000000000000000000000000000000000000000000000000000000000000000000000000000000000000000000000000000000000000000000000000000000000000000000000000000000000000000000000000001400000000000000000000000000000000000000000000000000000000000000000000000000000000000000000000000000000000000000000000000000000000000000000000000000000000000000000000000000000000000000000000000000000000000000000000000000000000000000000000000000000000000000000000000000000000000000000000000000000000000000000000000000000000000000000000000000000000000000000000000000000000000000000000000000000000000000000000000000000000000000000000000000000000000000000000000000000000000000000000000000000000000000000000000000000000000000000000000000000000000000000000000000000000000000000000000000000000000000000000000000000000000000000000000000000000000000000000000000000000000000000000000000000000000000000000000000000000000000000000000000000000000000000000000000000000000000000000000000000000000000000000000000000000000000000000000000000000000000000000000000000000000000000000000000000000000000000000000000000000000000000000000000000000000000000000000000000000000000000000000000000000000000000000000000000000000000000000000000000000000000000000000000000000000000000000000000000000000000000000000000000000000000000000000000000000000000000000000000000000000000000000000000000000000000000000000000000000000000000000000000000000000000000000000000000000000000000000000000000000000000000000000000000000000000000000000000000000000000000000000000000000000000000000000000000000000000000000000000000000000000000000000000000000000000000000000000000000000000000000000000000000000000000000000000000000000000000000000000000000000000000000000000000000000000000000000000000000000000000000000000000000000000000000000000000000000000000000000000000000000000000000000000000000000000000000000000000000000000000000000000000000000000000000000000000000000000000000000000000000000000000000000000000000000000000000000000000000000000000000000000000000000000000000000000000000000000000000000000000000000000000000000000000000000000000000000000000000000000000000000000000000000000000000000000000000000000000000000000000000000000000000000000000000000000000000000000000000000000000000000000000000000000000000000000000000000000000000000000000000000000000000000000000000000000000000000000000000000000000000000000000000000000000000000000000000000000000000000000000000000000000000000000000000000000000000000000000000000000000000000000000000000000000000000000000000000000000000000000000000000000000000000000000000000000000000000000000000000000000000000000000000000000000000000000000000000000000000000000000000000000000000000000000000000000000000000000000000000000000000000000000000000000000000000000000000000000000000000000000000000000000000000000000000000000000000000000000000000000000000000000000000000000000000000000000000000000000000000000000000000000000000000000000000000000000000000000000000000000000000000000000000000000000000000000000000000000000000000000000000000000000000000000000000000000000000000000000000000000000000000000000000000000000000000000000000000000000000000000000000000000000000000000000000000000000000000000000000000000000000000000000000000000000000000000000000000000000000000000000000000000000000000000000000000000000000000000000000000000000000000000000000000000000000000000000000000000000000000000000000000000000000000000000000000000000000000000000000000000000000000000000000000000000000000000000000000000000000000000000000000000000000000000000000000000000000000000000000000000000000
#05317:0014000000000000
#05310:41
#04218:23
#04312:24
#0431a:24
#03216:0034343434343434
#00258:0000005300000000
#00455:0000006300000000
#0065b:0000005300000000
#00852:0000006300000000
#0105b:53
#01058:00230000
#0115b:53
#0125b:53
#01258:0023
#01452:63
#01455:00230000
#01552:63
#01655:0023
#01652:53
#01858:0000000000000013
#02058:0000000000000013
#02055:13
#02258:53
#02355:63
#02458:53
#0245b:0023
#03354:18
#0345b:13
#03452:13
#0355b:53
#03555:53
#03552:0063
#03558:0063
#0365b:53
#03655:53
#03752:13
#03855:5300000000000013
#03852:0000001300000000
#03858:0000000000130000
#04058:0000130000000053
#0405b:53
#0415b:0023000000000000
#04158:0000001300000000
#04552:00140000
#0455a:00140000
#0465b:0000000000530000
#04758:00230000000000000000000000000000
#04852:0000000000530000
#0495b:53
#04958:00130000
#05558:0000000000530000
#05755:0000000000630000
#0595a:00140000
#05958:0000000000530000
#0595b:00000023
#06155:0000000000630000
#06152:00000023
#06358:0000000000530000
#0635b:00000023
#06555:0000000000630000
#06552:00000023
#0675a:0014000000000000
#0515a:00540000
#05152:00540000
#05357:0024000000000000
#05355:000000000000000000000000000000000000000000000000000000000000000000000000000000000000000000000000000000000000000000000000000000000000000000000000000000000000000000000000000000000000000000000000000000000000000000000000000000000000000000000000000000000000000000000000000000000000000000000000000000000000000000000000000000000000000000000000000000000000000000000000000000000000000000000000000000000000000000000000000000000000000000000000000000000000000000000000000000000000000000000000002400000000000000000000000000000000000000000000000000000000000000000000000000000000000000000000000000000000000000000000000000000000000000000000000000000000000000000000000000000000000000000000000000000000000000000000000000000000000000000000000000000000000000000000000000000000000000000000000000000000000000000000000000000000000000000000000000000000000000000000000000000000000000000000000000000000000000000000000000000000000000000000000000000000000000000000000000000000000000000000000000000000000000000000000000000000000000000000000000000000000000000000000000000000000000000000000000000000000000000000000000000000000000000000000000000000000000000000000000000000000000000000000000000000000000000000000000000000000000000000000000000000000000000000000000000000000000000000000000000000000000000000000000000000000000000000000000000000000000000000000000000000000000000000000000000000000000000000000000000000000000000000000000000000000000000000000000000000000000000000000000000000000000000000000000000000000000000000000000000000000000000000000000000000000000000000000000000000000000000000000000000000000000000000000000000000000000000000000000000000000000000000000000000000000000000000000000000000000000000000000000000000000000000000000000000000000000000000000000000000000000000000000000000000000000000000000000000000000000000000000000000000000000000000000000000000000000000000000000000000000000000000000000000000000000000000000000000000000000000000000000000000000000000000000000000000000000000000000000000000000000000000000000000000000000000000000000000000000000000000000000000000000000000000000000000000000000000000000000000000000000000000000000000000000000000000000000000000000000000000000000000000000000000000000000000000000000000000000000000000000000000000000000000000000000000000000000000000000000000000000000000000000000000000000000000000000000000000000000000000000000000000000000000000000000000000000000000000000000000000000000000000000000000000000000000000000000000000000000000000000000000000000000000000000000000000000000000000000000000000000000000000000000000000000000000000000000000000000000000000000000000000000000000000000000000000000000000000000000000000000000000000000000000000000000000000000000000000000000000000000000000000000000000000000000000000000000000000000000000000000000000000000000000000000000000000000000000000000000000000000000000000000000000000000000000000000000000000000000000000000000000000000000000000000000000000000000000000000000000000000000000000000000000000000000000000000000000000000000000000000000000000000000000000000000000000000000000000000000000000000000000000000000000000000000000000000000000000000000000000000000000000000000000000000000000000000000000000000000000000000000000000000000000000000000000000000000000000000000000000000000000000000000000000000000000000000000000000000000000000000000000000000000000000000000000000000000000000000000000000000000000000000000000000000000000000000000000000000000000000000000000000000000000000000000000000000000000000000000000000000000000000000000000000000000000000000000000000000000000000000000000000000000000000000000000000000000000000000000000000000000000000000000000000000000000000000000000000000000000000000000000000000000000000000000000000000000000000000000000000000000000000000000000000000000000000000000000000000000000000000000000000000000000000000000000000000000000000000000000000
#04452:00140000
#0445a:00140000
#002380:0000001300000000
#0023b0:0000000000230000
#004350:0000001300000000
#004320:0000000000230000
#0063b0:0000001300000000
#006380:0000000000230000
#008320:0000001300000000
#008350:0000000000230000
#0103b0:1323
#010380:00330000
#0113b0:13
#011380:0033332300000000
#0123b0:13
#012380:0053
#0133b0:23
#014320:1323
#014350:00330000
#015320:13
#015350:0033332300000000
#016320:13
#016350:0053
#017320:23
#019320:0000000000130000
#019330:00000033
#019340:0000000000000033
#020350:23
#022380:13
#0223b0:0033333323000000
#023350:13
#023320:0033333323000000
#024380:13
#0243b0:0053
#025380:23
#026320:1333
#027320:23
#0273b1:1333
#0283b1:23
#028350:1333
#029350:23
#029381:1333
#030381:23
#030320:1333
#031320:23
#0313b1:1333
#0323b1:23
#032360:1434343434343434
#033340:28
#035350:13
#035320:00230000
#0353b1:13
#035381:00230000
#035381:0013
#0353b1:00000023
#035320:0013
#035350:00000023
#036350:13
#036320:00230000
#0363b1:13
#036381:00230000
#038351:13
#038321:0033332300000000
#0403b1:13
#040381:0033230000000000
#040381:0000000000000013
#0413b1:0033000000000000
#041381:0000332300000000
#0433a1:14000000000000003400000000000054
#043381:00000000000000000054000000003400
#0443a1:00240000
#043320:14000000000000000000003400000054
#043340:0000000000005434
#044320:00240000
#0463b0:0000000000130000
#047380:00530000000000000000000000000000
#0473b0:0023
#048320:0000000000130000
#048350:0000000000000023
#0493b0:13
#049380:00230000
#051320:00140000
#053350:000000000000000000000000000000000000000000000000000000000000000000000000000000000000000000000000000000000000000000000000000000000000000000000000000000000000000000000000000000000000000000000000000000000000000000000000000000000000000000000000000000000000000000000000000000000000000000000000000000000000000000000000000000000000000000000000000000000000000000000000000000000000000000000000000000000000000000000000000000000000000000000000000000000000000000000000000000000000000000000000005400000000000000000000000000000000000000000000000000000000000000000000000000000000000000000000000000000000000000000000000000000000000000000000000000000000000000000000000000000000000000000000000000000000000000000000000000000000000000000000000000000000000000000000000000000000000000000000000000000000000000000000000000000000000000000000000000000000000000000000000000000000000000000000000000000000000000000000000000000000000000000000000000000000000000000000000000000000000000000000000000000000000000000000000000000000000000000000000000000000000000000000000000000000000000000000000000000000000000000000000000000000000000000000000000000000000000000000000000000000000000000000000000000000000000000000000000000000000000000000000000000000000000000000000000000000000000000000000000000000000000000000000000000000000000000000000000000000000000000000000000000000000000000000000000000000000000000000000000000000000000000000000000000000000000000000000000000000000000000000000000000000000000000000000000000000000000000000000000000000000000000000000000000000000000000000000000000000000000000000000000000000000000000000000000000000000000000000000000000000000000000000000000000000000000000000000000000000000000000000000000000000000000000000000000000000000000000000000000000000000000000000000000000000000000000000000000000000000000000000000000000000000000000000000000000000000000000000000000000000000000000000000000000000000000000000000000000000000000000000000000000000000000000000000000000000000000000000000000000000000000000000000000000000000000000000000000000000000000000000000000000000000000000000000000000000000000000000000000000000000000000000000000000000000000000000000000000000000000000000000000000000000000000000000000000000000000000000000000000000000000000000000000000000000000000000000000000000000000000000000000000000000000000000000000000000000000000000000000000000000000000000000000000000000000000000000000000000000000000000000000000000000000000000000000000000000000000000000000000000000000000000000000000000000000000000000000000000000000000000000000000000000000000000000000000000000000000000000000000000000000000000000000000000000000000000000000000000000000000000000000000000000000000000000000000000000000000000000000000000000000000000000000000000000000000000000000000000000000000000000000000000000000000000000000000000000000000000000000000000000000000000000000000000000000000000000000000000000000000000000000000000000000000000000000000000000000000000000000000000000000000000000000000000000000000000000000000000000000000000000000000000000000000000000000000000000000000000000000000000000000000000000000000000000000000000000000000000000000000000000000000000000000000000000000000000000000000000000000000000000000000000000000000000000000000000000000000000000000000000000000000000000000000000000000000000000000000000000000000000000000000000000000000000000000000000000000000000000000000000000000000000000000000000000000000000000000000000000000000000000000000000000000000000000000000000000000000000000000000000000000000000000000000000000000000000000000000000000000000000000000000000000000000000000000000000000000000000000000000000000000000000000000000000000000000000000000000000000000000000000000000000000000000000000000000000000000000000000000000000000000000000000000000000000000000000000000000000000000000000000000000000000000000000000000000000000000000000000000000000
#055320:24
#0513a1:00140000
#053371:0054000000000000
#0553a1:24
#055381:0000000000130000
#0553b1:0000000000000023
#057351:0000000000130000
#057321:0000000000000023
#0593a1:1454545454545454240000000000000000000000000000000000000000000000
#059391:00540054005400540054005400540054000000000000000000000000000000000000000000000000000000000000000000000000000000000000000000000000
#059381:0000000000130023
#0593b1:00000053
#061351:0000000000130023
#061321:00000053
#063381:0000000000130023
#0633b1:00000053
#065351:0000000000130023
#065321:00000053
