This file was generated by Ched 2.7.0.0.
#TITLE ""
#ARTIST ""
#DESIGNER ""
#DIFFICULTY 0
#PLAYLEVEL
#SONGID ""
#WAVE ""
#WAVEOFFSET 0
#JACKET ""
#REQUEST "ticks_per_beat 480"
#00002: 4
#BPM01: 170
#00008: 01
#TIL00: ""
#VOLUME: ""
#HISPEED 00
#MEASUREHS 00
#00018:1414
#00014:00140014
#00118:14
#00114:00140000
#00212:1414
#00218:00140000
#0031a:1414
#00314:00140000
#00412:1414
#00418:00140000
#0051a:1414
#00514:00140000
#00614:1414
#0061a:00140000
#00718:1414
#00712:00140000
#00814:1414
#0081a:00140000
#00918:1414
#00912:00140000
#00910:41
#01714:0014
#01710:41
#0181a:14
#01814:0014
#01918:14
#01912:0014
#0221a:14
#02214:0014
#02318:14
#02312:0014
#0261a:1434
#02618:00000014
#0261f:11
#02814:1434
#02812:00000014
#03018:1434
#0301a:00000014
#03214:14
#03212:00343434
#03318:0014
#0341a:0014
#03412:24
#0341f:21
#03514:1414
#03518:00140000
#03510:41
#03612:0014
#0361a:24
#03718:14000014
#03714:0014
#03812:14
#03814:00343400
#0391a:14
#03914:00140000
#03918:0014
#04014:14
#04012:00343400
#04118:1414
#04114:00140000
#04414:0014
#04418:00000014
#04412:00240000
#0441a:00240000
#04514:14000014
#04518:00140000
#04510:41
#04618:1414
#04612:00140000
#04614:00000014
#0471a:14
#04714:00140000
#04718:0014
#04712:00000014
#0481a:00140000
#04814:0014
#04818:00000014
#04912:14
#04918:00140000
#04914:0014
#0491a:00000014
#05012:14
#05114:0014
#0511a:00240014
#05212:00140014
#05218:0014
#0531a:00140014
#05314:0014
#05310:41
#05412:00140014
#05418:0014
#05518:00140014
#05512:0014
#05614:00140014
#0561a:0014
#05718:00140014
#05712:0014
#05814:00140014
#0581a:0014
#05914:0014
#05918:00000014
#0591a:00240000
#06012:14
#06018:00140000
#06014:0014
#0601a:00000014
#06118:0014
#06114:00000014
#06112:00140000
#0621a:14
#06214:00140000
#06218:0014
#06212:00000014
#06318:00140000
#06312:0014
#0631a:00000014
#06414:14
#0641a:00140000
#06412:0014
#06418:00000014
#06514:00140000
#0651a:0014
#06512:00000014
#06618:14
#06612:00140000
#0661a:0014
#06614:00000014
#06718:14
#04212:24
#0421a:24
#04314:24
#04318:0024
#0271a:34
#02914:34
#03118:34
#02510:41
#00158:00000014
#00958:0014
#02658:00000024
#0265a:54
#02854:54
#02852:00000024
#03058:64
#0305a:00000024
#03254:54
#03452:14
#03852:54
#04054:64
#04558:00140000
#06758:14
#001380:00001424
#010320:14
#010340:0034
#011320:34
#011340:0024
#0123a0:14
#012380:0034
#0133a0:34
#013380:0024
#014340:14
#014320:0034
#015340:34
#015320:0024
#016380:14
#0163a0:0034
#017380:24
#0203a0:14
#020380:0024
#021340:14
#021320:0024
#024380:14
#0243a0:0024
#025320:14
#025340:0024
#0263a0:1434
#026380:00000054
#0273a0:3424
#028340:1434
#028320:00000054
#029340:3424
#030380:1434
#0303a0:00000054
#031380:3424
#032340:14
#032320:00343434
#033320:24
#038320:14
#038340:00343424
#040340:14
#040320:00343424
