This file was generated by Ched 2.7.0.0.
#TITLE ""
#ARTIST ""
#DESIGNER ""
#DIFFICULTY 0
#PLAYLEVEL
#SONGID ""
#WAVE ""
#WAVEOFFSET 0
#JACKET ""
#REQUEST "ticks_per_beat 480"
#00002: 4
#BPM01: 162
#00008: 01
#TIL00: ""
#VOLUME: ""
#HISPEED 00
#MEASUREHS 00
#04114:0014
#04118:14
#05512:0014
#0551a:14
#0561a:14
#05612:0014
#00712:14
#0071a:0014
#02214:14
#02318:14
#02414:14
#04218:14
#04516:00000016
#04518:26
#0451f:21
#04712:16
#04718:0016
#05314:0014
#05318:24
#05414:0014
#05418:14
#0611a:14
#06212:14
#00812:14
#0081a:0014
#0111a:14
#01112:0014
#0121a:14
#01212:0014
#01318:14
#01418:14
#01514:14
#01614:14
#0171a:14
#01710:41
#0181a:14
#01912:14
#02012:14
#02118:14
#02718:14
#02714:0014
#0251a:14
#02612:14
#02818:14
#02814:0014
#04812:16
#04818:0016
#04914:00000016
#04912:26
#05118:16
#05112:0016
#05218:16
#05212:0016
#06318:14
#06414:14
#0651a:14
#06612:14
#06718:14
#06814:14
#06918:2616
#06910:41
#07012:1616
#07118:16
#07112:0016
#07312:2616
#07418:1616
#07512:16
#07518:0016
#0371f:11
#0371a:0034
#00518:26
#00510:41
#00912:26
#04312:26
#04318:0026
#04412:26
#0381a:34
#04012:34
#03912:0034
#04610:41
#05910:41
#02910:41
#00558:66
#04556:00000026
#04558:66
#00952:56
#04954:00000026
#04952:56
#0013a0:14
#0023a0:24
#003320:14
#004320:24
#005380:16
#006360:0026
#009320:16
#010340:0026
#0293a0:14
#030380:24
#031320:14
#032340:24
#033380:14
#0343a0:24
#035340:14
#036320:24
#037380:14
#0373a0:0034
#0383a0:3424
#039340:14
#039320:0034
#040320:3424
#045380:16
#045360:00000056
#046380:0026
#049320:16
#049340:00000056
#050320:0026
#057380:14
#0583a0:24
#059340:14
#060320:24
#072380:1626
#076320:1636
#077320:26
