This file was generated by Ched 2.7.0.0.
#TITLE ""
#ARTIST ""
#DESIGNER ""
#DIFFICULTY 0
#PLAYLEVEL
#SONGID ""
#WAVE ""
#WAVEOFFSET 0
#JACKET ""
#REQUEST "ticks_per_beat 480"
#00002: 4
#BPM01: 162
#00008: 01
#TIL00: ""
#VOLUME: ""
#HISPEED 00
#MEASUREHS 00
#00416:00130013
#00414:0000000000000014
#00419:0000001300130000
#00412:0013
#00417:0013
#0041b:00000013
#00615:0000001300000000
#00618:00130000
#00612:0000000000130000
#00617:00000013
#0061a:0024
#00716:0000000000140000
#00712:13001314
#00718:00130000
#00715:0000001300000000
#0071b:0013000000000000
#0071a:0024
#0691b:0013
#06912:24130000
#06916:00241324
#06919:0000000000000013
#0691a:24
#06910:41
#0721b:13
#07214:0014000014000000
#07216:1400000000000014
#0721a:00240014
#07212:00140024
#07218:0000001400140000
#05319:0000001300000000
#05316:1424
#0531b:0013
#05312:00000014
#05317:00130000
#0531a:24
#02315:0013000013001300
#0231b:1300001300000000
#02312:13
#02318:0000130000130000
#03712:24130013
#03714:0000001300000000
#0371a:0014
#03716:0013
#03717:00000013
#0371b:13
#0371f:11
#03816:00000014
#03812:0014
#0381b:13
#03817:00130000
#04117:00130000
#04119:0000001300000000
#04112:00131413
#04114:0000000000000013
#0411a:24
#04216:13130000
#0421b:13130013
#04214:0000001300000000
#0421a:0014
#04219:0000000000000013
#00316:14000014
#0031a:14
#00312:00000014
#02918:0000130000000013
#02915:0000001300000000
#0291a:1424
#02912:14
#0291b:00000013
#02910:41
#00217:00130000
#00214:0000001300000000
#0021b:00001313
#00812:0013
#00818:1300130000130013
#00815:0000001300001300
#0081a:0024
#00516:0000000000140000
#00519:25
#0051a:0024
#00512:25
#00510:41
#01018:0000001300000000
#01015:00130000
#0101b:0000000000130000
#01016:00000013
#01012:0024
#01116:0000000000140000
#0111b:1313
#01115:00130000
#01118:0000001300000000
#01112:0013000024000000
#0111a:00000014
#0121b:0013
#01215:1300130000130013
#01218:0000001300001300
#01212:0024
#00916:0000000000140000
#00912:2524
#00919:25
#00116:14000014
#00112:14
#0011a:00000014
#0141b:13
#01418:00130013
#01415:0000001300000000
#01412:0013
#01416:0024
#01515:13000013
#01518:00130000
#01512:00130000
#0151b:0013
#01516:0024
#01618:13
#01615:0013000000000000
#01616:0024
#01715:0013000000001300
#01718:1300000000000013
#0171b:00130000
#01712:0024
#01710:41
#01812:1324
#01815:0013000000000000
#01818:00130000
#0181b:0000001300000000
#02012:0000130000141414
#02018:1300001300000000
#02015:0013000013000000
#0201a:0024
#01912:0013
#0191b:0000000000000013
#01918:0000130000130000
#01915:0000001300001300
#0191a:0024
#0211b:00130013
#02115:13
#02112:0000130000000013
#02118:2313
#02212:00130013
#02218:13
#0221b:00130000
#02215:1313
#02418:13
#0241b:00130013
#02415:1313
#02412:00130013
#02515:0000001313000000
#0251b:00000000000000130000130000000000
#02512:00000013
#02518:2313000000000013
#02618:0000001313000000
#02612:00000000000000130000130000000000
#0261b:00000013
#02615:2313000000000013
#02712:1300001300000000
#0271b:0000000013000013
#02715:00000000000000002300001300000000
#02718:23000013000000000000000000000000
#02812:1314
#02817:000000000000000000000000000000000000000000000000000000000000000000000000000000000000000000000000000000000000000000000000000000000000000000000000000000000000000000000000000000000000000000000000000000000000000000000000000000000000000000000000000000000000000000000000000000000000000000000000000000000000000000000000000000000000000000000000000000000000000000000000000000000000000000000000000000000000000000000000000000000000000000000000000000000000000000000000000000000000000000000000000000000000000000000000000000000000000000000000000000000000000000000000000000000000000000000000000000000000000000000000000000000000000000000000000000000000000000000000000000000000000000000000000000000000000000000000000000000000000000000000000000000000000000000000000000000000000000000000000000000000000000000000000000000000000000000000000000000000000000000000000000000000000000000000000000000000000000000000000000000000000000000000000000000000000000000000000000000000000000000000000000000000000000000000000000000000000000000000000000000000000000000000000000000000000000000000000000000000000000000000000000000000000000000000000000000000000000000000000000000000000000000000000000000000000000000000000000000000000000000000000000000000000000000000000000000000000000000000000000000000000000000000000000000000000000000000000000000000000000000000000000000000000000000000000000000000000000000000000000000000000000000000000000000000000000000000000000000000000000000000000000000000000000000000000000000000000000000000000000000000000000000000000000000000000000000000000000000000000000000000000000000000000000000000000000000000000000000000000000000000000000000000000000000000000000000000000000000000000000000000000000000000000000000000000000000000000000000000000000000000000000000000000000000000000000000000000000000000000000000000000000000000000000000000000000000000000000000000000000000000000000000000000000000000000000000000000000000000000000000000000000000000000000000000000000000000000000000000000000000000000000000000000000000000000000000000000000000000000000000000000000000000000000000000000000000000000000000000000000000000000000000000000000000000000000000000000000000000000000000000000000000000000000000000000000000000000000000000000000000000000000000000000000000000000000000000000000000000000000000000000000000000000000000000000000000000000000000000000000000000000000000000000000000000000000000000000000000000000000000014000000000000000000000000000000000000000000000000000000000000000000000000000000000000000000000000000000000000000000000000000000000000000000000000000000000000000000000000000000000000000000000000000000000000000000000000000000000000000000000000000000000000000000000000000000000000000000000000000000000000000000000000000000000000000000000000000000000000000000000000000000000000000000000000000000000000000000000000000000000000000000000000000000000000000000000000000000000000000000000000000000000000000000000000000000000000000000000000000000000000000000000000000000000000000000000000000000000000000000000000000000000000000000000000000000000000000000000000000000000000000000000000000000000000000000000000000000000000000000000000000000000000000000000000000000000000000000000000000000000000000000000000000000000000000000000000000000000000000000000000000000000000000000000000000000000000000000000000000000000000000000000000000000000000000000000000000000000000000000000000000000000000000000000000000000000000000000000000000000000000000000000000000000000000000000000000000000000000000000000000000000000000000000000000000000000000000000000000000000000000000000000000000000000000000000000000000000000000000000000000000000000000000000000000000000000000000000000000000000000000000000000000000000000000000000000000000000000000000000000000000000000000000000000000000000000000000000000000000000000000000000000000000000000000000000000000000000000000000000000000
#02815:0000000000140000
#0281a:0024
#02816:24240000
#03015:1300001300000000
#03012:0013000013000000
#03018:00130013
#0301a:0024
#03116:14
#03115:0000130000000013
#03118:0000001300000000
#03112:00002413
#03218:1300001300000000
#0321b:0013000013000000
#03215:00130013
#03212:0024
#03316:1413
#03317:0000130000001313
#03319:0000001300000000
#03314:0000000000130000
#03312:00000013
#0331a:0024
#0341b:0000000000130000
#03418:0000001300000000
#03416:0013000000000000
#03412:00002413
#03512:00130013
#0351b:13
#03516:0013
#0351a:0024
#03615:0000000000130000
#03618:13000013
#0361b:0000130000000013
#03612:0024
#0391b:00130013
#03919:0000001300000000
#03912:1314
#03917:0013
#03916:00000013
#0391a:24
#0401a:0014
#04012:1313
#04016:00130000
#04015:00000013
#04316:14140013
#04317:0013
#04312:24
#0431a:00240000
#04313:0024
#04319:00000024
#04418:13
#04415:23
#04619:0000001300000000
#04616:00000013
#0461b:00130013
#04614:0000000000130000
#04617:0013
#04612:0024
#04610:41
#04714:0013000000130000
#04712:1313
#04719:0000001300000000
#04716:0000130024001314
#0471b:00130000
#0471a:00000014
#04812:1313
#04814:0000000000000014
#04818:0000130000140000
#04815:0000001300000000
#04816:00000014
#0481a:0024
#05014:0000001300000000
#05017:00000013
#05012:00130013
#05019:0000000000130000
#05016:0013
#0501a:0024
#05119:0013000000130000
#0511b:1313
#05114:0000001300000000
#05117:00130013
#05112:00130014
#05116:0000000024000014
#0521b:1313
#05218:0000001300000014
#05214:0000000000140000
#05215:00130000
#05216:00000014
#05212:0024
#04512:26000013
#04518:26
#04516:0024
#0451f:21
#0491b:00000013
#04912:26
#04916:0024
#04918:26
#05416:14132400
#05412:1413
#0541a:00000014
#05418:0000000000000014
#05414:0000001300000000
#05516:1414140024140014
#05512:14000014
#05514:0000001400000000
#0551a:0014
#05618:0000131313130000
#05619:00000000001300130013001300000000
#0561a:14
#05612:14
#05615:0000131313130000
#05614:00000000001300130013001300000000
#05712:14000014
#05716:0014001400000014
#0571a:0014
#05812:00000014
#05814:0000000000140000
#05816:0000140014000014
#05818:0000001400000000
#0601b:00130000
#06013:0013
#06019:00000013
#0601a:0013
#06014:00000013
#06115:1300000000130000
#06118:0013
#06112:00230000
#0611b:00000023
#06315:0013
#06318:0000000000130000
#0631b:00230000
#06312:00000023
#06212:0013
#06218:1313
#0621b:00130013
#06215:00230023
#0641b:0013
#06415:1313
#06412:00130013
#06418:00230023
#06518:0000001300000000
#06512:0000000013002313
#06515:00230000
#06618:1313000000000000
#06615:0000231300000000
#06612:00000023
#06715:0000001300000000
#0671b:0000000013002313
#06718:00230000
#06815:1313000000000014
#0681a:00000014
#06817:000000000000000000000000000000000000000000000000000000000000000000000000000000000000000000000000000000000000000000000000000000000000000000000000000000000000000000000000000000000000000000000000000000000000000000000000000000000000000000000000000000000000000000000000000000000000000000000000000000000000000000000000000000000000000000000000000000000000000000000000000000000000000000000000000000000000000000000000000000000000000000000000000000000000000000000000000000000000000000000000000000000000000000000000000000000000000000000000000000000000000000000000000000000000000000000000000000000000000000000000000000000000000000000000000000000000000000000000000000000000000000000000000000000000000000000000000000000000000000000000000000000000000000000000000000000000000000000000000000000000000000000000000000000000000000000000000000000000000000000000000000000000000000000000000000000000000000000000000000000000000000000000000000000000000000000000000000000000000000000000000000000000000000000000000000000000000000000000000000000000000000000000000000000000000000000000000000000000000000000000000000000000000000000000000000000000000000000000000000000000000000000000000000000000000000000000000000000000000000000000000000000000000000000000000000000000000000000000000000000000000000000000000000000000000000000000000000000000000000000000000000000000000000000000000000000000000000000000000000000000000000000000000000000000000000000000000000000000000000000000000000000000000000000000000000000000000000000000000000000000000000000000000000000000000000000000000000000000000000000000000000000000000000000000000000000000000000000000000000000000000000000000000000000000000000000000000000000000000000000000000000000000000000000000000000000000000000000000000000000000000000000000000000000000000000000000000000000000000000000000000000000000000000000000000000000000000000000000000000000000000000000000000000000000000000000000000000000000000000000000000000000000000000000000000000000000000000000000000000000000000000000000000000000000000000000000000000000000000000000000000000000000000000000000000000000000000000000000000000000000000000000000000000000000000000000000000000000000000000000000000000000000000000000000000000000000000000000000000000000000000000000000000000000000000000000000000000000000000000000000000000000000000000000000000000000000000000000000000000000000000000000000000000000000000000000000000000000000000000000000000000000000000000000000000000000000000000000000000000000000000000000000000000000000000000000000000000000000000000000000000000000000000000000000000000000000000000000000000000000000000000000000000000000000000000000000000000000000000000000000000000000000000000000000000000000000000000000000000000000000000000000000000000000000000000000000000000000000000000000000000000000000000000000000000000000000000000000000000000000000000000000000000000000000000000000000000000000000000000000000000000000000000000000000000000000000000000000000000000000000000000000000000000000000000000000000000000000000000000000000000000000000000000000000000000000000000000000000000000000000000000000000000000000000000000000000000000000000000000000000000000000000000000000000000000000000000000000000000000000000000000000000000000000000000000000000000000000000000000000000000000000000000000000000000000000000000000000000000000000000000000000000000000000000000000000000000000000000000000000014000000000000000000000000000000000000000000000000000000000000000000000000000000000000000000000000000000000000000000000000000000000000000000000000000000000000000000000000000000000000000000000000000000000000000000000000000000000000000000000000000000000000000000000000000000000000000000000000000000000000000000000000000000000000000000000000000000000000000000000000000000000000000000000000000000000000000000000000000000000000000000000000000000000000000000000000000000000000000000000000
#06812:00000014
#06818:00230000
#0701b:1313
#07017:00130000
#07016:1313
#07014:0000000000000013
#07012:00240024
#0711b:1313
#07116:13241324
#07112:00130000
#07119:0000000000000013
#07312:2413
#0731b:00130000
#07317:0013
#07314:0000000000000013
#0731a:24
#07316:00240024
#07612:13240014
#07618:0014000014000000
#07616:14
#0761a:00140024
#07614:0000001400140000
#07412:1313
#07416:00130000
#07417:1313
#07419:0000000000000013
#0741a:00240024
#07512:1313
#07517:1313
#0751b:00130000
#07514:0000000000000013
#07516:00240024
#07718:13
#01312:13131300
#01319:00130000
#0131b:13
#01316:0024
#05916:0024002400000024
#05912:0024
#0591a:24000024
#05910:41
#03852:0014
#0385b:63
#03857:00230000
#04152:0014
#00356:64000054
#00352:0013
#0025b:0013
#0015b:0013
#00156:54000064
#00452:0013
#00559:15
#00556:0000000000240000
#00552:55
#00855:13
#00858:13
#00657:00000053
#00752:00000054
#01255:13
#01258:13
#0115a:00000064
#00956:0000000000240000
#00952:15
#00959:65
#02158:13
#02155:6313
#02152:00530000
#02258:5313
#0225b:00630000
#02355:0013
#02458:5313
#0245b:00630000
#02455:0063
#02452:00000053
#02555:0013
#02558:0053000000000000
#02658:0013
#02655:0063000000000000
#02852:00005434
#0285a:00006444
#02856:54640000
#02857:000000000000000000000000000000000000000000000000000000000000000000000000000000000000000000000000000000000000000000000000000000000000000000000000000000000000000000000000000000000000000000000000000000000000000000000000000000000000000000000000000000000000000000000000000000000000000000000000000000000000000000000000000000000000000000000000000000000000000000000000000000000000000000000000000000000000000000000000000000000000000000000000000000000000000000000000000000000000000000000000000000000000000000000000000000000000000000000000000000000000000000000000000000000000000000000000000000000000000000000000000000000000000000000000000000000000000000000000000000000000000000000000000000000000000000000000000000000000000000000000000000000000000000000000000000000000000000000000000000000000000000000000000000000000000000000000000000000000000000000000000000000000000000000000000000000000000000000000000000000000000000000000000000000000000000000000000000000000000000000000000000000000000000000000000000000000000000000000000000000000000000000000000000000000000000000000000000000000000000000000000000000000000000000000000000000000000000000000000000000000000000000000000000000000000000000000000000000000000000000000000000000000000000000000000000000000000000000000000000000000000000000000000000000000000000000000000000000000000000000000000000000000000000000000000000000000000000000000000000000000000000000000000000000000000000000000000000000000000000000000000000000000000000000000000000000000000000000000000000000000000000000000000000000000000000000000000000000000000000000000000000000000000000000000000000000000000000000000000000000000000000000000000000000000000000000000000000000000000000000000000000000000000000000000000000000000000000000000000000000000000000000000000000000000000000000000000000000000000000000000000000000000000000000000000000000000000000000000000000000000000000000000000000000000000000000000000000000000000000000000000000000000000000000000000000000000000000000000000000000000000000000000000000000000000000000000000000000000000000000000000000000000000000000000000000000000000000000000000000000000000000000000000000000000000000000000000000000000000000000000000000000000000000000000000000000000000000000000000000000000000000000000000000000000000000000000000000000000000000000000000000000000000000000000000000000000000000000000000000000000000000000000000000000000000000000000000000000000000000000024000000000000000000000000000000000000000000000000000000000000000000000000000000000000000000000000000000000000000000000000000000000000000000000000000000000000000000000000000000000000000000000000000000000000000000000000000000000000000000000000000000000000000000000000000000000000000000000000000000000000000000000000000000000000000000000000000000000000000000000000000000000000000000000000000000000000000000000000000000000000000000000000000000000000000000000000000000000000000000000000000000000000000000000000000000000000000000000000000000000000000000000000000000000000000000000000000000000000000000000000000000000000000000000000000000000000000000000000000000000000000000000000000000000000000000000000000000000000000000000000000000000000000000000000000000000000000000000000000000000000000000000000000000000000000000000000000000000000000000000000000000000000000000000000000000000000000000000000000000000000000000000000000000000000000000000000000000000000000000000000000000000000000000000000000000000000000000000000000000000000000000000000000000000000000000000000000000000000000000000000000000000000000000000000000000000000000000000000000000000000000000000000000000000000000000000000000000000000000000000000000000000000000000000000000000000000000000000000000000000000000000000000000000000000000000000000000000000000000000000000000000000000000000000000000000000000000000000000000000000000000000000000000000000000000000000000000000000000000000000000
#02855:0000000000240000
#03752:14000053
#0375a:0014
#0375b:63
#03058:00000053
#03052:0053
#03255:00000063
#0325b:0063
#03357:0000000000000053
#03456:0063000000000000
#03452:00000053
#0355b:63
#03556:0063
#03552:00000023
#03658:53
#0365b:00230000
#01452:0053
#01458:00000053
#0155b:0063
#01555:00000063
#0175b:00630000
#0405a:0014
#04052:5353
#04056:00630000
#04055:00000063
#03952:5314
#0395b:00000063
#0395a:14
#0425a:0014
#04352:14
#0435a:00140000
#04353:0014
#04359:00000014
#04455:13
#04558:46
#04552:66000023
#0465b:00000063
#05052:00000053
#04952:36
#0495b:00000023
#04958:56
#0485b:43
#04852:33
#0475a:00000064
#04756:0000000000000024
#0525b:43
#05252:33
#05152:00000054
#05156:0000000000000024
#0535a:14
#05356:64
#0535b:0063
#05456:54
#05452:1453
#05556:1424000000240024
#05552:54000054
#0555a:0064
#05658:0000535353531300
#05659:00000000002300230023002300000000
#0565a:64
#05652:54
#05655:0000636363631300
#05654:00000000002300230023002300000000
#05756:0054000000000054
#0575a:0064
#0605b:00130000
#06053:0013
#06059:00000013
#05956:0064000000000064
#05952:0054
#06155:13
#06358:13
#06258:5353
#0625b:00630063
#06455:6363
#06452:00530053
#06555:13
#0685a:00000064
#06857:000000000000000000000000000000000000000000000000000000000000000000000000000000000000000000000000000000000000000000000000000000000000000000000000000000000000000000000000000000000000000000000000000000000000000000000000000000000000000000000000000000000000000000000000000000000000000000000000000000000000000000000000000000000000000000000000000000000000000000000000000000000000000000000000000000000000000000000000000000000000000000000000000000000000000000000000000000000000000000000000000000000000000000000000000000000000000000000000000000000000000000000000000000000000000000000000000000000000000000000000000000000000000000000000000000000000000000000000000000000000000000000000000000000000000000000000000000000000000000000000000000000000000000000000000000000000000000000000000000000000000000000000000000000000000000000000000000000000000000000000000000000000000000000000000000000000000000000000000000000000000000000000000000000000000000000000000000000000000000000000000000000000000000000000000000000000000000000000000000000000000000000000000000000000000000000000000000000000000000000000000000000000000000000000000000000000000000000000000000000000000000000000000000000000000000000000000000000000000000000000000000000000000000000000000000000000000000000000000000000000000000000000000000000000000000000000000000000000000000000000000000000000000000000000000000000000000000000000000000000000000000000000000000000000000000000000000000000000000000000000000000000000000000000000000000000000000000000000000000000000000000000000000000000000000000000000000000000000000000000000000000000000000000000000000000000000000000000000000000000000000000000000000000000000000000000000000000000000000000000000000000000000000000000000000000000000000000000000000000000000000000000000000000000000000000000000000000000000000000000000000000000000000000000000000000000000000000000000000000000000000000000000000000000000000000000000000000000000000000000000000000000000000000000000000000000000000000000000000000000000000000000000000000000000000000000000000000000000000000000000000000000000000000000000000000000000000000000000000000000000000000000000000000000000000000000000000000000000000000000000000000000000000000000000000000000000000000000000000000000000000000000000000000000000000000000000000000000000000000000000000000000000000000000000000000000000000000000000000000000000000000000000000000000000000000000000000000000000000000000000000000000000000000000000000000000000000000000000000000000000000000000000000000000000000000000000000000000000000000000000000000000000000000000000000000000000000000000000000000000000000000000000000000000000000000000000000000000000000000000000000000000000000000000000000000000000000000000000000000000000000000000000000000000000000000000000000000000000000000000000000000000000000000000000000000000000000000000000000000000000000000000000000000000000000000000000000000000000000000000000000000000000000000000000000000000000000000000000000000000000000000000000000000000000000000000000000000000000000000000000000000000000000000000000000000000000000000000000000000000000000000000000000000000000000000000000000000000000000000000000000000000000000000000000000000000000000000000000000000000000000000000000000000000000000000000000000000000000000000000000000000000000000000000000000000000000000000000000000000000000000000000000000000000000000000000000000000000000000000000024000000000000000000000000000000000000000000000000000000000000000000000000000000000000000000000000000000000000000000000000000000000000000000000000000000000000000000000000000000000000000000000000000000000000000000000000000000000000000000000000000000000000000000000000000000000000000000000000000000000000000000000000000000000000000000000000000000000000000000000000000000000000000000000000000000000000000000000000000000000000000000000000000000000000000000000000000000000000000000000000
#06855:0000000000000024
#06852:00000054
#06952:34530000
#0695a:44
#06956:0063
#0705b:6363
#07057:00530000
#07156:6363
#07152:00530000
#0725a:00000064
#07256:0000000000000024
#07352:34
#0735a:44
#0735b:00630000
#07357:0053
#07452:5353
#07456:00630000
#07557:5353
#0755b:00630000
#07652:00000054
#07755:13
#07758:13
#02755:00000000000000000000006300000000
#02758:00000053000000000000000000000000
#02752:53
#0275b:0063
#01955:13
#01958:13
#01056:00000063
#01352:0053
#001360:14
#0013b0:0023
#001360:00000014
#002320:00230000
#002360:00001424
#003360:14
#003320:0023
#003360:00000014
#0043b0:00230000
#005320:15
#005360:0000000000540000
#006320:00230000
#006370:00000013
#0073b0:23
#007320:00000014
#008350:23
#009390:15
#009360:0000000000540000
#0103b0:00230000
#010360:00000013
#011320:23
#0113a0:00000014
#012380:23
#013320:0013
#014360:23
#014320:0013
#014350:00000023
#014381:00000013
#0153b1:23
#0153b1:0013
#015381:00000023
#015350:00000013
#016320:23
#0163b0:00132300
#016320:00000013
#017320:23
#0173b0:00130000
#017370:0023
#018320:00000013
#018330:000000000000000000000000000000000000000000000000000000000000000000000000000000000000000000000000000000000000000000000000000000000000000000000000000000000000000000000000000000000000000000000000000000000000000000000000000000000000000000000000000000000000000000000000000000000000000000000000000000000000000000000000000000000000000000000000000000000000000000000000000000000000000000000000000000000000000000000000000000000000000000000000000000000000000000000000000000000000000000000000000000000000000000000000000000000000000000000000000000000000000000000000000000000000000000000000000000000000000000000000000000000000000000000000000000000000000000000000000000000000000000000000000000000000000000000000000000000000000000000000000000000000000000000000000000000000000000000000000000000000000000000000000000000000000000000000000000000000000000000000000000000000000000000000000000000000000000000000000000000000000000000000000000000000000000000000000000000000000000000000000000000000000000000000000000000000000000000000000000000000000000000000000000000000000000000000000000000000000000000000000000000000000000000000000000000000000000000000000000000000000000000000000000000000000000000000000000000000000000000000000000000000000000000000000000000000000000000000000000000000000000000000000000000000000000000000000000000000000000000000000000000000000000000000000000000000000000000000000000000000000000000000000000000000000000000000000000000000000000000000000000000000000000000000000000000000000000000000000000000000000000000000000000000000000000000000000000000000000000000000000000000000000000000000000000000000000000000000000000000000000000000000000000000000000000000000000000000000000000000000000000000000000000000000000000000000000000000000000000000000000000000000000000000000000000000000000000000000000000000000000000000000000000000000000000000000000000000000000000000000000000000000000000000000000000000000000000000000000000000000000000000000000000000000000000000000000000000000000000000000000000000000000000000000000000000000000000000000000000000000000000000000000000000000000000000000000000000000000000000000000000000000000000000000000000000000000000000000000000000000000000000000000000000000000000000000000000000000000000000000000000000000000000000000000000000000000000000000000000000000000000000000000000000000000000000000000000000000000000000000000000000000000000000000000000000000000000000000000000000000000000000000000000000000000000000000000000000000000000000000000000000000000000000000000000000000000000000000000000000000000000000000000000000000000000000000000000000000000000000000000000000000000000000000000000000000000000000000000000000000000000000000000000000000000000000000000000000000000000000000000000000000000000000000000000000000000000000000000000000000000000000000000000000000000000000000000000000000000000000000000000000000000000000000000000000000000000000000000000000000000000000000000000000000000000000000000000000000000000000000000000000000000000000000000000000000000000000000000000000000000000000000000000000000000000000000000000000000000000000000000000000000000000000000000000000000000000000000000000000000000000000000000000000000000000000000000000000000000000000000000000000000000000535500000000000000000000000000000000000000000000000000000000000000000000000000000000000000000000000000000000000000000000000000000000000000000000000000000000000000000000000000000000000000000000000000000000000000000000000000000000000000000000000000000000000000000000000000000000000000000000000000000000000000000000000000000000000000000000000000000000000000000000000000000000000000000000000000000000000000000000000000000000000000000000000000000000000000000000000000000000000000000000000000000000000000000000000000000000000000000000000000000000000000000000000000000000000000000000000000000000000000000000000000000000000000000000000000000000000000
#018340:000000000000000000000000000000000000000000000000000000000000000000000000000000000000000000000000000000000000000000000000000000000000000000000000000000000000000000000000000000000000000000000000000000000000000000000000000000000000000000000000000000000000000000000000000000000000000000000000000000000000000000000000000000000000000000000000000000000000000000000000000000000000000000000000000000000000000000000000000000000000000000000000000000000000000000000000000000000000000000000000000000000000000000000000000000000000000000000000000000000000000000000000000000000000000000000000000000000000000000000000000000000000000000000000000000000000000000000000000000000000000000000000000000000000000000000000000000000000000000000000000000000000000000000000000000000000000000000000000000000000000000000000000000000000000000000000000000000000000000000000000000000000000000000000000000000000000000000000000000000000000000000000000000000000000000000000000000000000000000000000000000000000000000000000000000000000000000000000000000000000000000000000000000000000000000000000000000000000000000000000000000000000000000000000000000000000000000000000000000000000000000000000000000000000000000000000000000000000000000000000000000000000000000000000000000000000000000000000000000000000000000000000000000000000000000000000000000000000000000000000000000000000000000000000000000000000000000000000000000000000000000000000000000000000000000000000000000000000000000000000000000000000000000000000000000000000000000000000000000000000000000000000000000000000000000000000000000000000000000000000000000000000000000000000000000000000000000000000000000000000000000000000000000000000000000000000000000000000000000000000000000000000000000000000000000000000000000000000000000000000000000000000000000000000000000000000000000000000000000000000000000000000000000000000000000000000000000000000000000000000000000000000000000000000000000000000000000000000000000000000000000000000000000000000000000000000000000000000000000000000000000000000000000000000000000000000000000000000000000000000000000000000000000000000000000000000000000000000000000000000000000000000000000000000000000000000000000000000000000000000000000000000000000000000000000000000000000000000000000000000000000000000000000000000000000000000000000000000000000000000000000000000000000000000000000000000000000000000000000000000000000000000000000000000000000000000000000000000000000000000000000000000000000000000000000000000000000000000000000000000000000000000000000000000000000000000000000000000000000000000000000000000000000000000000000000000000000000000000000000000000000000000000000000000000000000000000000000000000000000000000000000000000000000000000000000000000000000000000000000000000000000000000000000000000000000000000000000000000000000000000000000000000000000000000000000000000000000000000000000000000000000000000000000000000000000000000000000000000000000000000000000000000000000000000000000000000000000000000000000000000000000000000000000000000000000000000000000000000000000000000000000000000000000000000000000000000000000000000000000000000000000000000000000000000000000000000000000000000000000000000000000000000000000000000000000000000000000000000000000000000000000000000000000000000000000000000000000000000000000000000000000000000000000000000000000000000000000000000000000000000000000000000000000000000000000000000000000000000000000000000000000000000000000000000000000000000000000000000000000000000000000000000000000000000000000000000000000000000000000000000000000000000000000000000000000000000054530000000000000000000000000000000000000000000000000000000000000000000000000000000000000000000000000000000000000000000000000000000000000000000000000000000000000000000000000000000000000000000000000000000000000000000000000000000000000000000000000000000000000000000000000000000000000000000000000000000000000000000000000000
#019350:23
#0183b1:00000013
#0183a1:00000000000000000000000000000000000000000000000000000000000000000000000000000000000000000000000000000000000000000000000000000000000000000000000000000000000000000000000000000000000000000000000000000000000000000000000000000000000000000000000000000000000000000000000000000000000000000000000000000000000000000000000000000000000000000000000000000000000000000000000000000000000000000000000000000000000000000000000000000000000000000000000000000000000000000000000000000000000000000000000000000000000000000000000000000000000000000000000000000000000000000000000000000000000000000000000000000000000000000000000000000000000000000000000000000000000000000000000000000000000000000000000000000000000000000000000000000000000000000000000000000000000000000000000000000000000000000000000000000000000000000000000000000000000000000000000000000000000000000000000000000000000000000000000000000000000000000000000000000000000000000000000000000000000000000000000000000000000000000000000000000000000000000000000000000000000000000000000000000000000000000000000000000000000000000000000000000000005300000000000000000000000000000000000000000000000000000000000000000000000000000000000000000000000000000000000000000000000000000000000000000000000000000000000000000000000000000000000000000000000000000000000000000000
#018381:000000000000000000005554
#018391:00000000000000000000000000000000000000000000000000000000000000000000000000000000000000000000000000000000000000000000000000000000000000000000000000000000000000000000000000000000000000000000000000000000000000000000000000000000000000000000000000000000000000000000000000000000000000000000000000000000000000000000000000000000000000000000000000000000000000000000000000000000000000000000000000000000000000000000000000000000000000000000000000000000000000000000000000000000000000000000000000000000000000000000000000000000000000000000000000000000000000000000000000000000000000000000000000000000000000000000000000000000000000000000000000000000000000000000000000000000000000000000000000000000000000000000000000000000000000000000000000000000000000000000000000000000000000000000000000000000000000000000000000000000000000000000000000000000000000000000000000000000000000000000000000000000000000000000000000000000000000000000000000000000000000000000000000000000000000000000000000000000000000000000000000000000000000000000000000000000000000000000000000000000000000000000000000000000000000000000000000000000000000000000000000000000000000000000000000000000000000000000000000000000000000000000005300000000000000000000000000000000000000000000000000000000000000000000000000000000000000000000000000000000
#019381:23
#021351:1323
#021321:00330000
#022381:1323
#0223b1:00330000
#024381:1323
#0243b1:00330000
#024350:0013
#024320:00000033
#025350:23
#025380:0013000000000000
#0253b0:0000002300000000
#026350:0013000000000000
#026320:0000002300000000
#027320:13
#027350:00000023000000000000000000000000
#027381:00000013000000000000000000000000
#0273b1:0000002300000000
#0273b1:0013
#027381:00000000000000000000002300000000
#027350:00000000000000000000001300000000
#027320:0000000000000023
#028360:14
#0283a0:00240000
#028361:00140000
#028321:00003424
#028351:0000000000540000
#0283a0:00001424
#028370:000000000000000000000000000000000000000000000000000000000000000000000000000000000000000000000000000000000000000000000000000000000000000000000000000000000000000000000000000000000000000000000000000000000000000000000000000000000000000000000000000000000000000000000000000000000000000000000000000000000000000000000000000000000000000000000000000000000000000000000000000000000000000000000000000000000000000000000000000000000000000000000000000000000000000000000000000000000000000000000000000000000000000000000000000000000000000000000000000000000000000000000000000000000000000000000000000000000000000000000000000000000000000000000000000000000000000000000000000000000000000000000000000000000000000000000000000000000000000000000000000000000000000000000000000000000000000000000000000000000000000000000000000000000000000000000000000000000000000000000000000000000000000000000000000000000000000000000000000000000000000000000000000000000000000000000000000000000000000000000000000000000000000000000000000000000000000000000000000000000000000000000000000000000000000000000000000000000000000000000000000000000000000000000000000000000000000000000000000000000000000000000000000000000000000000000000000000000000000000000000000000000000000000000000000000000000000000000000000000000000000000000000000000000000000000000000000000000000000000000000000000000000000000000000000000000000000000000000000000000000000000000000000000000000000000000000000000000000000000000000000000000000000000000000000000000000000000000000000000000000000000000000000000000000000000000000000000000000000000000000000000000000000000000000000000000000000000000000000000000000000000000000000000000000000000000000000000000000000000000000000000000000000000000000000000000000000000000000000000000000000000000000000000000000000000000000000000000000000000000000000000000000000000000000000000000000000000000000000000000000000000000000000000000000000000000000000000000000000000000000000000000000000000000000000000000000000000000000000000000000000000000000000000000000000000000000000000000000000000000000000000000000000000000000000000000000000000000000000000000000000000000000000000000000000000000000000000000000000000000000000000000000000000000000000000000000000000000000000000000000000000000000000000000000000000000000000000000000000000000000000000000000000000000000000000000000000000000000000000000000000000000000000000000000000000000000000000000000000000000054000000000000000000000000000000000000000000000000000000000000000000000000000000000000000000000000000000000000000000000000000000000000000000000000000000000000000000000000000000000000000000000000000000000000000000000000000000000000000000000000000000000000000000000000000000000000000000000000000000000000000000000000000000000000000000000000000000000000000000000000000000000000000000000000000000000000000000000000000000000000000000000000000000000000000000000000000000000000000000000000000000000000000000000000000000000000000000000000000000000000000000000000000000000000000000000000000000000000000000000000000000000000000000000000000000000000000000000000000000000000000000000000000000000000000000000000000000000000000000000000000000000000000000000000000000000000000000000000000000000000000000000000000000000000000000000000000000000000000000000000000000000000000000000000000000000000000000000000000000000000000000000000000000000000000000000000000000000000000000000000000000000000000000000000000000000000000000000000000000000000000000000000000000000000000000000000000000000000000000000000000000000000000000000000000000000000000000000000000000000000000000000000000000000000000000000000000000000000000000000000000000000000000000000000000000000000000000000000000000000000000000000000000000000000000000000000000000000000000000000000000000000000000000000000000000000000000000000000000000000000000000000000000000000000000000000000000000000000000000000000
#029320:00001323
#030320:0013
#030350:00000023
#030381:00000013
#0313b1:00230000
#0313b1:00001323
#0323b1:0013
#032381:00000023
#032350:00000013
#033320:00230000
#033370:0000000000000013
#0343b0:0023000000000000
#034361:0013000000000000
#034321:0000002300000000
#034321:00000013
#035361:23
#0353b0:13
#035370:00230000
#035360:0013
#035320:00000053
#036350:23
#036381:13
#0363b1:00530000
#036371:0023
#0373b1:13
#037371:00230000
#037321:00000013
#038361:23
#0383b0:1323
#038370:00530000
#039320:13
#039360:00230000
#0393b0:00000013
#040370:23
#040321:1333
#040361:00330000
#040351:00000033
#041321:23
#0413b1:00001323
#042321:00001323
#045321:16000053
#046361:00240000
#0463b1:00000013
#047361:24
#0473a1:00000014
#047361:0000000000000054
#0483b1:23
#049381:16
#0493b1:00000053
#050361:00240000
#050321:00000013
#051361:24
#051321:00000014
#051361:0000000000000054
#052321:23
#053361:14
#053321:00230000
#0533b1:0013
#053361:00000024
#054361:14
#0543b1:00230000
#054321:0013
#054361:00000024
#055321:14240000
#055361:0054000000000000
#0553a1:00001424
#055361:0000000000540000
#055320:00000014
#055360:0000000000000054
#056320:34
#056350:0000333333332300
#056340:00000000005300530053005300000000
#0563a1:14
#056381:0000333333332300
#056391:00000000005300530053005300000000
#057361:0014000000000000
#0573a1:0000002400000000
#0573a1:0014
#057361:00000024
#057361:0000000000000014
#0583a1:00240000
#059361:0014000000000000
#059321:0000002400000000
#059321:0014
#059361:00000024
#059361:0000000000000014
#060321:00230000
#061381:1353535353535353230000000000000000000000000000000000000000000000
#061391:00530053005300530053005300530053000000000000000000000000000000000000000000000000000000000000000000000000000000000000000000000000
#061321:0000000000000000000000000000000000000000000000001353535353535353
#061331:00000000000000000000000000000000000000000000000000000000000000000000000000000000000000000000000000530053005300530053005300530053
#062321:23
#062380:1300000000000000000000005353535333000000000000000000000053535353
#0623b0:0000000053535353330000000000000000000000535353533300000000000000
#0623a0:00000000000000000053005300530053000000000000000000000000000000000000000000000000005300530053005300000000000000000000000000000000
#062390:00000000000000000000000000000000000000000000000000530053005300530000000000000000000000000000000000000000000000000053005300530053
#063380:23
#063351:1353535353535353230000000000000000000000000000000000000000000000
#063341:00530053005300530053005300530053000000000000000000000000000000000000000000000000000000000000000000000000000000000000000000000000
#0633b1:0000000000000000000000000000000000000000000000001353535353535353
#0633a1:00000000000000000000000000000000000000000000000000000000000000000000000000000000000000000000000000530053005300530053005300530053
#0643b1:23
#064350:1300000000000000000000005353535333000000000000000000000053535353
#064320:0000000053535353330000000000000000000000535353533300000000000000
#064330:00000000000000000053005300530053000000000000000000000000000000000000000000000000005300530053005300000000000000000000000000000000
#064340:00000000000000000000000000000000000000000000000000530053005300530000000000000000000000000000000000000000000000000053005300530053
#065350:23
#065381:1353535353535353230000000000000000000000000000000000000000000000
#065391:00530053005300530053005300530053000000000000000000000000000000000000000000000000000000000000000000000000000000000000000000000000
#0653b1:0000000000000000000000000000000013535353535353532300000000000000
#0653a1:00000000000000000000000000000000000000000000000000000000000000000053005300530053005300530053005300000000000000000000000000000000
#0663b1:0000000000000000000000000000000013535353535353532300000000000000
#0663a1:00000000000000000000000000000000000000000000000000000000000000000053005300530053005300530053005300000000000000000000000000000000
#067351:1353535353535353230000000000000000000000000000000000000000000000
#067341:00530053005300530053005300530053000000000000000000000000000000000000000000000000000000000000000000000000000000000000000000000000
#067321:0000000000000000000000000000000013535353535353532300000000000000
#067331:00000000000000000000000000000000000000000000000000000000000000000053005300530053005300530053005300000000000000000000000000000000
#068321:0000000000000000000000000000000014545454545454543400000000000000
#068331:00000000000000000000000000000000000000000000000000000000000000000054005400540054005400540054005400000000000000000000000000000000
#068351:0000000000000054
#069321:24
#0683a0:0000000000000000000000000000000014545454545454543400000000000000
#068390:00000000000000000000000000000000000000000000000000000000000000000054005400540054005400540054005400000000000000000000000000000000
#068370:000000000000000000000000000000000000000000000000000000000000000000000000000000000000000000000000000000000000000000000000000000000000000000000000000000000000000000000000000000000000000000000000000000000000000000000000000000000000000000000000000000000000000000000000000000000000000000000000000000000000000000000000000000000000000000000000000000000000000000000000000000000000000000000000000000000000000000000000000000000000000000000000000000000000000000000000000000000000000000000000000000000000000000000000000000000000000000000000000000000000000000000000000000000000000000000000000000000000000000000000000000000000000000000000000000000000000000000000000000000000000000000000000000000000000000000000000000000000000000000000000000000000000000000000000000000000000000000000000000000000000000000000000000000000000000000000000000000000000000000000000000000000000000000000000000000000000000000000000000000000000000000000000000000000000000000000000000000000000000000000000000000000000000000000000000000000000000000000000000000000000000000000000000000000000000000000000000000000000000000000000000000000000000000000000000000000000000000000000000000000000000000000000000000000000000000000000000000000000000000000000000000000000000000000000000000000000000000000000000000000000000000000000000000000000000000000000000000000000000000000000000000000000000000000000000000000000000000000000000000000000000000000000000000000000000000000000000000000000000000000000000000000000000000000000000000000000000000000000000000000000000000000000000000000000000000000000000000000000000000000000000000000000000000000000000000000000000000000000000000000000000000000000000000000000000000000000000000000000000000000000000000000000000000000000000000000000000000000000000000000000000000000000000000000000000000000000000000000000000000000000000000000000000000000000000000000000000000000000000000000000000000000000000000000000000000000000000000000000000000000000000000000000000000000000000000000000000000000000000000000000000000000000000000000000000000000000000000000000000000000000000000000000000000000000000000000000000000000000000000000000000000000000000000000000000000000000000000000000000000000000000000000000000000000000000000000000000000000000000000000000000000000000000000000000000000000000000000000000000000000000000000000000000000000000000000000000000000000000000000000000000000000000000000000000000000000000000000000000000000000000000000000000000000000000000000000000000000000000000000000000000000000000000000000000000000000000000000000000000000000000000000000000000000000000000000000000000000000000000000000000000000000000000000000000000000000000000000000000000000000000000000000000000000000000000000000000000000000000000000000000000000000000000000000000000000000000000000000000000000000000000000000000000000000000000000000000000000000000000000000000000000000000000000000000000000000000000000000000000000000000000000000000000000000000000000000000000000000000000000000000000000000000000000000000000000000000000000000000000000000000000000000000000000000000000000000000000000000000000000000000000000000000000000000000000000000000000000000000000000000000000000000000000000000000000000000000000000000000000000000000000000000000000000000000000000000000000000000000000000000000000000000000000000000000000000000000000000000000000000000000000000000000000000000000000000000000000000000000000000054000000000000000000000000000000000000000000000000000000000000000000000000000000000000000000000000000000000000000000000000000000000000000000000000000000000000000000000000000000000000000000000000000000000000000000000000000000000000000000000000000000000000000000000000000000000000000000000000000000000000000000000000000000000000000000000000000000000000000000000000000000000000000000000000000000000000000000000000000000000000000000000000000000000000000000000000000000000000000000000000
#0693a0:24
#069320:0000130000532300
#069360:0000005333000000
#0703b0:1300005333000000
#070370:0053330000532300
#071360:1300005333000000
#071320:0053330000532300
#0723a0:00000014
#072360:0000000000000054
#0733a0:24
#0733b0:0000130000532300
#073370:0000005333000000
#074320:1300005333000000
#074360:0053330000532300
#075370:1300005333000000
#0753b0:0053330000532300
#076320:00000014
#077350:23
