This file was generated by Ched 2.7.0.0.
#TITLE ""
#ARTIST ""
#DESIGNER ""
#DIFFICULTY 0
#PLAYLEVEL
#SONGID ""
#WAVE ""
#WAVEOFFSET 0
#JACKET ""
#REQUEST "ticks_per_beat 480"
#00002: 4
#BPM01: 162
#00008: 01
#TIL00: ""
#VOLUME: ""
#HISPEED 00
#MEASUREHS 00
#04118:1414
#04114:00140014
#02114:00140000
#0211a:0014
#02118:14
#02112:00000014
#02418:00140014
#0241a:1414
#05612:00140000
#0561a:1414
#05614:00000014
#00612:00140000
#0061a:0014
#00614:00000014
#02514:0014
#02518:00000014
#02612:14
#02618:0014
#02614:00000014
#05516:00140014
#05512:0014
#06118:00140014
#06114:0014
#0011a:14
#00212:14
#00318:14
#00414:14
#00718:14
#00712:00140000
#0071a:0014
#00714:00000014
#00818:00140014
#00814:0014
#0101a:00140000
#01012:0014
#01018:00000014
#01114:14
#0111a:00140000
#01112:0014
#01118:00000014
#01214:00140014
#01218:0014
#01318:14
#01414:14
#0141a:00140000
#01416:0014
#01412:00000014
#01714:14
#0171a:00000014
#01710:41
#01812:14
#0181a:00000014
#01818:00140000
#01814:0014
#0221a:14
#02212:00140000
#02218:0014
#02214:00000014
#0231a:14
#02314:00140000
#02318:0014
#02312:00000014
#0271a:1414
#02712:00140014
#03718:1414
#03714:00140014
#0371f:11
#03914:1414
#03918:00140014
#04218:14
#04212:00140000
#04216:0014
#0421a:00000014
#04515:0016
#04518:26
#0451f:21
#04612:00140000
#04616:0014
#0461a:00000014
#04610:41
#04714:14
#04718:00140000
#04712:0014
#0471a:00000014
#04812:00140000
#04816:0014
#0481a:00000014
#05314:00140014
#05318:0014
#0531a:24
#04915:0016
#04912:26
#0501a:00140000
#05016:0014
#05012:00000014
#05118:14
#05114:00140000
#0511a:0014
#05112:00000014
#0521a:00140000
#05216:0014
#05212:00000014
#05418:00140014
#05414:0014
#05412:24
#05814:0014
#05818:00000014
#05718:0014000000000014
#0571a:0014
#05914:2414000000000014
#05912:0014
#05910:41
#06014:0014
#06012:00140014
#06318:1414
#06314:00140014
#06512:1414
#0651a:00140014
#06614:1414
#06618:00140014
#06712:14
#0671a:00140000
#06714:0014
#06718:00000014
#06812:14
#0681a:00140000
#06814:0014
#06912:00140000
#06918:0014
#06914:00000014
#0691a:24
#06910:41
#0701a:14
#07016:00140000
#07012:0014
#07018:00000014
#07112:14
#07116:00140000
#0711a:0014
#07114:00000014
#07218:14
#07212:00140000
#07216:0014
#0721a:00000014
#0731a:00140000
#07314:0014
#07318:00000014
#07312:24
#07412:14
#07416:00140000
#0741a:0014
#07414:00000014
#0751a:14
#07516:00140000
#07512:0014
#07518:00000014
#07614:14
#0761a:00140000
#07616:0014
#07612:00000014
#0771a:14
#04312:26
#04315:00260026
#04318:0026
#04412:26
#00518:26
#00510:41
#00912:26
#02818:2626
#02812:00260026
#02910:41
#02458:00540054
#0245a:6464
#0255a:14
#00558:66
#00852:14
#02652:14
#05552:0014
#0555a:14
#0565a:14
#0695a:14
#00158:0014
#0015a:64
#00252:54
#00254:0014
#00358:54
#0035a:0014
#00454:64
#00452:0014
#00754:00000064
#01158:00000054
#00952:56
#0125a:14
#01358:54
#0135a:0014
#0165a:00000014
#01754:64
#01752:0014
#02052:00000014
#02852:00000016
#0385a:0014
#04052:0014
#04558:66
#04555:0026
#0475a:00000064
#04858:14
#05452:14
#05458:00000054
#0535a:14
#05354:00000064
#04955:0026
#04952:56
#05152:00000054
#05254:14
#0585a:00140000
#05758:0054000000000054
#0575a:0064
#05954:0064000000000064
#05952:0054
#06154:14
#06054:0064
#06052:00540054
#06358:14
#06854:0014
#07352:14
#0775a:14
#0013a0:14
#001380:0024
#002320:14
#002340:0024
#003380:14
#0033a0:0024
#004340:14
#004320:0024
#005380:16
#006350:26
#007340:00000014
#008320:24
#009320:16
#010350:26
#011380:00000014
#0123a0:24
#013380:14
#0133a0:0024
#0153a0:14000034
#015380:00343400
#0163a0:34000024
#016380:00343400
#017340:14
#017320:0024
#019320:14000034
#019340:00343400
#020320:34000024
#020340:00343400
#0243a0:1434
#024380:00340034
#0253a0:24
#0293a0:14
#029380:0034
#030380:34
#0303a0:0034
#0313a0:34
#031380:0034
#032380:34
#0323a0:0024
#033320:14
#033340:0034
#034340:34
#034320:0034
#035320:34
#035340:0034
#036340:34
#036320:0024
#038380:14
#0383a0:0024
#040340:14
#040320:0024
#045380:16
#045350:0056
#046380:26
#0473a0:00000014
#048380:24
#049320:16
#049350:0056
#050320:26
#051320:00000014
#052340:24
#053340:00000014
#054320:24
#054380:00000014
#0553a0:24
#057380:1434000000003434
#0573a0:0000003434000000
#0583a0:00240000
#059340:1434000000003434
#059320:0000003434000000
#060320:00340034
#060340:0034
#061340:24
#062340:14000024
#062320:00343400
#064380:14000024
#0643a0:00343400
