This file was generated by Ched 2.7.0.0.
#TITLE ""
#ARTIST ""
#DESIGNER ""
#DIFFICULTY 0
#PLAYLEVEL
#SONGID ""
#WAVE ""
#WAVEOFFSET 0
#JACKET ""
#REQUEST "ticks_per_beat 480"
#00002: 4
#BPM01: 168
#00008: 01
#TIL00: ""
#VOLUME: ""
#HISPEED 00
#MEASUREHS 00
#00614:14
#0071a:14
#00814:14
#00918:14
#01012:14
#01118:14
#01212:14
#01210:0000000000000041
#0211a:14
#0221a:14
#02210:0000000000000041
#02314:14
#02414:14
#02518:14
#02618:14
#02712:14
#02812:14
#04318:16
#04310:41
#04418:0016
#04512:16
#04812:0016
#04918:16
#04912:0016
#05018:16
#05418:16
#05412:0016
#05518:16
#05712:16
#05718:0016
#05812:16
#05618:0016
#05610:0000004100000000
#05212:0016
#05314:16
#06218:0016
#06312:16
#06318:0016
#06412:16
#06410:0000004100000000
#06812:0016
#06918:16
#06912:0016
#07018:16
#0331f:11
#0051a:24
#01514:24
#01912:24
#03618:0024
#03714:0024
#04212:0026
#0421f:0000002100000000
#04612:0026
#04718:0026
#06018:0026
#06112:0026
#07612:0000002600000000
#03110:0000000000000041
#05354:26
#05252:0056
#001380:14
#002380:0024
#003340:14
#004340:0024
#0133a0:14
#0143a0:24
#015340:14
#016340:24
#017380:14
#018380:24
#019320:14
#020320:24
#0293a0:14
#030380:34
#0313a0:34
#032380:24
#033320:14
#034340:34
#035320:34
#036340:24
#038380:0014
#040380:0000003400000000
#041380:0000003400000000
#042380:24
#043320:0016
#044320:26
#045380:0016
#046380:26
#050320:0016
#051320:26
#051380:0016
#052380:26
#052320:0016
#053340:56
#053320:0026
#055320:0016
#056320:26
#058380:0016
#059380:26
#059320:0016
#060320:26
#064380:0016
#065380:26
#065320:0016
#066320:26
#066380:0016
#067360:36
#067380:0036
#068360:26
#070320:0016
#072340:26
#072380:0016
#074360:3600003600000000
#076380:26
