This file was generated by Ched 2.7.0.0.
#TITLE ""
#ARTIST ""
#DESIGNER ""
#DIFFICULTY 0
#PLAYLEVEL
#SONGID ""
#WAVE ""
#WAVEOFFSET 0
#JACKET ""
#REQUEST "ticks_per_beat 480"
#00002: 4
#BPM01: 168
#00008: 01
#TIL00: ""
#VOLUME: ""
#HISPEED 00
#MEASUREHS 00
#00215:13
#00212:0013
#00219:0022000000000000
#0021b:0022
#00318:0013
#00312:24
#00314:0000002400000000
#00316:00000024
#00512:0013000000000013
#00518:0000001300130000
#00515:00130013
#0051b:0000000013000013
#00118:0013
#00113:22
#00115:0000002200000000
#00117:00000022
#0011b:23
#00415:13
#00412:0000000013000025
#00419:000000000000000000000000000000000000000000000000006400000000000000000000000000000000150000000000
#0041a:0024
#00418:000000240000000000000000006400000000000000000000
#00417:00000000000000000064000000000000
#00416:000000000000006400000000
#01315:0013000000130013
#01318:00130013
#01312:0013
#0131b:0000000000000023
#01418:0013000000001300
#01415:0000130000130000
#0141b:0013
#01412:0000000000000024
#0141a:0000000000000024
#0151a:0000140000000014
#01516:00141400
#01512:00000014
#01615:0000001300000013
#01613:0013000000130000
#0161a:0000002300000023
#01618:0023000000230000
#01712:0013000000000000
#01714:00000000001300000000000000000000
#01716:0013
#0171b:0013
#01719:00000000001300000000000000000000
#01717:0013000000000000
#01718:00330000
#01713:00330000
#01812:13131313
#01818:0000001300130000
#0181b:13000013
#01913:1424001424001424
#01919:2414002414002414
#02012:0014241400000014
#0201a:0024142400000000
#02015:0000000000130000
#02018:00000023
#0211b:0013000000000000
#02118:00131300
#02115:0000001300000013
#02112:00000013
#02218:1300000000130000
#0221b:0000001300000000
#02212:0000000000130000
#02215:0013000000000013
#02210:0000000000000041
#02315:0013000013000000
#02318:0000130000130000
#02312:0000001300000000
#02314:00000014
#0231b:0000000000000023
#0241a:0023000000000014
#02416:14
#02414:00000000001400000000000000000000
#02419:0000002300000000
#02418:0000000000230000
#02512:0013000000000000
#02515:00131300
#02518:0000001300000013
#0251b:00000013
#02615:13
#02612:0000000000000014
#02718:0013000013000014
#02715:0000130000130000
#0271b:0000001300000000
#02817:0013000000000000
#0281a:0000001400000000
#02819:0000000000130023
#02816:00000013
#02812:0000000000000024
#0281b:00000000000000000000000000000000000000000000000000000000000000000000000000000000000000000000000000000000000000000063000000000000
#03315:0000001300130000
#03318:0000000013000013
#0331b:00000013
#03312:00130024
#0331f:11
#0331a:00240000
#03319:00000000000000000000000000000053
#03314:00000000000000530000000000000000
#03313:0053
#03415:1300001300130000
#03418:0013000013000000
#0341a:53240014
#03412:00130024
#03414:00000000000000530000000000000000
#03413:0053
#03518:2414000000000000
#03519:0000002414000000
#0351a:0000000000002414
#03512:14
#03515:0000001400000000
#03816:0012000000000000
#03812:00000000000016000000000000000012
#03818:0012000000000000
#00714:0000000000000014
#00718:0013001400000000
#00719:0000000000140000
#0071a:0000000000000014
#00715:00130000
#00712:0000001400000000
#00713:0000000000140000
#00812:00130000
#00816:0000000000130000
#00818:0023000000000000
#00819:0000002300000000
#0081a:0000000000230000
#0081b:0000000000000023
#00814:00000033
#0361a:2400640000140000
#03614:0054000000140000
#03617:0024
#03615:0000000000000024
#03613:00540054000000000000000000000000
#03612:54540000
#03619:00640064000000000000000000000000
#03618:0064000000000000
#04012:0000001400000000
#04014:0000000000140000
#04016:0000000000000014
#04019:00250000
#03712:1400000000142414
#0371a:0000001400241424
#03718:14
#03714:0000001400000000
#03717:00240000
#04118:0014000000000000
#0411a:0000001400000000
#04112:0000002600000000
#04114:0000000000260000
#04116:0000000000000026
#04415:0013000000001400
#04412:0000002300000014
#04418:0013000000240000
#0441a:0000000000000024
#04517:00140000
#04515:00000014
#0451a:0000001400000000
#04512:0000002500000014
#04518:0000000000240026
#04514:0024000000000000
#04617:00140000
#04618:0000000000130000
#04615:00000013
#0461a:0000001400000000
#0461b:00000013
#04612:0000002700000000
#04614:0024000000000000
#05018:0000001300000000
#0501b:0000000000130000
#05019:00000000000000000000000000130000
#05014:00000000000000000000000000130000
#05016:0000000000130000
#0501a:0013000000003300
#05013:0000002300000000
#05015:0023000000003300
#05117:13
#05112:13
#0511a:0000000013000014
#05115:0000000013000024
#05118:00000013
#05215:00000000000024000000001500000000
#05212:0014000000000000
#0521a:0000001400000000
#05217:0024000000000000
#05315:0000131300000000
#05318:0000000000130000
#05316:0000000000000013
#0531a:0000001400000014
#05312:0000000000140000
#05515:0000001500000000
#05512:00000014
#0551b:0000002300000000
#05518:0000000000230023
#05614:00140000
#05612:0000001400130024
#0561b:0023002300001300
#05610:0000004100000000
#05712:0000001300000013
#05715:0000000000130000
#05718:0000000000130000
#0571b:0000001300000000
#0571a:0024000000000000
#05716:24
#05818:0013000000000025
#05815:0013000000000000
#05819:0000002300000000
#05814:0000000000240000
#05812:0000000000000024
#0581a:0000000000240000
#06018:0013001300000000
#06015:0000130000130000
#0601b:0000000000001313
#06012:0000001300002323
#06118:1300130000130000
#06115:0013001300000013
#0611b:0000001300001300
#06112:00000023
#04212:1616000000130000
#0421b:00000013
#04215:0000000000000013
#04218:0026000000000000
#0421f:0000002100000000
#04812:1300002400001400
#04816:00000014
#04818:0013000000000000
#04815:00130000
#0481a:0000002400000000
#0491a:0000140000130000
#04918:0000000000000013
#04912:0000001400000000
#04916:14
#04915:0000000000230000
#04913:0000000000000023
#05417:0013001313000000
#05418:0000000000000013
#05412:0014001414000000
#05413:0000000000000014
#04315:0000230000130000
#04312:0000001300000013
#0431b:0000001300000013
#04318:1300000000130000
#04310:41
#06218:13
#0621a:0000002400000000
#06212:0000002400002400
#06217:00240063
#06214:0024000000000000
#06219:00000000000000000000000000000000000000000000000000000000000000000000000000000000000000000000000000640000000000000000000000000000
#07112:0000001200000000
#0711c:0000001200000000
#07412:00160016000016000000000000000000
#07418:1616002600000000
#07516:00000000001700000000000000000000
#06312:0000001600000000
#06317:0000630000160000
#06313:00640000000000000000000000000000000000000000000000000000000000000000000000000000000000000000000000000000000000001600000000000000
#0631a:24
#06316:63
#06319:00000000000000000000000000000000006400000000000000000000000000000000000000000000000000000000000000000000000000000000000000000000
#06418:0016000000000000
#06416:00000014
#06414:0000001600000000
#0641a:0000001400000000
#06412:0000000000242400
#06410:0000004100000000
#06512:0000141400000000
#06516:1400001600000014
#0651a:0000000000002424
#05916:0000000000140000
#0591a:0024000000140000
#05917:0000002700000000
#05912:0000002400000000
#05913:0026000000000000
#06712:13131313
#06716:0024002424000000
#06815:0023002300001300
#06818:0000000000131300
#07018:0000001313000000
#0701b:13
#07015:0013
#07012:13
#06912:13
#06918:00000013
#0691b:13
#06915:0000002300232300
#07218:0013
#07215:0000002323000000
#02914:0012000000000023
#02916:00120012
#02918:0000001200120000
#0291a:0000000012000024
#02912:00000000000000000000000000000000000000000000000000000000000000000000000000000000000000000000000000000000000000000063000000000000
#0311a:0000000012000014
#03112:0000000000000014
#03114:0012000000000000
#03116:00000000120000120000000012000000
#03118:0000001200120000
#03110:0000000000000041
#03218:0013002300230000
#03215:00130000
#03212:0000000000000024
#0321a:00000000000000000000000000000000000000000000000000630000000000000000000000000000006300000000000000000000000000002400000000000000
#06612:00000013
#06616:00140000
#06614:0026
#0661a:0000002424000000
#04715:0000130000130000
#04718:0013001300001300
#0471b:13
#04712:0000002300001300
#0301a:0012000000000000
#03018:00120012
#03016:0000001200120000
#03014:0012
#03019:0000000000000023
#03012:0000000000000024
#0301b:00000000000000000000000000000000000000000000000000000000000000000000000000000000000000000000000000000000000000000063000000000000
#01117:00140000
#01115:00000014
#0111a:0000001400000000
#01112:0000002400000014
#01119:0000000000000025
#01114:0024000000000000
#01118:0000000000240000
#01217:0000140000000027
#01215:00000014
#0121a:0000001400000000
#01212:0000002600000014
#01214:0024000000000000
#01218:0000000000240000
#01210:0000000000000041
#01018:0013000000130000
#0101b:0000001300000023
#01015:0013000000130000
#01012:0000001300000000
#00912:0000130000000013
#0091b:0013000000000013
#00918:0000001300002300
#00915:0013
#07612:0000002600000000
#07618:00260000
#00615:0000000000000023
#0061b:0000000000000023
#03913:000000000000003300000000000000000000000000000000
#03914:000000000000000033333333000000000000000000000000
#03912:00330000
#01452:0000000000000054
#01455:00530000
#0035a:14
#00452:0000000023000015
#00459:0000000000000015
#0025b:0022
#00852:0000230000000013
#00856:0000000000530000
#01358:00630000
#01355:0000000000000013
#0155a:00540000
#01556:00545400
#01655:0000000000000063
#0165a:0000000000000063
#01754:00000000006300000000000000000000
#01759:00000000006300000000000000000000
#0175b:0023
#01757:0023000000000000
#01752:0023000000000000
#01756:0023
#01758:00000013
#01753:00000013
#02052:0000000000000014
#0245a:0000000000000014
#02456:24
#02454:00000000005400000000000000000000
#02354:00000054
#02758:0000000000000014
#02158:0063
#02255:0053000000000000
#02555:0053
#02652:0000000000000014
#0285a:0000001400000000
#03252:0000000000000014
#0325a:0000000000000014
#0345a:00000014
#03452:00000014
#00754:0000000000000054
#00758:0000001400000000
#00759:0000000000140000
#0075a:0000000000000014
#03852:00000000000056000000000000000022
#03856:0022000000000000
#03858:0022004600000000
#03652:00140000
#0365a:0000140000140000
#05058:0000005300000000
#0505b:0000000000230000
#05059:00000000000000000000000000530000
#05054:00000000000000000000000000530000
#05056:0000000000230000
#05053:0000005300000000
#05157:23
#05152:23
#0515a:00130000
#05155:00135300
#0445a:0000000000000044
#04458:0063000000000000
#04452:0000003300000000
#04552:0000003500000000
#04558:0000000000000046
#04652:0000003700000000
#04655:00000053
#05255:00000000000014000000002500000000
#0525a:0000005400000000
#05555:0000006500000000
#0555b:0013000000000000
#05556:0014000000000000
#05552:00000024
#05758:0000000000630000
#05752:0000000000000053
#0575b:0000006300000000
#05855:0053000000000000
#05858:0000000000000045
#05859:0000004300000000
#05854:0000000000340000
#05957:0000004700000000
#05956:0000000000540000
#05952:0000005400000000
#0595a:0000000000540000
#05953:0036000000000000
#03752:1400000000000054
#0375a:0000001400000054
#04252:0056001400000000
#0425a:0000001400000000
#04258:0056000000000000
#04852:00000064
#04856:00000064
#0485a:0000006400000000
#04956:64
#05457:0063
#05458:0000000000000063
#05452:0064
#05453:0000000000000064
#0565b:0000005300000000
#05652:0000001400000000
#0435b:0000006300000063
#04358:6300000000630000
#06052:0000001300000000
#0615b:0000001300000000
#0625a:0000005400000000
#06252:0000001400006400
#07152:0000002200000000
#0715c:0000002200000000
#07452:0000006600000000
#07458:0000001600000000
#07556:00000000002700000000000000000000
#06955:00000063
#06952:23
#06958:00000063
#0695b:23
#06352:0000003600000000
#06353:0000000000000036
#06357:0000000000460000
#0635a:54
#06458:0046000000000000
#06456:00000064
#06454:0000003600000000
#0645a:0000006400000000
#06552:0000005400000000
#06556:0000004600000054
#06855:00000053
#06858:00000063
#07058:0063
#0705b:23
#07055:0053
#07052:23
#07652:0000001600000000
#03555:0000002400000000
#03552:54
#06654:0036
#0665a:0054
#07352:0000001400000000
#0735a:0000001400000000
#07255:0053
#07258:0053
#0015b:13
#03152:0000000000000014
#0315a:0000000000000014
#05359:45
#06756:0054
#06752:00000013
#0185b:53
#03955:0014
#04758:0000001300006300
#0065b:0000000000130000
#00652:0000000000130000
#00655:0000000000000053
#00952:0000000000000053
#00955:0053
#01055:0053000000530000
#01052:0000005300000000
#0105b:0000000000000043
#01152:0000003400000000
#01159:0000000000000045
#01252:0000003600000000
#01257:0000000000000047
#0023b0:0012
#0033a0:24
#004320:0000000013000025
#0063b0:0013000000230000
#006380:0000003300000000
#006321:0013000000230000
#006351:0000003300000000
#006351:0000000000000013
#007321:0023000000000000
#007341:0000000000000014
#008321:0000530000000023
#008361:0000000000330000
#008341:00000033
#009351:0013
#009321:00000023
#009321:0000000000000013
#010351:0033000000330000
#010321:0000003300000023
#013381:00130000
#0133b1:0023
#014351:00130000
#014321:0023
#014321:0000000000000014
#015361:00340000
#015321:0024
#0153a0:00140024
#015360:0034
#016350:0000000000000013
#017320:0033000000000000
#017330:00330023
#017340:00000000005300000000000000000000
#017360:0053
#0163a1:0000000000000013
#017371:0033000000000000
#017381:00330023
#017391:00000000005300000000000000000000
#0173b1:0053
#0183b1:13
#018381:00230000
#021381:0013
#0213b1:00000023
#022351:0013000000000000
#022321:0000002300000000
#0223b1:0000000000000013
#0233b1:0023000000000000
#023341:00000014
#024361:54
#024341:00000000005400000000000000000000
#024321:0000000000540024
#025351:0013
#025321:00000023
#026381:0013000000000000
#0263b1:00000053000023000000000000000000
#026320:0000001300000000
#026350:00000000000000530000230000000000
#026381:0000000000130000
#0263b1:00000000000000000000005300002300
#027321:00000013
#028321:0023000000000000
#028341:0000130000230000
#032321:0000001300000024
#035321:14000054
#035351:0000005400000000
#036321:24
#037321:0000000000000014
#038361:0052000000000000
#038321:00000000000036000000000000000052
#039321:00330000
#039331:000000000000003300000000000000000000000000000000
#039341:000000000000000033333333000000000000000000000000
#039351:0024
#0373a0:0000000000000014
#038380:0052002600000000
#042321:0016002400000000
#042380:0016000000000000
#0423a0:0000002400000000
#043380:13
#0433b0:00230000
#0433b0:0000001300000033
#043380:0000000000330000
#044380:0033000000000000
#0443b0:0000002300000000
#046350:00000013
#047320:23
#047380:00000013
#0483b0:23
#0483a0:0000001400000000
#048360:00000034
#0493a0:24
#048321:00000014
#049361:34
#049321:00240000
#050381:0000001300000000
#0503b1:0000000000330000
#0503a1:00000033
#050391:00000000000000000000000000530000
#051371:53
#0513a1:00230000
#050330:0000001300000000
#050360:0000000000330000
#050350:00000033
#050340:00000000000000000000000000530000
#051320:53
#051350:00230000
#051350:0013
#051320:00000023
#0523a0:0000001400000000
#052350:00000000000000000000005500000000
#053390:25
#054370:0013
#0543a0:00000023
#054321:0014
#054351:00000024
#054381:0000000000000013
#0553b1:0023000000000000
#054330:0000000000000014
#055360:0024000000000000
#055350:0000001500000000
#055320:00000054
#056360:0024000000000000
#0563b0:0000001300000000
#056370:0000000000230000
#0573b0:0000001300000023
#057380:0000000000330000
#057321:0000000000000013
#058351:0033000000000000
#058321:0000002300000000
#059321:0000001400000000
#059361:0000000000340000
#060321:24
#0593a0:0000000000140000
#060360:24
#0623a0:0000001400000000
#062370:00000023
#062321:00000014
#063361:23
#0633a0:14
#063370:00230000
#0643a0:0000001400000000
#064360:0000000000343400
#0653a0:24
#065320:0000001400000000
#065360:0000000000003434
#066320:00240000
#0663a0:0014
#067360:24
#067360:0014
#0673a0:00000024
#068380:1323000000000000
#068351:0013230000000000
#068380:0000132300000000
#068351:0000001300003300
#069321:53
#069351:00230000
#068380:00000013
#0693b0:53
#069380:00530033
#0703b0:53
#070380:00230000
#069351:00000013
#070321:53
#070351:00533300
#071321:0000005200000000
#072351:00230000
#070380:0013
#0713c0:0000005200000000
#072380:00333300
#0733a0:0000002400000000
#072351:0013
#073321:0000002400000000
#074381:0000162600000000
#074320:0000001600000000
#075360:00000000005700000000000000000000
#076320:00260000
#0049a0:0014
#004960:000000000000002400000000
#028990:0000000000000013
#0289b0:00000000000000000000000000000000000000000000000000000000000000000000000000000000000000000000000000000000000000000023000000000000
#029940:0000000000000013
#029920:00000000000000000000000000000000000000000000000000000000000000000000000000000000000000000000000000000000000000000023000000000000
#030990:0000000000000013
#0309b0:00000000000000000000000000000000000000000000000000000000000000000000000000000000000000000000000000000000000000000023000000000000
#032980:0000001300000000
#0329a0:00000000000000000000000000000000000000000000000000230000000000000000000000000000000000000000000000000000000000000000000000000000
#032980:0000000000130000
#0329a0:00000000000000000000000000000000000000000000000000000000000000000000000000000000002300000000000000000000000000000000000000000000
#033950:0000001300000000
#033930:0023
#033980:0000000000000013
#0349a0:23
#034950:0000001300000000
#034930:0023
#0369a0:140000000000000000000000000000000000000000000000000000000000000000000000000000000000000000000000000000000000000000000000000000000000000000000000000000000000000000000000000000000000000000000000000000000000000000000000000000000000000000000000000000000000000000000000000000000000000000000000000000000000000000000000000000000000000000000000000000000000000000000000000000000000000000000000000000000000000000000000000000000000000000000000000000000000000000000000000000000000000000000000000000000000000000000000000000000000000000000000000000000000000000000000000000000000000000000000000000000000000000000000000000000000000000000000000000000000000000000000000000000000000000000000000000000000000000000000000000000000000000000000000000000000000000000000000000000000000000000000000000000000000000000000000000000000000000000000000000000000000000000000000000000000000000000000000000000000000000000000000000000000000000000000000000000000000000000000000000000000000000000054240000000000000000000000000000000000000000000000000000000000000000000000000000000000000000000000000000000000000000000000000000000000000000000000000000000000000000000000000000000000000000000000000000000000000000000000000000000000000000000000000000000000000000000000000000000000000000000000000000000000000000000000000000000000000000000000000000000000000000000000000000000000000000000000000000000000000000000000000000000000000000000000000000000000000000000000000000000000000000000000000000000000000000000000000000000000000000000000000000000000000000000000000000000000000000000000000000000000000000000000000000000000000000000000000000000000000000000000000000000000000000000000000000000000000000000000000000000000000000000000000000000000000000000000000000000000000000000000000000000000000000000000000000000000000000000000000000000000000000000000000000000000000000000000000000000000000000000000000000000000000000000000000000000000000000000000000000000000000000000000000000000000000000000000000000000000000000000000000000000000000000000000000000000000000000000000000000000000000000000000000000000000000000000000000000000000000000000000000000000000000000000000000000000000000000000000000000000000000000000000000000000000000000000000000000000000000000000000000000000000000000000000000000000000000000000000000000000000000000000000000000000000000000000000000000000000000000000000000000000000000000000000000000000000000000000000000000000000000000000000000000000000000000000000000000000000000000000000000000000000000000000000000000000000000000000000000000000000000000000000000000000000000000000000000000000000000000000000000000000000000000000000000000000000000000000000000000000000000000000000000000000000000000000000000000000000000000000000000000000000000000000000000000000000000000000000000000000000000000000000000000000000000000000000000000000000000000000000000000000000000000000000000000000000000000000000000000000000000000000000000000000000000000000000000000000000000000000000000000000000000000000000000000000000000000000000000000000000000000000000000000000000000000000000000000000000000000000000000000000000000000000000000000000000000000000000000000000000000000000000000000000000000000000000000000000000000000000000000000000000000000000000000000000000000000000000000000000000000000000000000000000000000000000000000000000000000000000000000000000000000000000000000000000000000000000000000000000000000000000000000000000000000000000000000000000000000000000000000000000000000000000000000000000000000000000000000000000000000000000000000000000000000000000000000000000000000000000000000000000000000000000000000000000000000000000000000000000000000000000000000000000000000000000000000000000000000000000000000000000000000000000000000000000000000000000000000000000000000000000000000000000000000000000000000000000000000000000000000000000000000000000000000000000000000000000000000000000000000000000000
#036980:0054000000000000
#036921:140000000000000000000000000000000000000000000000000000000000000000000000000000000000000000000000000000000000000000000000000000000000000000000000000000000000000000000000000000000000000000000000000000000000000000000000000000000000000000000000000000000000000000000000000000000000000000000000000000000000000000000000000000000000000000000000000000000000000000000000000000000000000000000000000000000000000000000000000000000000000000000000000000000000000000000000000000000000000000000000000000000000000000000000000000000000000000000000000000000000000000000000000000000000000000000000000000000000000000000000000000000000000000000000000000000000000000000000000000000000000000000000000000000000000000000000000000000000000000000000000000000000000000000000000000000000000000000000000000000000000000000000000000000000000000000000000000000000000000000000000000000000000000000000000000000000000000000000000000000000000000000000000000000000000000000000000000000000000000000054240000000000000000000000000000000000000000000000000000000000000000000000000000000000000000000000000000000000000000000000000000000000000000000000000000000000000000000000000000000000000000000000000000000000000000000000000000000000000000000000000000000000000000000000000000000000000000000000000000000000000000000000000000000000000000000000000000000000000000000000000000000000000000000000000000000000000000000000000000000000000000000000000000000000000000000000000000000000000000000000000000000000000000000000000000000000000000000000000000000000000000000000000000000000000000000000000000000000000000000000000000000000000000000000000000000000000000000000000000000000000000000000000000000000000000000000000000000000000000000000000000000000000000000000000000000000000000000000000000000000000000000000000000000000000000000000000000000000000000000000000000000000000000000000000000000000000000000000000000000000000000000000000000000000000000000000000000000000000000000000000000000000000000000000000000000000000000000000000000000000000000000000000000000000000000000000000000000000000000000000000000000000000000000000000000000000000000000000000000000000000000000000000000000000000000000000000000000000000000000000000000000000000000000000000000000000000000000000000000000000000000000000000000000000000000000000000000000000000000000000000000000000000000000000000000000000000000000000000000000000000000000000000000000000000000000000000000000000000000000000000000000000000000000000000000000000000000000000000000000000000000000000000000000000000000000000000000000000000000000000000000000000000000000000000000000000000000000000000000000000000000000000000000000000000000000000000000000000000000000000000000000000000000000000000000000000000000000000000000000000000000000000000000000000000000000000000000000000000000000000000000000000000000000000000000000000000000000000000000000000000000000000000000000000000000000000000000000000000000000000000000000000000000000000000000000000000000000000000000000000000000000000000000000000000000000000000000000000000000000000000000000000000000000000000000000000000000000000000000000000000000000000000000000000000000000000000000000000000000000000000000000000000000000000000000000000000000000000000000000000000000000000000000000000000000000000000000000000000000000000000000000000000000000000000000000000000000000000000000000000000000000000000000000000000000000000000000000000000000000000000000000000000000000000000000000000000000000000000000000000000000000000000000000000000000000000000000000000000000000000000000000000000000000000000000000000000000000000000000000000000000000000000000000000000000000000000000000000000000000000000000000000000000000000000000000000000000000000000000000000000000000000000000000000000000000000000000000000000000000000000000000000000000000000000000000000000000000000000000000000000000000000000000000000000000000000000000000000000000000000
#036941:0054000000000000
#062971:00000013
#062991:00000000000000000000000000000000000000000000000000000000000000000000000000000000000000000000000000240000000000000000000000000000
#063961:13
#063931:00240000000000000000000000000000000000000000000000000000000000000000000000000000000000000000000000000000000000000000000000000000
#063971:00130000
#063991:00000000000000000000000000000000002400000000000000000000000000000000000000000000000000000000000000000000000000000000000000000000
