This file was generated by Ched 2.7.0.0.
#TITLE ""
#ARTIST ""
#DESIGNER ""
#DIFFICULTY 0
#PLAYLEVEL
#SONGID ""
#WAVE ""
#WAVEOFFSET 0
#JACKET ""
#REQUEST "ticks_per_beat 480"
#00002: 4
#BPM01: 168
#00008: 01
#TIL00: ""
#VOLUME: ""
#HISPEED 00
#MEASUREHS 00
#00512:0013000000000000
#00515:0000001300001300
#00518:00130000
#0051a:0000000000000014
#0051b:0013
#01318:00130013
#01315:0013000000130000
#01312:0000000000000013
#0131b:0000000000000013
#00918:0000001300000013
#0091b:0013000000000000
#00912:00130000
#00915:0013
#0101b:0013000000130000
#01018:0000001300000023
#0151b:0013
#01515:0013
#01518:0000000000130000
#01512:0000000000130000
#01616:0000001400000000
#01612:0000000000140000
#0161a:0014000000000000
#01619:0000000000000015
#02018:0000240000140000
#0201a:0000000000000014
#02014:0024000000002400
#02012:0000002400000000
#02214:0000001400000014
#02215:13
#02218:0013000000240000
#02212:0000000000140000
#0221a:0000002400000024
#02210:0000000000000041
#02718:0000000000000014
#0271a:00003414330000000000000000000000
#02712:00000014
#02719:0000003300000000
#0281a:0000140000140000
#02814:0000001400000000
#02812:0014000000001400
#00817:0014000000000000
#00815:0000000000130000
#00818:00000013
#00812:0000000000000024
#03812:0000001800000000
#03815:13
#0381b:0013000000000000
#04018:0000001300000000
#04019:0000000000130000
#0401a:0000000000000013
#04012:0000001400000000
#04013:0000000000140000
#04014:0000000000000014
#0411b:0013000000000000
#04115:0014000000000000
#04117:0000001400000000
#04118:0000000000140000
#04119:0000000000000014
#04112:0000002300000000
#04113:0000000000230000
#04114:0000000000000023
#05118:0000000013000013
#05115:00000013
#05212:00000000000000000000001300000000
#05215:0000002400000000
#0531b:0000130000000013
#05315:0000001300000013
#05312:0000000000130000
#05318:0000000000130000
#05614:00140014
#0561a:0000000000000014
#05618:0000002400000000
#05610:0000004100000000
#05712:1400000000130000
#05718:0014001300000013
#0571b:0000000000130000
#05715:0000001300000013
#0581b:0013000000000000
#05812:0013000000000000
#05818:0000002300001300
#05815:0000002300001300
#0581a:0000000000230000
#05813:0000000000230000
#00612:0000001400000000
#00616:0014000000140000
#0061a:0000000000000024
#00718:00130000
#00715:0013000000000000
#00712:0000002400000000
#00716:0000000000240000
#0071a:0000000000000024
#01418:0013000000130000
#01415:00130013
#0141b:0000000000000023
#01716:0014000000000000
#01718:0000341400000000
#01815:13131300
#01812:00000013
#01818:0000001300130000
#0181b:00000013
#02118:0000000000000013
#02112:00000000001300000000000000000000
#02115:0013000013000000
#02114:00330000
#02113:0000003300000000
#02312:0014000000000000
#02313:00000000331400000000340000000000
#02314:0000003314000000
#02318:0000000000000023
#02618:1300001400000014
#02615:0013000000000000
#0261a:0000000000140000
#02612:0000002400000024
#02614:0000000000240000
#02515:0000000000000013
#0251b:00000000001300000000000000000000
#02518:0013000013000000
#02519:00330000
#0251a:0000003300000000
#03018:00000013
#0301b:0013000000000000
#02912:00231300
#02918:0013
#02915:0000000000000013
#03118:00231300
#03112:0013
#03110:0000000000000041
#0321b:0013001300000000
#03215:00130000
#03212:0000000000000024
#03315:0000000013000013
#03318:0000000000000013
#0331f:11
#03316:24
#0331a:0024000000000000
#0341b:00130000
#03412:00130000
#03418:0013
#03415:0013
#0351b:13
#03512:13
#03515:0013
#03518:0013
#03718:0000252500000013
#03714:24
#03712:0000000000262600
#04315:0000001400000014
#04312:0000000000140000
#04318:13
#04310:41
#04412:0014000000000000
#04415:0000002400000000
#04419:0000000000230000
#0441a:00000063
#0441b:0000000000000063
#04212:0000000000130000
#04215:0023000000000013
#0421b:00000013
#0421f:0000002100000000
#04916:0000000000000014
#04912:1300000000140000
#04918:13
#04915:0013000000000000
#0491b:0013000000000000
#0501a:0014000000000000
#05012:0000001500000000
#05016:0000000000140000
#05014:0000000000003414
#05412:0013000000000000
#05418:0013000013000000
#05415:0000001300000013
#05517:0000001400000000
#05918:00140000
#05914:00140000
#0591a:0024000000240000
#05912:0024000000240000
#0601b:0000001300130000
#06018:0013000000000000
#06015:0000130000130000
#06112:0000001300130000
#06115:0013000000000000
#06118:0000130000130000
#06218:0013000000000000
#06215:00130000
#0621a:0000002400000000
#0621b:0000000000000000000000000000000000000000000000006300000000000063
#06217:0000000000000000000000000000000000000000000000630000000000000000
#06219:00000000000000000000000000000000000000000000000000000000000000000000000000000000000000000000006300000000000000000000000000000063
#06512:0000001400000000
#06518:00140000
#06516:0000000000000014
#06416:00000014
#0641a:0000002400000000
#06418:0024000000000000
#06410:0000004100000000
#06718:0023001300000000
#06715:0000001300000000
#06612:00000000000000000000000000130000
#06618:0000002400000000
#06614:0024
#0681b:13
#06815:0013000000000000
#06818:00130000
#06812:0000001300000000
#06817:00000024
#06814:0000000000330000
#07014:0000001300000000
#07017:0024
#07215:00130000
#07212:00000000000000003300000000120000
#07213:0000003300000000
#06912:0000001300000000
#06917:00000024
#06914:0000000000330000
#0711c:0000001200000000
#0741a:1400001400000000
#07416:0014000000000000
#07412:00140000
#07516:00000000001500000000000000000000
#04615:00000013
#04618:0000000000130000
#04614:0026000000000000
#04613:00660000
#04612:0000006600000000
#04718:0013000000001300
#04715:0000130000130000
#0471b:0000001300000000
#04712:0000001300000000
#04815:0013000000000000
#04818:00130000
#04812:0000002300000000
#00312:24
#00314:0000002400000000
#00316:00000024
#0041a:0024
#00418:0024000000000000
#00113:22
#00115:0000002200000000
#00117:00000022
#00219:0022000000000000
#0021b:0022
#07612:0000002600000000
#01914:2400002400002400
#01918:0024000024000024
#02418:0023002300230000
#03618:0000000023230000
#03614:0000000000000024
#03612:53535353530000000000000000000000
#0361b:53535353530000000000000000000000
#01114:0023000000000000
#01118:0000000000240000
#01113:00630000
#01112:0000006300000000
#01119:00000064
#0111a:0000000000000064
#01214:0025000000000000
#01216:0000000000260000
#01210:0000000000000041
#01213:00650000
#01212:0000006500000000
#01217:00000066
#01218:0000000000000066
#06312:0000002400000000
#06316:0000000000000024
#06314:0000000000240000
#06317:6300000000000063000000000000000000000000000000000000000000000000
#06319:00000000000000000000000000000063000000000000000000000000000000000000000000000000000000000000000000000000000000000000000000000000
#0631b:00630000
#07312:0000002600000000
#04517:0000000000250000
#04514:0024000000000000
#04518:00000065
#04519:0000000000000065
#04513:00640000
#04512:0000006400000000
#03912:000000000000333333333333000000000000000000000000
#01358:00530000
#07652:0000001600000000
#00958:0000000000000053
#00955:0053
#0105b:0053000000530000
#01058:0000005300000013
#0155b:0000000063000013
#01555:0000000063000013
#01558:0000000000230000
#01552:0000000000230000
#0205a:0000000000000014
#02254:0000000000000054
#02758:0000000000000014
#0275a:00000024000000000000000000000000
#02854:0000001400000000
#03652:00130000
#0365b:00130000
#00857:0024000000000000
#00852:0000000000000014
#03852:0000005800000000
#05158:0000000000000053
#05152:00140000
#05252:00000000000000000000002300000000
#05255:0000005400000000
#05658:0000001400000000
#05758:0014005300000053
#0575b:0000000000530000
#05752:0000000000630000
#05755:0000006300000063
#0585b:0053000000000000
#05852:0063000000000000
#05858:0000001300002300
#05855:0000001300002300
#0585a:0000000000530043
#05853:0000000000630033
#0645a:0000006400000000
#06456:00000064
#00456:0000000000000016
#0075a:0000000000000064
#01152:0000001300000000
#0115a:0000000000000014
#01252:0000001500000000
#01258:0000000000000016
#01455:00630000
#01756:0024000000000000
#01758:0000005400000000
#0175a:00000014
#01659:0000000000000055
#02152:00000000002300000000000000000000
#02155:0053000053000000
#02352:0024000000000000
#02353:00000000005400000000000000000000
#02354:0024
#02452:0000000000000014
#0255b:00000000002300000000000000000000
#02558:0063000063000000
#02658:0000000000000064
#03058:0013
#03052:0013
#0305b:0053000000000000
#02958:0053
#02952:0053
#02955:0000000000000053
#03158:0053
#03152:0053
#03155:0000000000000013
#0315b:0000000000000013
#0325b:0000005300000000
#03258:0000000000130000
#03452:00630013
#0345b:00630013
#03458:0063
#03455:0063
#03358:0000000000000063
#03355:0000000000000063
#0355b:63
#03552:63
#03558:0023
#03555:0023
#03952:0013
#04255:0000001300000000
#0425a:0000001400000000
#04355:0000006400000064
#04352:0000000000640000
#04358:63
#04452:0064000000000000
#04455:0000001400000000
#0445b:0000000000000013
#05052:0000006500000000
#05056:0000000000240000
#05054:0000000000000064
#05352:16
#05557:0000005400000000
#05458:0053
#05455:0000000000000063
#05958:00240000
#0595a:0054004400540000
#05954:00240000
#05952:0064003400540000
#0605b:0000001300530000
#06055:0000000000530000
#06152:0000001300630000
#06158:0000000000630000
#0625a:0000005400000000
#06552:0000005400000000
#06556:0000000000000054
#06654:0064
#06652:00000000000000000000000000230000
#06758:0000005300000000
#06755:0000006300000000
#06752:00000014
#0675a:00000014
#06852:0000005300000000
#06857:00000054
#06952:0000005300000000
#06957:00000054
#07057:0054
#07255:00530000
#07252:00000000000000000000000000220000
#0715c:0000002200000000
#07352:0000001600000000
#0745a:0000005400000000
#07556:00000000002500000000000000000000
#04559:0000000000000015
#04552:0000001400000000
#04652:0000001600000000
#04655:00000063
#04952:5300001300000000
#04958:5300001300000000
#04955:0023000000000000
#0495b:0023000000000000
#04758:00000053
#0043a0:0014
#004390:0000000000000000000000000000000000340000000000000000000000000000
#004380:00000000000000000034000000000000
#004370:0000000000000000000000000000000000000034000000000000000000000000
#004360:0000000000000026
#0073a0:0000000000000014
#008370:0054000000000000
#0083a0:0000002400000000
#009350:0013
#009320:00000023
#009380:0000000000000013
#0103b0:0033000000330000
#010380:0000003300000023
#013380:00130000
#0133b0:0023
#014350:00130000
#014320:0023
#0143b0:0000000000000013
#0153b0:0000000033003323
#015380:0000000000530000
#015351:0000130033003323
#015321:0000000000530000
#016391:0000000000000015
#017361:0034000000000000
#017381:0000345400000000
#0173a1:00000024
#021351:0013000033000000
#021341:00330000
#021321:00000000005300000000000023000000
#021331:0000003300000000
#022341:0000000000000014
#023321:0034000000003400
#023331:00000000335400000000340000000000
#023341:0000003334000000
#024321:0000000000000024
#025381:0013000033000000
#025391:00330000
#0253b1:00000000005300000000000023000000
#0253a1:0000003300000000
#026381:0000000000000014
#0273a1:00003454330000000000000000000000
#027391:0000003300000000
#027381:0024
#028381:0000000000000013
#029381:0033
#0293b1:0000000000330000
#0303b1:0033000000000000
#030381:00532300
#029320:00133300
#029350:0000000000330033
#030320:5323
#030320:0000000000000013
#031320:0033
#031350:0000000000330023
#031381:00133300
#0313b1:0000000000330023
#0323b1:0000001300000000
#032381:0000000000230000
#033381:0000000000130033
#0343b1:00330023
#034381:0033
#033350:0000000000000013
#034320:00330023
#034350:0033
#035320:13
#035350:0053
#036320:23
#0353b1:13
#035381:0053
#0363b1:23
#038321:0000001800000000
#039321:000000000000333333333333230000000000000000000000
#042351:0013002300000000
#0423a0:0014002400000000
#043380:13
#0433b0:00230000
#043350:0000001400000034
#043320:0000000000340000
#044320:0034000000000000
#044350:0000002400000000
#046350:00000013
#047320:23
#047380:00000013
#0483b0:23
#048320:0000001300000000
#049320:3300332300000000
#049350:0053000000000000
#048381:00000013
#049381:3300332300000000
#0493b1:0053000000000000
#050321:0000001500000000
#050361:0000000000340000
#050341:0000000000003454
#051321:00240000
#051381:0000000000000013
#0523b1:0023000000000000
#052351:0000001400000000
#052321:00000000000000000000005300000000
#053321:26
#054381:0013
#0543b1:00000023
#054351:0000000000000013
#055321:0023000000000000
#055371:0000001400000000
#0563b1:23
#057381:0000001300000033
#0573b1:0000000000330000
#0583b1:0033000000000000
#058381:0000002300000000
#057350:0000001300000033
#057320:0000000000330000
#058320:0033000000000000
#058350:0000002300000000
#0583a0:0000000000130023
#058380:00000053
#058331:0000000000130023
#058351:00000053
#0593a1:0014002400000000
#059381:00540000
#059320:0014002400000000
#059340:00540000
#059320:0000000000140000
#060350:23
#0593a1:0000000000140000
#060381:23
#060351:0000000000130000
#061321:23
#0603b0:0000000000130000
#061380:23
#061380:0000000000130000
#0623b0:23
#061321:0000000000130000
#062351:23
#0623a1:0000001400000000
#062371:0000000000000000000000000000000000000000000000230000000000000000
#0643a1:0000001400000000
#064361:0000000000343400
#0653a1:24
#065321:0000001400000000
#065361:0000000000003434
#066321:00240000
#066341:0014
#066321:00000000000000000000000000530000
#067351:0033333300000000
#067321:00000024
#067380:0013333300000000
#0673a0:00000024
#068320:0000001300000000
#068340:0000000000332300
#068371:00000014
#0693a1:00240000
#069321:0000001300000000
#069341:0000000000332300
#069370:00000014
#0703a0:00240000
#070370:0014
#0713c0:0000005200000000
#072380:00230000
#072351:00130000
#072331:0000003300000000
#072321:00000000000000003300000000520000
#073321:0000002600000000
#0743a1:0000001400000000
#075361:00000000005500000000000000000000
#076381:00260000
#011940:0013000000000000
#011920:0000002300000000
#011980:0000000000140000
#0119a0:0000000000000024
#012940:0015000000000000
#012920:0000002500000000
#012960:0000000000160000
#012980:0000000000000026
#036920:13230000
#0369b1:13230000
#044991:0000000000130000
#0449b1:0000000000000023
#045941:0014000000000000
#045921:0000002400000000
#045971:0000000000150000
#045991:0000000000000025
#046941:0016000000000000
#046921:0000002600000000
#062971:0000000000000000000000000000000000000000000000130000000000000000
#0629b1:0000000000000000000000000000000000000000000000005300000000000053
#063971:5300000000000053000000000000000000000000000000000000000000000000
#0639b1:000000000000000000000000000000000000000000000000000000000000000000000000000000000000000000000000000000000000000000000000000000000000000000000000000000000000000000000000000000000000000000000000000000000000000000000000000000000000000000000000000000000000000000000000000000000000000000000000000000000000000000000000000000000000000000000000000000000000000000000000000000000000000000000000000000000000000000000000000000000000000000000000000000000000000000000000000000000000000000000000000000000000000000000000000000000000000000000000000000000000000000000000000000000000000000000000000000000000000000000000000000000000000000000000000000000000000000000000000000000000000000000000000000000000000000000000000000000000000000000000000000000000000000000000000000000000000000000000000000000000000000000000000000000000000000000000000000000000000000000000000000000000000000000000000000000000000000000000000000000000000000000000000000000000000000000000000000000000535353535353230000000000000000000000000000000000000000000000000000000000000000000000000000000000000000000000000000000000000000000000000000000000000000000000000000000000000000000000000000000000000000000000000000000000000000000000000000000000000000000000000000000000000000000000000000000000000000000000000000000000000000000000000000000000000000000000000000000000000000000000000000000000000000000000000000000000000000000000000000000000000000000000000000000000000000000000000000000000000000000000000000000000000000000000000000000000000000000000000000000000000000000000000000000000000000000000000000000000000000000000000000000000000000000000000000000000000000000000000000000000000000000000000000000000000000000000000000000000000000000000000000000000000000000000000000000000000000000000000000000000000000000000000000000000000000000000000000000000000000000000000000000000000000000000000000000000000000000000000000000000000000000000000000000000000000000000000000000000000000000000000000000000000000000000000000000000000000000000000000000000000000000000000000000000000000000000000000000000000000000000000000000000000000000000000000000000000000000000000000000000000000000000000000000000000000000000000000000000000000000000000000000000000000000000000000000000000000000000000000000000000000000000000000000000000000000000000000000000000000000000000000000000000000000000000000000000000000000000000000000000000000000000000000000000000000000000000000000000000000000000000000000000000000000000000000000000000000000000000000000000000000000000000000000000000000000000000000000000000000000000000000000000000000000000000000000000000000000000000000000000000000000000000000000000000000000000000000000000000000000000000000000000000000000000000000000000000000000000000000000000000000000000000000000000000000000000000000000000000000000000000000000000000000000000000000000000000000000000000000000000000000000000000000000000000000000000000000000000000000000000000000000000000000000000000000000000000000000000000000000000000000000000000000000000000000000000000000000000000000000000000000000000000000000000000000000000000000000000000000000000000000000000000000000000000000000000000000000000000000000000000000000000000000000000000000000000000000000000000000000000000000000000000000000000000000000000000000000000000000000000000000000000000000000000000000000000000000000000000000000000000000000000000000000000000000000000000000000000000000000000000000000000000000000000000000000000000000000000000000000000000000000000000000000000000000000000000000000000000000000000000000000000000000000000000000000000000000000000000000000000000000000000000000000000000000000000000000000000000000000000000000000000000000000000000000000000000000000000000000000000000000000000000000000000000000000000000000000000000000000000000000000000000000000000000000000000000000000000000000000000000000000000000000000000000000000000000000000000000000000000
