This file was generated by Ched 2.7.0.0.
#TITLE ""
#ARTIST ""
#DESIGNER ""
#DIFFICULTY 0
#PLAYLEVEL
#SONGID ""
#WAVE ""
#WAVEOFFSET 0
#JACKET ""
#REQUEST "ticks_per_beat 480"
#00002: 4
#BPM01: 168
#00008: 01
#TIL00: ""
#VOLUME: ""
#HISPEED 00
#MEASUREHS 00
#00518:00000014
#0051a:00140000
#00514:0014
#00612:00140000
#00613:00000014
#00618:0014
#0071a:00140000
#00714:0014
#00718:00000014
#0101a:0000140000001434
#01014:0014
#01118:0000001400000000
#0111a:0000000000000014
#01218:0000001400000000
#0121a:0000000000000024
#01210:0000000000000041
#01314:00000014
#01318:0014
#01312:00140000
#01414:00140000
#01412:00000014
#01418:0014
#0141a:14
#01714:00140000
#01718:24
#01818:1414
#01814:00140014
#02112:00140014
#02218:00140014
#02210:0000000000000041
#02314:00140014
#0241a:00140014
#03312:14
#03314:0014
#03318:00140000
#0331a:00000014
#0331f:11
#00912:00140014
#00918:0014
#02618:14
#02514:14
#02714:1414
#02718:00140014
#0281a:0000001400000000
#02818:0000000000000024
#02914:00000014
#02918:0000000000000024
#03018:00000014
#03014:0000000000000024
#03114:00000014
#03118:0000000000000024
#03110:0000000000000041
#03415:14
#03414:0014
#0341a:00140000
#03418:00000014
#03512:14
#04318:14
#0431a:0014
#04314:00140014
#04310:41
#04412:0000143400000000
#04414:0000000000000014
#04418:14
#04512:0000001400000000
#04514:0000000000000014
#04718:00140014
#04712:0014
#04714:14
#04814:1424
#0481a:00140000
#05018:00000014
#05014:0024
#05114:0014
#05118:00000014
#0461a:00000014
#04612:0000002400000000
#05214:0000001400000000
#0531a:00140000
#05312:0014
#05318:00000014
#05414:14
#0541a:00140000
#05412:0014
#05418:00000014
#05514:14
#0551a:00140000
#05512:0014
#05618:0014
#05612:00000014
#05610:0000004100000000
#0571a:14
#05718:0014
#05712:00000014
#05714:00140000
#05814:0000143400000000
#05812:0000000000000014
#0581a:14
#05914:0000001400000000
#05912:0000000000000014
#0611a:00140000
#06114:14000014
#06218:1424
#06212:00140000
#06518:00140000
#06514:0024
#0651a:00000024
#06712:14
#06714:0014
#0701a:0014
#07018:14
#07014:00140000
#07117:00140000
#07212:0014
#07214:00140000
#07218:0000001400000000
#07314:14
#07418:1400001400000000
#07414:00140000
#0751a:00000014000000000000000000000000
#04212:00000014
#04219:0024000000000000
#0421a:0000002400000000
#0421f:0000002100000000
#06018:00000014
#06014:0000002400000000
#06812:14
#0681a:00000014
#06914:14
#06918:00140000
#06912:00000014
#00812:14
#00818:0000000000000026
#07613:00150000
#07618:0000002500000000
#00412:0000000000000026
#00419:0064000000000000
#0041a:0064
#01518:24
#0161a:24
#04912:0024
#06318:0024
#06314:24
#06418:0024
#06414:24
#06412:00000024
#06410:0000004100000000
#06614:0024
#04116:0000002400000000
#04117:0000000000240000
#04118:0000000000000024
#04115:0024000000000000
#04012:0000002400000000
#04013:0000000000240000
#04014:0000000000000024
#00112:64
#00113:0000006400000000
#00114:00000064
#00213:0064000000000000
#00212:0064
#0031a:64
#00319:0000006400000000
#00318:00000064
#0191a:6464006464006464
#0201a:0064646400640000
#02018:0000000000000064
#0361a:0000000064640064
#0371a:6400646400646464
#0381a:0064000000000000
#03818:0000006400000000
#00452:0000000000000016
#00858:0000000000000016
#00852:64
#0125a:0000000000000014
#01258:0000005400000000
#0105a:00000054
#01158:0000005400000000
#0115a:0000000000000054
#01754:00640000
#0205a:0000000000540000
#02058:0000000000000014
#02554:54
#02658:54
#02758:00000054
#02858:0000000000000014
#0285a:0000005400000000
#03258:0000001400000000
#03655:14
#03552:64
#04452:00640000
#04454:0000000000000064
#04552:0000006400000000
#04554:0000000000000064
#05058:00000054
#05254:0000006400000000
#05552:0054
#05854:00540000
#05852:0000000000000054
#05954:0000005400000000
#05952:0000000000000054
#06054:0000001400000000
#05655:14
#04652:0000001400000000
#06452:00000014
#06454:54
#06258:0054
#06354:54
#06358:0054
#0655a:00000014
#06654:0064
#06752:64
#06754:0064
#0705a:0054
#07157:00240000
#07252:0064
#07354:24
#0755a:00000024000000000000000000000000
#07458:0000006400000000
#0385a:0054000000000000
#03858:0000001400000000
#0425a:0000001400000000
#06852:64
#06854:0000001400000000
#07658:0000001500000000
#008320:14
#008340:0024
#0103a0:0000000000001434
#011380:0000003400000000
#0113a0:0000000000000034
#012380:0000003400000000
#0123a0:0000000000000024
#015380:14240000
#015320:00001424
#0163a0:14240000
#016340:00001424
#017340:00140000
#017320:00000024
#025340:14
#025320:0024
#026380:14
#0263a0:0024
#027380:00000014
#0283a0:0000003400000000
#028380:0000000000000024
#031380:0000000000000014
#032380:0000002400000000
#035320:14
#036350:24
#044320:0000143400000000
#044340:0000000000000034
#045320:0000003400000000
#045340:0000000000000034
#046320:0000002400000000
#048340:00001424
#0493a0:14240000
#049320:00001424
#050380:14240000
#050380:00000014
#0513a0:00240000
#052340:1434003400000000
#053320:24
#055320:0014
#056350:24
#058340:0000143400000000
#058320:0000000000000034
#059340:0000003400000000
#059320:0000000000000034
#060340:0000002400000000
#062380:0014
#0623a0:00000024
#063340:14
#063320:00240000
#063380:0014
#0633a0:00000024
#064340:14
#064320:00240000
#066340:0014
#067320:34
#067340:0034
#068320:34
#068340:0000002400000000
#0703a0:0014
#071370:00540000
#0723a0:24
#072320:0014
#073340:54
#073320:0024
#074380:0000001400000000
#0753a0:00000054000000000000000000000000
#076380:24
#001920:14
#001940:00000054
#002920:0024
#0039a0:14
#003980:00000054
#0049a0:0024
#0199a0:14
#0209a0:0000000000540000
#020980:0000000000000024
#0369a0:0014
#0389a0:0054000000000000
#038980:0000002400000000
