This file was generated by Ched 2.7.0.0.
#TITLE ""
#ARTIST ""
#DESIGNER ""
#DIFFICULTY 0
#PLAYLEVEL
#SONGID ""
#WAVE ""
#WAVEOFFSET 0
#JACKET ""
#REQUEST "ticks_per_beat 480"
#00002: 4
#BPM01: 207
#00008: 01
#TIL00: ""
#VOLUME: ""
#HISPEED 00
#MEASUREHS 00
#00018:1200001212000012
#00016:0012000000120000
#00116:1200000000120000
#00114:0000121200000000
#00118:0000000012000012
#0011a:00000012
#00216:1200001212000012
#00218:0012000000120000
#00418:0013000000000000
#00415:00130000
#0041a:0000001300000000
#00417:0013
#00414:0000000000130000
#00419:00000013
#00416:0000000000000013
#00412:23
#0041b:23
#00512:13
#00515:0013000000000000
#00518:00130000
#00513:0000001300000000
#00516:0013
#00519:0000000000130000
#00514:00000013
#00517:0000000000000013
#01212:13131313
#01217:22120012
#01219:0000001200000000
#0121b:0012
#01210:41
#01312:13131313
#0131b:12
#01317:0000000000000012
#0141b:13131313
#01417:0012001200000000
#01415:0000000000121200
#0151b:13131313
#01513:12
#01517:0000000000000012
#01612:13131313
#0161b:0012000000121200
#01617:0000001200000000
#01712:13131313
#01715:0000000000130000
#01718:00000000000000000000001300000000
#01717:1200120000000012
#01719:0000001200000000
#0171b:0012
#01915:00000013
#01918:0000000000000013
#0191a:0024
#01912:0023000024000000
#0201a:24141414
#02012:1313
#02016:00130013
#02014:0000000000130000
#0211a:14141414
#02116:1300000013000014
#02112:00130013
#02114:0000000000130000
#0221b:1313
#02212:24141414
#02217:00130013
#02219:0000000000130000
#02210:41
#0241a:24141414
#02412:1313
#02414:0013000000000000
#02416:00130013
#02515:0000000000000013
#02518:00000000000000000000000000000013
#02512:14141414
#0251b:1313
#02519:0013000000000000
#02517:00130013
#02718:00000013
#02715:0000000000000013
#02716:14
#02712:0025
#02719:0025
#0271a:0024000000000000
#02812:1313130000000000
#02816:0013
#0281b:0000000000000013
#02817:00130000
#0291b:0013130000000000
#02917:0013
#02916:00130000
#02912:0000000000000013
#03016:0000000013000013
#03012:0013130000000000
#03017:00130000
#0301b:0000000000000013
#03112:0013130000000013
#03117:0013130000000000
#0311b:0013
#03118:0000000000130000
#03115:00000013
#03212:0013000013000000
#03216:00130000
#0321b:0000130000000013
#0361b:2300002300001300
#03615:0000000000000013
#03616:24000024000024002400000000000000
#03612:00000023000000002300000000000000
#03610:41
#03718:1300000000130000
#03715:00131300
#0371b:00000013
#03712:0013000000000000
#0401b:2300002300001313
#04016:24000024000024002400000014001400
#04012:00000023000000002300000000000000
#04112:1313000013001300
#0411b:0000131300130013
#04116:1414141414141414
#04912:00131300
#04915:0000000000130000
#04918:00000013
#0491a:14
#0491b:0000000013000013
#04916:0000000000000013
#05012:0013000000140000
#05018:00131300
#05015:0000001300000000
#0501b:0000000000130000
#0501a:0000000000000014
#05016:0000000000000013
#05116:0013
#05112:0014000000130013
#05117:0013000000130000
#0511b:0000000000000013
#05218:0013001300000000
#05215:00000013000000001300000000000000
#0521b:0000130000130013
#05212:0000000000130013
#05516:14
#0551b:00130000
#05515:00000000000013000013001300000000
#05518:0000000013131300
#05512:23130000
#0661b:00120000
#06616:0000120000120012
#06618:00001212
#06610:41
#06714:0012000000000000
#0671a:0012000000000000
#06713:0000001200000000
#06715:0012
#06717:0000000000120000
#06719:00000012
#0671b:0000000000000012
#06813:12
#06818:12001212
#06816:0000120000120012
#0681b:00120000
#06913:00120000
#06918:0012000000005200
#0691b:0012
#06915:0000005200001200
#06914:00000000005200000000000000000000
#06916:00000000000000520000000000000000
#0691a:000000000000005200000000
#06919:000052
#06917:0052
#0711b:0013000000000000
#07118:0000001300000000
#07115:0000000000130000
#07112:0000000000000013
#07215:0000001313000000
#07218:00000000000000130000130000000000
#0721b:00000013
#07212:0000000000000013
#07315:1313
#07318:0013000000130000
#0731b:00130000
#07312:0000001300000000
#07618:0000001313001300
#07615:00000000000000130000130000000000
#0761b:0000000000000013
#07612:00000013
#08118:1313
#0811b:0013000000130000
#08115:00130013
#08112:0000001300000013
#0821b:0013000000130000
#08212:0000001300000013
#08216:14141414
#08317:14
#08318:00140000
#08319:0014
#0831a:00000014
#08314:0014000000000000
#08313:0000001400000000
#08312:0000000000140000
#08316:0000000000000012
#08515:0000000000000013
#08518:0012000000120000
#08516:0000001200000000
#08514:0052000000520000
#0851a:0000005200000000
#0851b:0000000000000052
#08618:0013000000130000
#08615:0000001300000013
#08613:0052000000520000
#0861b:0000005200000062
#08718:0013000013000000
#08715:0000001300000000
#0871b:0000002200000000
#08713:0062000022000000
#00618:0013000000000000
#00614:00140000
#0061a:0000001300000000
#00617:0013
#00613:0000000000140000
#00619:00000013
#00615:0000000000000014
#00612:23
#0061b:23
#00712:13
#00715:0013000000000000
#00718:00140000
#00713:0000001300000000
#00716:0013
#00719:0000000000140000
#00714:00000013
#00717:0000000000000014
#00817:0014000000000000
#00814:00140000
#0081a:0000001300000000
#00816:0014
#00813:0000000000140000
#00819:00000013
#00815:0000000000000014
#00812:23
#0081b:23
#00912:13
#00915:0014000000000000
#00918:00140000
#00913:0000001300000000
#00916:0014
#00919:0000000000140000
#00914:00000013
#00917:0000000000000014
#0091b:13
#02312:14141414
#02316:0000000000000014
#02317:1313
#0231b:00130013
#02319:0000000000130000
#0331b:0013000013000000
#03317:00130000
#03312:00130000
#03316:0000000000000013
#03416:0013000013000000
#03412:00130000
#03417:0000130000000013
#03517:0013000013000000
#0351b:00130000
#03516:00130000
#03812:2300002300001300
#03818:0000000000000013
#03816:24000024000024002400000000000000
#0381b:00000023000000002300000000000000
#03915:1300000000130000
#03918:00131300
#03912:00000013
#0391b:0013000000000000
#04717:0000000000000014
#04715:000000000000000000000000000000000000000000000000000000000000000000000000000000000000000000000000000000000000000000000000000000000000000000000000000000000000000000000000000000000000000000000000000000000000000000000000000000000000000000000000000000000000000000000000000000000000000000000000000000000000000000000000000000000000000000000000000000000000000000000000000000000000000000000000000000000000000000000000000000000000000000000000000000000000000000000000000000000000000000000000000000000000000000000000000000000000000000000000000000000000000000000000000000000000000000000000000000000000000000000000000000000000000000000000000000000000000000000000000000000000000000000000000000000000000000000000000000000000000000000000000000000000000000000000000000000000000000000000000000000000000000000000000000000000000000000000000000000000000000000000000000000000000000000000000000000000000000000000000000000000000000000000000000000000000000000000000000000000000000000000000000000000000000000000000000000000000000000000000000000000000000000000000000000000000000000000000000000000000000000000000000000000000000000000000000000000000000000000000000000000000000000000000000000000000000000000000000000000000000000000000000000000000000000000000000000000000000000000000000000000000000000000000000000000000000000000000000000000000000000000000000000000000000000000000000000000000000000000000000000000000000000000000000000000000000000000000000000000000000000000000000000000000000000000000000000000000000000000000000000000000000000000000000000000000000000000000000000000000000000000000000000000000000000000000000000000000000000000000000000000000000000000000000000000000000000000000000000000000000000000000000000000000000000000000000000000000000000000000000000000000000000000000000000000000000000000000000000000000000000000000000000000000000000000000000000000000000000000000000000000000000000000000000000000000000000000000000000000000000000000000000000000000000000000000000000000000000000000000000000000000000000000000000000000000000000000000000000000000000000000000000000000000000000000000000000000000000000000000000000000000000000000000000000000000000000000000000000000000000000000000000000000000000000000000000000000000000000000000000000000000000000000000000000000000000000000000000000000000000000000000000000000000000000000000000000000000000000000000000000000000000000000000000000000000000000000000000000000000000000000000000000000000000000000000000000000000000000000000000000000000000000000000000000000000000000000000000000000000000000000000000000000000000000000000000000000000000000000000000000000000000000000000000000000000000000000000000000000000000000000000000000000000000000000000000000000000000000000000000000000000000000000000000000000000000000000000000000000000000000000000000000000000000000000000000000000000000000000000000000000000000000000000000000000000000000000000000000000000000000000000000000000000000000000000000000000000000000000000000000000000000000000000000000000000000000000000000000000000000000000000000000000000000000000000000000000000000000000000000000000000000000000000000000000000000000000000000000000000000000000000000000000000000000000000000000000000000000000000000000000000000000000000000000000000000000000000000000000000000000000000000000000000000000000000000000000000000000000000000000000000000000000000000000000000000000000000000000000000000000014000000000000000000000000000000000000000000000000000000000000000000000000000000000000000000000000000000000000000000000000000000000000000000000000000000000000000000000000000000000000000000000000000000000000000000000000000000000000000000000000000000000000000000000000000000000000000000000000000000000000000000000000000000000000000000000000000000000000000000000000000000000000000000000000000000000000000000000000000000000000000000000000000000000000000000000000000000000000000000000000
#0471a:00000024
#04712:00000024
#05315:0013001300000013
#05318:00000013000000001300000000001300
#05312:0000130000130000
#0531b:0000000000130000
#0541b:0013000000002300
#05415:0000001300000000
#05412:00000000000000000013000000000000
#0571b:00131300
#05718:0000000000130000
#05715:00000013
#05712:1400000013000013
#05717:0000000000000013
#0581b:0013000000000000
#05815:00131300
#05818:0000001300000000
#0581a:0000000000140000
#05812:0000000000130014
#05817:0000000000000013
#05917:0013
#0591b:0000000000130013
#05916:0013000000130000
#0591a:0014000000000000
#05912:0000000000000013
#06015:0013001300000000
#06018:00000013000000001300000000000000
#06012:0000130000000013
#06016:0000000000140000
#0601b:0000000000130013
#06118:0013001300000000
#06115:00000013000000001300000000000000
#0611b:0000130000000023
#06116:0000000000140000
#06112:0000000000130000
#06518:00000013
#06515:2323000000001300
#06512:0000002323000000
#07512:0013000000000000
#07515:0000001300000000
#07518:0000000000130000
#0751b:0000000000000013
#07912:00000014
#07919:00240000
#07913:0024
#08016:0000001400000000
#0801a:24242424
#08418:0012000000120000
#08416:0000001200000012
#0841a:0000000000000052
#0931b:1313
#09312:24131313
#09315:0000000000000013
#09318:00000000000000000000000000000013
#09316:0000000000240000
#0931a:00000024
#09310:41
#09217:0000000013130000
#09216:0000000000000013
#0921b:0000000000000013
#09215:0023000000000000
#09218:00000023000000000000000000000000
#09212:0000240024240000
#0921a:00240000
#0921f:00210000
#0941b:1313
#09415:0000001300000000
#09412:24130000
#0941a:0000000000240000
#09416:00000024
#0951b:13
#09515:00130000
#09518:0000001324242424
#09512:2400002400000000
#0951a:00240000
#09514:00000000000000000024002400240024
#10012:2400130000240000
#10015:0000001300000000
#10018:0013
#1001b:0000000000130000
#10016:00000013
#1001a:24240024
#1011b:13
#10116:00000000130000240000002400000000
#10117:0000000000000013
#1011a:0000240000242400
#10112:0000002424000024
#09616:0014001400240000
#09612:24240024
#0961a:24002424
#0971b:0000130000001313
#09718:0000001300000000
#09715:0013
#09712:2400000000130000
#09716:0000240000242400
#0981b:0013001300000013
#09817:0013
#09812:24001324
#09816:0000240000130000
#0981a:0000000000240000
#0991b:0013000000000000
#09918:0000000000000013
#09912:0000240013240000
#09916:24000013
#0991a:00000024
#1021b:0000131300000000
#10212:0000000000131300
#10216:0000242400242400
#1031b:13001313
#10312:0013001300000013
#10316:2424002424002424
#10316:2424002424000000
#10712:0014000024000000
#10716:2400001400002400
#10714:0000240000240000
#10612:2400001400002400
#10616:0000240000240000
#10614:0024
#02616:00140000
#02612:2424002400002424
#0261a:2424000000002424
#0771f:11
#07716:00240000
#07713:0024
#00318:0023
#00312:24240000
#0031a:24240000
#00315:0023
#0101a:2424002400002400
#01012:2424002400002400
#0181b:2323002300000000
#01812:0000000000002323
#01816:2424000000002424
#04312:00002323
#0431b:00002323
#04812:00240024
#04817:00240024
#0481a:0024
#04815:0024
#04810:41
#0621b:00230000
#06215:0000000000230000
#06318:23000023
#06312:0000002300000000
#06415:0000232300000000
#06412:0000000000232300
#0701a:2400000000000024
#07016:2324
#07012:0000000023000024
#08819:25
#08812:25
#09012:0000002300000024
#09017:0000002300000000
#0901a:0000000000000024
#09014:00000000000000000000000000000064
#09019:00000000000000000000000000000000000000000000000000630000000000000000000000000000000000000000000000000000000000000000000000000000
#0901b:0000000000000000000000000063000000000000000000000000000000000000
#10416:0000242400242400
#10412:0000232300000000
#1041b:0000000000232300
#10516:2424002424000000
#1051b:2323
#10512:0023002300000000
#10918:0000002424000024
#10914:00000000000000240000000000002400
#10912:2400000000240000
#1091a:00000024
#10916:64
#0561a:24240024
#05615:00240024
#05612:2424
#05617:0024
#07412:2400000000000024
#07416:0024
#0741a:0000000000000024
#0741b:0023
#07819:24
#07813:00240000
#08912:0000000000000000230000000000000000000000000000000000000000630000
#08917:00230000
#08914:00000000000000000000000000000000000000000000000000000000000000002300000000000000000000000000000000000000000000000063000000000000
#08919:0023
#08916:0000000000002323
#0891b:0000000000002323
#0911a:0024006400240064
#09112:0064002400640024
#09116:64646464
#09114:00640000000000640064000000000000
#09118:00000064006400000000006400640000
#10812:2424
#1081a:00240024
#10813:00640000000000000064000000000000
#10814:0064000000640000
#10815:00000064000000000000006400000000
#10816:00646464
#10819:00000000006400000000000000640000
#10818:0000006400000064
#10817:00000000000000640000000000000064
#04219:25
#11012:00530000
#1101b:00530000
#04416:000000000000000000000000000000000000000000000000000000000000000000000000000000000000000000000000000000000000000000000000000000000000000000000000000000000000000000000000000000000000000000000000000000000000000000000000000000000000000000000000000000000000000000000000000000000000000000000000000000000000000000000000000000000000000000000000000000000000000000000000000000000000000000000000000000000000000000000000000000000000000000000000000000000000000000000000000000000000000000000000000000000000000000000000000000000000000000000000000000000000000000000000000000000000000000000000000000000000000000000000000000000000000000000000000000000000000000000000000000000000000000000000000000000000000000000000000000000000000000000000000000000000000000000000000000000000000000000000000000000000000000000000000000000000000000000000000000000000000000000000000000000000000000000000000000000000000000000000000000000000000000000000000000000000000000000000000000000000000000000000000000000000000000000000000000000000000000000000000000000000000000000000000000000000000000000000000000000000000000000000000000000000000000000000000000000000000000000000000000000000000000000000000000000000000000000000000000000000000000000000000000000000000000000000000000000000000000000000000000000000000000000000000000000000000000000000000000000000000000000000000000000000000000000000000000000000000000000000000000000000000000000000000000000000000000000000000000000000000000000000000000000000000000000000000000000000000000000000000000000000000000000000000000000000000000000000000000000000000000000000000000000000000000000000000000000000000000000000000000000000000000000000000000000000000000000000000000000000000000000000000000000000000000000000000000000000000000000000000000000000000000000000000000000000000000000000000000000000000000000000000000000000000000000000000000000000000000000000000000000000000000000000000000000000000000000000000000000000000000000000000000000000000000000000000000000000000000000000000000000000000000000000000000000000000000000000000000000000000000000000000000000000000000000000000000000000000000000000000000000000000000000000000000000000000000000000000000000000000000000000000000000000000000000000000000000000000000000000000000000000000000000000000000000000000000000000000000000000000000000000000000000000000000000000000000000000000000000000000000000000000000000000000000000000000000000000000000000000000000000000000000000000000000000000000000000000000000000000000000000000000000000000000000000000000000000000000000000000000000000000000000000000000000000000000000000000000000000000000000000000000000000000000000000000000000000000000000000000000000000000000000000000000000000000000000000000000000000000000000000000000000000000000000000000000000000000000000000000000000000000000000000000000000000000000000000000000000000000000000000000000000000000000000000000000000000000000000000000000000000000000000000000000000000000000000000000000000000000000000000000000000000000000000000000000000000000000000000000000000000000000000000000000000000000000000000000000000000000000000000000000000000000000000000000000000000000000000000000000000000000000000000000000000000000000000000000000000000000000000000000000000000000000000000000000000000000000000000000000000000000000000000000000000000000000000000000000000000000000000000000000000000000000000000000000000000000000000000000000000000000000000000000000000000000000000000000000000000000000000000000000000000000000000000000000000000000000000000000000000000000000000000000000000000000000000000000000000000000000000000000000000000000000000000000000000000000000000000000000000000000000000000000000000000000000000000000000000000000000000000000000000000000000000000000000000000000000000000000000000000000000000000000000000000000000000000000000000000000000000000000000000000000000000000000000000000000000000000000000000000074
#0195a:0014000014000000
#01952:0014
#0035a:00000014
#00358:0053
#00355:0063
#00352:00000014
#01052:00000054
#0105a:00000054
#0135b:52
#01553:62
#02752:0034000035000000
#02759:0045
#02756:24
#0285b:0013
#02857:00530000
#02956:00530000
#02952:0013
#03057:00630000
#0305b:0013
#03152:00130000
#03257:0013
#0325b:00530000
#03352:00630000
#03356:0013
#03457:00530000
#0345b:0013
#03556:00630000
#03552:0013
#03656:0014
#03856:0014
#04056:0014
#04352:15000053
#0435b:00000053
#04359:15
#04757:0000000000000024
#0475a:00000054
#04755:000000000000000000000000000000000000000000000000000000000000000000000000000000000000000000000000000000000000000000000000000000000000000000000000000000000000000000000000000000000000000000000000000000000000000000000000000000000000000000000000000000000000000000000000000000000000000000000000000000000000000000000000000000000000000000000000000000000000000000000000000000000000000000000000000000000000000000000000000000000000000000000000000000000000000000000000000000000000000000000000000000000000000000000000000000000000000000000000000000000000000000000000000000000000000000000000000000000000000000000000000000000000000000000000000000000000000000000000000000000000000000000000000000000000000000000000000000000000000000000000000000000000000000000000000000000000000000000000000000000000000000000000000000000000000000000000000000000000000000000000000000000000000000000000000000000000000000000000000000000000000000000000000000000000000000000000000000000000000000000000000000000000000000000000000000000000000000000000000000000000000000000000000000000000000000000000000000000000000000000000000000000000000000000000000000000000000000000000000000000000000000000000000000000000000000000000000000000000000000000000000000000000000000000000000000000000000000000000000000000000000000000000000000000000000000000000000000000000000000000000000000000000000000000000000000000000000000000000000000000000000000000000000000000000000000000000000000000000000000000000000000000000000000000000000000000000000000000000000000000000000000000000000000000000000000000000000000000000000000000000000000000000000000000000000000000000000000000000000000000000000000000000000000000000000000000000000000000000000000000000000000000000000000000000000000000000000000000000000000000000000000000000000000000000000000000000000000000000000000000000000000000000000000000000000000000000000000000000000000000000000000000000000000000000000000000000000000000000000000000000000000000000000000000000000000000000000000000000000000000000000000000000000000000000000000000000000000000000000000000000000000000000000000000000000000000000000000000000000000000000000000000000000000000000000000000000000000000000000000000000000000000000000000000000000000000000000000000000000000000000000000000000000000000000000000000000000000000000000000000000000000000000000000000000000000000000000000000000000000000000000000000000000000000000000000000000000000000000000000000000000000000000000000000000000000000000000000000000000000000000000000000000000000000000000000000000000000000000000000000000000000000000000000000000000000000000000000000000000000000000000000000000000000000000000000000000000000000000000000000000000000000000000000000000000000000000000000000000000000000000000000000000000000000000000000000000000000000000000000000000000000000000000000000000000000000000000000000000000000000000000000000000000000000000000000000000000000000000000000000000000000000000000000000000000000000000000000000000000000000000000000000000000000000000000000000000000000000000000000000000000000000000000000000000000000000000000000000000000000000000000000000000000000000000000000000000000000000000000000000000000000000000000000000000000000000000000000000000000000000000000000000000000000000000000000000000000000000000000000000000000000000000000000000000000000000000000000000000000000000000000000000000000000000000000000000000000000000000000000000024000000000000000000000000000000000000000000000000000000000000000000000000000000000000000000000000000000000000000000000000000000000000000000000000000000000000000000000000000000000000000000000000000000000000000000000000000000000000000000000000000000000000000000000000000000000000000000000000000000000000000000000000000000000000000000000000000000000000000000000000000000000000000000000000000000000000000000000000000000000000000000000000000000000000000000000000000000000000000000000000
#04752:00000064
#0485a:4444
#04852:34340034
#04857:00000054
#0495a:24
#0495b:0000000000000053
#05052:0000000000340000
#0505a:0000000000000044
#05152:0034000000000000
#05157:0053000000000000
#0525b:0000000000130000
#05352:0000000000130000
#05358:0000000000000053
#05452:00000000000000000023000000000000
#0545b:0023000000000000
#05455:0000005300000000
#05558:00000053
#0585a:0000000000440000
#05852:0000000000000034
#05752:2400000000000063
#0595a:0044000000000000
#05956:0063000000000000
#0565a:44440044
#05652:3434
#05655:00000064
#06056:0000000000340000
#06156:0000000000440000
#06555:00000053
#06558:00000053
#0705a:1400000000000014
#07056:0014
#07052:0000000000000014
#0715b:0013000000000000
#07158:0000001300000000
#07155:0000000000130000
#07152:0000000000000013
#07358:0000000000530000
#07552:0013000000000000
#07555:0000001300000000
#07558:0000000000130000
#0755b:0000000000000013
#07452:1400000000000014
#07456:0014
#0745a:0000000000000014
#07658:00000053
#0765b:0000000000000023
#08056:0000002400000000
#07952:00000054
#08357:44
#08358:00440000
#08359:0044
#0835a:00000044
#08354:0034000000000000
#08353:0000003400000000
#08352:0000000000340000
#08859:45
#08852:35
#09252:00340000
#0935b:53
#09357:00130000
#09455:0000005300000000
#0945b:53
#09452:00000013
#0955b:13
#1005a:44
#10056:00000053
#0965a:54440054
#09652:00543434
#09656:0024002400000000
#0975b:0000000000000013
#0995b:0053000000000000
#10152:13
#10356:0000000000000014
#10352:0000000000000013
#1055b:0013
#10556:0014
#10952:54
#10954:0000000000000054
#10958:0000000000000064
#04652:000000000000001c
#01852:0000001400000000
#01856:0054000000000054
#0265a:0054004400000000
#02656:00240000
#02652:0000000000000064
#003380:0013
#0033a0:00000024
#003351:0013
#003321:00000024
#010321:00000014
#011351:00000023
#0103a0:00000014
#011380:00000023
#0133b0:12
#013370:0022
#015330:12
#015370:0022
#018360:0014000000000000
#018320:0000002400000000
#018360:0000000000000014
#0193a0:0024000000000000
#0263a0:0014002400000000
#026360:00540000
#026320:0000000000000014
#027360:54
#027320:0024000000000000
#028370:1333330000000000
#0283b0:0023
#028360:0000000000000013
#029360:0033330000000000
#029320:0023
#029370:0000000000000013
#030370:0033330000000000
#0303b0:0023
#031370:0000000000000013
#032370:0023000000000000
#0323b0:00130000
#032370:0023
#032360:0000000000000013
#033360:0023000000000000
#033320:00130000
#033360:0023
#0333b0:0000000000000013
#0343b0:0023000000000000
#034370:00130000
#0343b0:0023
#034320:0000000000000013
#035320:0023000000000000
#035360:00130000
#035320:0023
#042390:15
#042330:0055
#043390:25
#042321:15
#042381:0055
#043321:25
#043321:00000013
#045361:34
#046321:000000000000002c
#0433b0:00000013
#044360:000000000000000000000000000000000000000000000000000000000000000000000000000000000000000000000000000000000000000000000000000000000000000000000000000000000000000000000000000000000000000000000000000000000000000000000000000000000000000000000000000000000000000000000000000000000000000000000000000000000000000000000000000000000000000000000000000000000000000000000000000000000000000000000000000000000000000000000000000000000000000000000000000000000000000000000000000000000000000000000000000000000000000000000000000000000000000000000000000000000000000000000000000000000000000000000000000000000000000000000000000000000000000000000000000000000000000000000000000000000000000000000000000000000000000000000000000000000000000000000000000000000000000000000000000000000000000000000000000000000000000000000000000000000000000000000000000000000000000000000000000000000000000000000000000000000000000000000000000000000000000000000000000000000000000000000000000000000000000000000000000000000000000000000000000000000000000000000000000000000000000000000000000000000000000000000000000000000000000000000000000000000000000000000000000000000000000000000000000000000000000000000000000000000000000000000000000000000000000000000000000000000000000000000000000000000000000000000000000000000000000000000000000000000000000000000000000000000000000000000000000000000000000000000000000000000000000000000000000000000000000000000000000000000000000000000000000000000000000000000000000000000000000000000000000000000000000000000000000000000000000000000000000000000000000000000000000000000000000000000000000000000000000000000000000000000000000000000000000000000000000000000000000000000000000000000000000000000000000000000000000000000000000000000000000000000000000000000000000000000000000000000000000000000000000000000000000000000000000000000000000000000000000000000000000000000000000000000000000000000000000000000000000000000000000000000000000000000000000000000000000000000000000000000000000000000000000000000000000000000000000000000000000000000000000000000000000000000000000000000000000000000000000000000000000000000000000000000000000000000000000000000000000000000000000000000000000000000000000000000000000000000000000000000000000000000000000000000000000000000000000000000000000000000000000000000000000000000000000000000000000000000000000000000000000000000000000000000000000000000000000000000000000000000000000000000000000000000000000000000000000000000000000000000000000000000000000000000000000000000000000000000000000000000000000000000000000000000000000000000000000000000000000000000000000000000000000000000000000000000000000000000000000000000000000000000000000000000000000000000000000000000000000000000000000000000000000000000000000000000000000000000000000000000000000000000000000000000000000000000000000000000000000000000000000000000000000000000000000000000000000000000000000000000000000000000000000000000000000000000000000000000000000000000000000000000000000000000000000000000000000000000000000000000000000000000000000000000000000000000000000000000000000000000000000000000000000000000000000000000000000000000000000000000000000000000000000000000000000000000000000000000000000000000000000000000000000000000000000000000000000000000000000000000000000000000000000000000000000000000000000000000000000000000000000000000000000000000000000000000000000000000000000000000000000000000000000000000000000000000000000000000000000000000000000000000000000000000000000000000000000000000000000000000000000000000000000000000000000000000000000000000000000000000000000000000000000000000000000000000000000000000000000000000000000000000000000000000000000000000000000000000000000000000000000000000000000000000000000000000000000000000000000000000000000000000000000000000000000000000000000000000000000000000000000000000000000000000000000000000000000000000000000000000000000000000000000000000000000000000024
#0473a1:00000014
#047371:0000000000000054
#0483a1:24
#047320:00000014
#047350:000000000000000000000000000000000000000000000000000000000000000000000000000000000000000000000000000000000000000000000000000000000000000000000000000000000000000000000000000000000000000000000000000000000000000000000000000000000000000000000000000000000000000000000000000000000000000000000000000000000000000000000000000000000000000000000000000000000000000000000000000000000000000000000000000000000000000000000000000000000000000000000000000000000000000000000000000000000000000000000000000000000000000000000000000000000000000000000000000000000000000000000000000000000000000000000000000000000000000000000000000000000000000000000000000000000000000000000000000000000000000000000000000000000000000000000000000000000000000000000000000000000000000000000000000000000000000000000000000000000000000000000000000000000000000000000000000000000000000000000000000000000000000000000000000000000000000000000000000000000000000000000000000000000000000000000000000000000000000000000000000000000000000000000000000000000000000000000000000000000000000000000000000000000000000000000000000000000000000000000000000000000000000000000000000000000000000000000000000000000000000000000000000000000000000000000000000000000000000000000000000000000000000000000000000000000000000000000000000000000000000000000000000000000000000000000000000000000000000000000000000000000000000000000000000000000000000000000000000000000000000000000000000000000000000000000000000000000000000000000000000000000000000000000000000000000000000000000000000000000000000000000000000000000000000000000000000000000000000000000000000000000000000000000000000000000000000000000000000000000000000000000000000000000000000000000000000000000000000000000000000000000000000000000000000000000000000000000000000000000000000000000000000000000000000000000000000000000000000000000000000000000000000000000000000000000000000000000000000000000000000000000000000000000000000000000000000000000000000000000000000000000000000000000000000000000000000000000000000000000000000000000000000000000000000000000000000000000000000000000000000000000000000000000000000000000000000000000000000000000000000000000000000000000000000000000000000000000000000000000000000000000000000000000000000000000000000000000000000000000000000000000000000000000000000000000000000000000000000000000000000000000000000000000000000000000000000000000000000000000000000000000000000000000000000000000000000000000000000000000000000000000000000000000000000000000000000000000000000000000000000000000000000000000000000000000000000000000000000000000000000000000000000000000000000000000000000000000000000000000000000000000000000000000000000000000000000000000000000000000000000000000000000000000000000000000000000000000000000000000000000000000000000000000000000000000000000000000000000000000000000000000000000000000000000000000000000000000000000000000000000000000000000000000000000000000000000000000000000000000000000000000000000000000000000000000000000000000000000000000000000000000000000000000000000000000000000000000000000000000000000000000000000000000000000000000000000000000000000000000000000000000000000000000000000000000000000000000000000000000000000000000000000000000000000000000000000000000000000000000000000000000000000000000000000000000000000000000000000000000000000000000000000000000000000000000000000000000000000000000000000000000000000000000000000000000000000000000000000000000054000000000000000000000000000000000000000000000000000000000000000000000000000000000000000000000000000000000000000000000000000000000000000000000000000000000000000000000000000000000000000000000000000000000000000000000000000000000000000000000000000000000000000000000000000000000000000000000000000000000000000000000000000000000000000000000000000000000000000000000000000000000000000000000000000000000000000000000000000000000000000000000000000000000000000000000000000000000000000000000000
#048320:24
#048370:00000014
#0493a0:54
#049360:00240000
#0493b0:0000000000000013
#050370:0023000000000000
#051370:0013000000000000
#0513b0:0023
#053380:0000000000000013
#0543b0:0053000000000000
#054380:0000002300000000
#054351:0000001300000000
#054321:00000000000000000053000000000000
#054361:00000024
#055381:00000013
#0563a1:24
#056351:00000014
#057321:54
#057361:00240000
#057321:0000000000000013
#058361:0023000000000000
#059361:0013000000000000
#059321:0023
#061351:0000000000000013
#062351:0000002300000000
#0623b0:0000001300002300
#062351:00000013
#063351:0023000000000000
#063380:0013000023000000
#063321:0000000013000023
#063380:0000000000000013
#064380:00000000000033000000000000530000
#0643b0:00000000000000530000000033000000
#065380:00003300000000000053000033000000
#0653b0:00000053000000003300000000000000
#0663b0:22
#065351:00000013
#066331:22
#073381:0000000000130000
#0743b1:23
#076381:00000013
#0763b1:0000000000000053
#077381:23
#077320:1300002300000000
#077381:0000001300002300
#077350:00000013
#078350:0023000000000000
#0783b1:0013000023000000
#078320:00001323
#078381:00000013
#079381:23
#079350:1300002300000000
#0793b1:0000001300002300
#079320:00000014
#080360:0000005400000000
#081320:24
#0933b0:13
#093370:00230000
#0943b0:13
#094380:0000002300000000
#094351:0000001300000000
#094321:00000023
#0963a1:14240000
#096361:0054000000000000
#096320:00142400
#096360:0000005400000000
#0963a0:00000014
#097360:24
#0993b0:0013000000000000
#099370:0000000033230000
#100360:00000013
#101320:23
#106360:14
#1063a0:00240000
#106360:0000001400000000
#1063a0:0000000000240000
#106360:00000014
#1073a0:24
#107360:0014000000000000
#1073a0:0000002400000000
#107360:0014
#1073a0:00000024
#109320:14
#109340:0000002400000000
#109340:0000000000000014
#110320:00230000
#109381:0000000000000014
#1103b1:00230000
#069930:00120000
#069970:0022
#0699b1:0012
#069981:00000022
#089961:0000000000000013
#089921:0000000000000000000000000000000000000000000000000000000000230000
#090971:0000001300000000
#0909b1:0000000000000000000000000023000000000000000000000000000000000000
#090921:0000000000000014
#091961:54
#091921:0024000000000000
#0919a0:0014002400000000
#091960:00540000
#091921:0000001400240000
#091961:0054
#0919a0:0000000000140024
#091960:00000054
#108920:14
#108960:00240000
#1089a1:00140000
#108961:0024
#108920:0014
#108960:00000024
#1089a1:00000014
#109961:24
