This file was generated by Ched 2.7.0.0.
#TITLE ""
#ARTIST ""
#DESIGNER ""
#DIFFICULTY 0
#PLAYLEVEL
#SONGID ""
#WAVE ""
#WAVEOFFSET 0
#JACKET ""
#REQUEST "ticks_per_beat 480"
#00002: 4
#BPM01: 207
#00008: 01
#TIL00: ""
#VOLUME: ""
#HISPEED 00
#MEASUREHS 00
#00018:14
#00014:0014
#00214:14
#00218:0014
#00418:0014
#00412:24
#00514:14
#0051a:0014
#00612:14
#00618:0014
#00714:14
#0071a:0014
#00812:14
#00818:0014
#00914:14
#0091a:0014
#01012:00000014
#01218:0014
#01210:41
#01312:14
#0141a:14
#01414:0014
#0151a:14
#01612:14
#01618:0014
#01712:14
#01718:0014
#02012:1414
#02018:00140000
#0211a:1414
#02114:00140000
#02212:1414
#02218:00140000
#02210:41
#0231a:1414
#02314:00140000
#02412:1414
#02418:00140000
#0251a:1414
#02514:00140000
#02812:14
#02814:0000000000000014
#02912:0000000000000014
#0311a:0000000000000014
#03218:0000000000000014
#0331a:0000000000000014
#0421a:14
#04214:0014
#04318:14
#04312:0014
#0441a:14
#04912:0014
#05018:14
#05014:0014
#0511a:14
#05114:0014
#0541a:14
#05414:0014
#05518:14
#05714:0014
#0581a:14
#05812:0014
#05918:14
#05914:0014
#0601a:1414
#06014:00140014
#06118:1414
#06112:00140014
#06714:14
#06818:14
#06912:14
#07618:0014
#07612:24
#07714:14
#07718:0014
#0771f:11
#07812:14
#0781a:0014
#07914:1414
#07918:00140014
#08014:1414
#08018:00140014
#0921a:14
#09218:0014
#09214:00240000
#0921f:00210000
#09312:14
#09318:00140000
#09314:0014
#09310:41
#09418:14
#09414:00140000
#0941a:0014
#09514:14
#09518:00140000
#09512:0014
#0971a:0014
#09814:14
#09818:0014
#09912:1414
#09918:00140000
#1001a:1414
#10014:00140014
#10118:1414
#10112:00140014
#10614:0014
#10718:14
#10712:0014
#10818:16
#03612:24
#03618:24
#03610:41
#0381a:24
#03814:24
#04012:24
#04018:24
#04812:24
#04818:00240000
#04814:0024
#0481a:00000024
#04810:41
#05612:24
#05618:00240000
#05614:0024
#0561a:00000024
#0701a:24
#07214:24
#07418:24
#08819:25
#08812:25
#08918:00260000
#08912:0026
#09618:2626
#09612:00260026
#10219:25
#06610:41
#08313:0000000000000056
#00452:14
#01052:00000054
#01852:0000001400000000
#0195a:0014000000000000
#02652:0000001400000000
#0275a:0014000000000000
#02852:54
#02854:0000000000000054
#02952:0000000000000054
#0315a:0000000000000064
#03258:0000000000000064
#0335a:0000000000000064
#03054:0000000000000014
#03458:0000000000000014
#0485a:00000014
#05558:14
#0565a:00000014
#0705a:0000000000000014
#07254:0000000000000014
#07458:0000000000000014
#08852:15
#08859:15
#08958:00160000
#08952:0016
#09652:00000016
#10658:15
#10955:0000000000000016
#10858:56
#0013a0:1424
#003320:14343434
#004320:24
#010320:1434003400003400
#012340:24
#018320:1434002400000000
#0183a0:0000000000001434
#0193a0:0024000000000000
#026320:1434002400000000
#0263a0:0000000000001434
#0273a0:0024000000000000
#028320:14
#028340:0000000000000034
#029320:0000000000000034
#030340:0000000000000024
#0313a0:0000000000000014
#032380:0000000000000034
#0333a0:0000000000000034
#034380:0000000000000024
#052380:1424
#053320:1424
#062380:14340034
#062390:0000003400340000
#063380:34003434
#063390:0034003400000034
#064390:00340034
#064380:0000003400340000
#065390:3434
#065380:0034003400000000
#066390:24
#0703a0:1400000034000024
#072340:1400000034000024
#074380:1400000034000024
#081340:14
#083330:0000000000000026
#102390:15350035
#102380:0000003500350000
#103390:35003535
#103380:0035003500000035
#104380:00350035
#104390:0000003500350000
#105380:3535
#105390:0035003500000000
#106380:25
#108380:16
#109350:0000000000363626
