This file was generated by Ched 2.7.0.0.
#TITLE ""
#ARTIST ""
#DESIGNER ""
#DIFFICULTY 0
#PLAYLEVEL
#SONGID ""
#WAVE ""
#WAVEOFFSET 0
#JACKET ""
#REQUEST "ticks_per_beat 480"
#00002: 4
#BPM01: 268
#00008: 01
#TIL00: ""
#VOLUME: ""
#HISPEED 00
#MEASUREHS 00
#0411b:00130000
#04112:00131425
#0411a:0014
#04119:00000025
#0381b:00130000
#03818:0013
#03815:00000013
#03812:24
#05112:13000013
#0511b:13131300
#05115:0000001300000000
#05118:0000000000000013
#04915:0000000000000013
#04916:14
#0501b:0000001300000000
#05018:13000013
#05012:00130000
#05015:0000000000130000
#05718:00000013
#05716:14
#0581b:00000013
#05812:13
#05810:41
#05915:00130000
#05918:13000013
#05912:0013
#07618:0013
#07612:13
#07615:00130000
#0761b:00000013
#0751b:0000001300130000
#07512:00130013
#07515:13
#09519:0013
#09518:00000013
#0951b:13
#09515:13
#0951a:00130000
#09514:00130000
#09513:0013
#09512:00000013
#09015:0000000000000013
#0901a:00130000
#09018:26000013
#09019:0013
#09013:00130000
#09014:0013
#09012:26
#0901f:21
#0051b:13
#00518:00130000
#00512:13
#02212:00130000
#0221b:0013
#02215:00000013
#02218:26
#02210:41
#02318:13000013
#02415:13
#0241b:00130000
#02412:0013
#02418:00000013
#02615:00000013
#02612:00130000
#0261b:0013
#02618:13
#02815:0000001300001300
#02812:13
#0281b:1300000000130013
#02818:00130000
#03015:0013001300001300
#0301b:00131300
#03018:0000000000000013
#00615:0013
#00612:00000013
#0061b:13
#00618:00130000
#02515:13000013
#02918:00131313
#02912:0013001300130000
#03512:00000014
#03515:13
#03712:14
#03716:0014
#04312:13
#04315:00000013
#04412:13
#0441b:13
#04418:0000003300000000
#04415:0000003300000000
#04712:14000014
#04716:00140000
#0471a:0014
#1061b:1313
#10612:1313
#10618:0000130000000013
#10615:00000013
#11318:00160000
#11312:00160013
#1131b:00000013
#12715:00130013
#12718:0000000013000013
#1281b:0000000000130000
#12818:00130000
#12812:13
#12815:0000001300001300
#06918:0013000000000000
#06915:0000001300000000
#07018:00000013
#07012:00130000
#07015:0000000013000013
#0701f:11
#0701b:23
#07715:00130000
#07718:13
#05218:00130000
#05215:0000001300000000
#05212:13
#0611b:13
#06112:00000013
#06015:00000013
#06218:13
#09118:1300001300000000
#09112:00131300
#0911b:00000013
#09115:0000000000000013
#09615:0013
#0961b:0013
#09712:00000013
#0971b:00000013
#0921b:13000000000000000000001300000000
#09218:0000001300000000
#09212:00130000
#09210:41
#09412:1424
#09414:00140000
#0941a:1424
#09418:00140000
#0031c:12
#0031b:00130000
#0031a:0014
#00319:00000015
#00312:12131415
#00912:13
#00915:00130000
#0091b:13
#01018:0013
#0101b:00000013
#01012:13
#01015:00130000
#00415:0000001300001300
#00418:2600130000130000
#00412:26
#00818:2400001300001300
#00815:0000130000130000
#01518:13
#01616:14
#0161b:13
#01212:13
#01216:14
#01115:13
#01412:00000014
#0141a:00140000
#01416:0014
#0181a:00000014
#01812:00140000
#01816:0014
#02014:14
#02718:00000013
#02715:0000000000130000
#03112:0013000000000000
#03118:00130000
#03115:0000000000130000
#03114:00000033
#03218:0013001300001300
#03212:00131300
#03215:0000000000000013
#0331b:0013000000000000
#03315:00130000
#03318:0000000000130000
#03319:00000033
#03412:0013001300000000
#0341b:00131300
#03418:0000000000000013
#03415:00000013
#03410:41
#03614:14
#03616:00140000
#03618:0014
#0361a:00000014
#03912:13000013
#04015:13
#04018:00130000
#0401b:0013
#0421b:0013000000000000
#04218:00000013
#0481a:0014
#0551a:14000014
#05516:00140000
#05512:0014
#05612:0014
#05315:0013
#0531b:00130000
#05318:00000013
#06315:13
#06618:0013
#06615:0000000000130000
#06715:0000001300001300
#06718:0000000013000013
#06815:0013
#06818:0026000000002600
#06812:2600000000000026
#07215:1313
#0721b:00130000
#07218:0000000000130000
#07212:0000000000000013
#07118:0000000000000013
#07112:00003313330000000000000000000000
#07113:0000003300000000
#0731b:0000000000000013
#07315:00003313330000000000000000000000
#07314:0000003300000000
#07415:0013
#07412:13
#07418:0000130000130013
#07815:00000013
#0781b:00130000
#07818:0000000013000013
#07812:23
#08018:1313
#08012:00130000
#08015:0000000000130000
#0801b:0000000000000013
#07915:0000000000000013
#0791b:00003313330000000000000000000000
#0791a:0000003300000000
#08112:0000000000000013
#08118:00003313330000000000000000000000
#08119:0000003300000000
#0821b:13
#08215:00131300
#08218:0000001300130000
#08214:0000000000000024
#08318:0000240000130013
#08315:00000013
#0831a:24
#08312:0000002400000000
#08812:13
#0881b:13
#09316:0014
#09312:00140000
#0931a:00000014
#0981b:13000013
#09816:00000013
#09812:13
#0991a:13
#09915:13
#09919:00130000
#09914:00130000
#09918:0013
#09913:0013
#09917:00000013
#09912:00000013
#10314:0013
#10315:00000013
#10312:13
#10318:13
#10313:00130000
#10319:00130000
#1031a:0013
#1031b:00000013
#10418:0013
#10412:0013
#1021a:1424
#10218:00140000
#10212:1424
#10214:00140000
#10116:0014
#1011a:00140000
#10112:00000014
#10715:1300000000000013
#1071b:0013
#10712:0013
#10718:00130013
#10916:0014
#10912:00000014
#1091a:00140000
#10915:13
#1101a:1424
#11018:00140000
#11012:1424
#11014:00140000
#11010:41
#1121b:13
#1121a:00130000
#11219:0013
#11212:13
#11213:00130000
#11214:0013
#11218:00000023
#11215:00000023
#1111b:1313
#11118:00130000
#11112:1313
#11115:00000013
#1141b:13
#11412:13000013
#11417:00000013
#11418:00000013000000000000000000000000
#11415:00000013000000000000000000000000
#11514:1313
#1151b:00130000
#11519:1313
#11516:00130000
#11517:00000013
#11512:00000013
#11619:00000013
#11614:00000013
#1161b:0013000000000000
#11616:0013000000000000
#12112:13
#1211b:13
#1291b:00130000
#12918:0013
#12915:00000013
#13112:00130000
#13115:0013
#13118:00000013
#1331b:00130000
#13318:0013
#13315:00000013
#13512:00130000
#13515:0000000013000013
#13518:00000013
#13612:0000000000130000
#13615:00130000
#1361b:13
#13618:0000001300001300
#13715:0000000000130013
#13718:00000013
#14114:0013
#14119:0013
#14112:24
#01316:13
#0131a:14
#01717:13
#01712:14
#08416:00140000
#08412:14
#0841a:0000000000000024
#10812:0013
#1081b:0013
#10815:00130013
#10818:1300000000000013
#11716:13
#1171b:13
#11712:00130000
#11717:00130000
#11719:00000013
#11714:00000013
#12315:00130013
#12318:0013
#12518:00130013
#12515:0013
#12019:00250000
#1201a:0000000000240000
#12012:0000250000240000
#04619:25
#04612:25
#04610:41
#11817:23
#11812:23
#05412:24
#06418:00260000
#06412:0000000000260000
#06518:26
#11916:23
#1191b:23
#13018:24000024
#13012:24000024
#1301a:0000002400000000
#13014:0000002400000000
#13214:24000024
#1321a:24000024
#13212:0000002400000000
#13218:0000002400000000
#13418:24000024
#13412:24000024
#1341a:0000002400000000
#13414:0000002400000000
#1401a:00240000
#14016:0000000000240000
#08619:25
#08612:25
#02118:00240000
#02113:0000000000250000
#1221a:24
#12214:24
#12219:0000002400000000
#12213:0000002400000000
#12218:00000024
#12212:00000024
#12412:24
#12418:24
#12413:0000002400000000
#12419:0000002400000000
#12414:00000024
#1241a:00000024
#1261a:24
#12614:24
#12619:0000002400000000
#12613:0000002400000000
#12618:00000024
#12612:00000024
#08914:003300000000000000000000000000000000000000000000
#08913:003300000000000000000000
#08912:000000333333333333333333333333333333333333333333
#08919:003300000000000000000000000000000000000000000000
#0891a:003300000000000000000000
#0891b:000000333333333333333333333333333333333333333333
#00458:16
#00452:16
#02958:00000013
#03558:0000001300000000
#03752:54
#03756:0064
#04358:0000001300000000
#04555:13
#04558:13
#04452:53
#0445b:63
#11358:00260000
#1135a:0013
#11352:00260000
#11353:0013
#11258:00000053
#11255:00000063
#11857:13
#11852:13
#05255:0000006300000000
#0615b:63
#06258:53
#09558:00000053
#09552:00000053
#09655:0063
#0965b:0063
#09752:13
#09758:13
#09452:5434
#09454:00240000
#0945a:6444
#09458:00240000
#01558:53
#01656:64
#0165b:63
#01252:53
#01256:54
#01155:63
#02152:13
#02158:00140000
#02153:0000000000150000
#02054:64
#02355:0000001300000000
#02558:0000001300000000
#02758:0000001300000000
#03152:0000000000000013
#03155:0000000000630000
#0335b:0000000000000013
#03358:0000000000530000
#04159:00000015
#04152:00000015
#03958:0000001300000000
#04055:0000000000000013
#04255:0013
#04659:0015
#04652:0015
#04752:00000054
#0485a:0064
#04956:54
#05456:0014
#05452:54
#0555a:00000064
#05652:0054
#05756:64
#05852:53
#05855:0000001300000000
#05958:00000053
#06355:63
#06458:00160000
#06452:0000000000160000
#06558:16
#0705b:13
#07055:0000000000000063
#07155:0013
#07152:00000023000000000000000000000000
#07852:13
#07858:0000000000000053
#09052:16
#09058:16
#08852:53
#0885b:63
#09258:0000005300000000
#0925b:00000000000000000000002300000000
#09957:00000053
#09952:00000053
#10355:00000063
#1035b:00000063
#10458:0053
#10452:0053
#1025a:6444
#10258:00240000
#10252:5434
#10254:00240000
#1055b:13
#10555:13
#1105a:6444
#11058:00240000
#11052:5434
#11054:00240000
#1145b:6300004300000000
#11458:00000023000000000000000000000000
#11452:5300003300000000
#11455:00000023000000000000000000000000
#11956:13
#1195b:13
#12158:0013
#12155:0013
#12152:53
#1215b:63
#13658:00000053
#1405a:00140000
#14056:0000000000140000
#14152:14
#14154:0013
#14159:0013
#01356:23
#0135a:24
#01757:23
#01752:24
#07252:0000000000000053
#07355:00000023000000000000000000000000
#07352:0013
#0795b:00000023000000000000000000000000
#07958:0013
#0805b:0000000000000063
#08158:00000023000000000000000000000000
#0815b:0013
#0845a:0000000000000014
#08659:15
#08652:15
#11557:00000053
#11552:00000053
#1165b:0023000000000000
#11656:0023000000000000
#11756:63
#1175b:63
#11752:00230000
#11757:00230000
#09852:53
#09855:0000001300000000
#0985b:63
#09858:0000001300000000
#00858:14
#03852:14
#02258:16
#005350:0000001300002300
#007380:1454545454545454545454545454545454545454545454545454545454545454
#007370:00540054005400540054005400540054005400540054005400540054005400540054005400540054005400540054005400540054005400540054005400540054
#008380:24
#009380:0000001300002300
#011350:13
#012320:33
#013360:53
#014320:23
#012361:14
#0133a1:54
#014361:24
#015381:13
#0163b1:33
#017371:53
#0183b1:23
#016360:14
#017320:54
#018360:24
#019340:1454545454545454545454545454545454545454545454545454545454545454
#019350:00540054005400540054005400540054005400540054005400540054005400540054005400540054005400540054005400540054005400540054005400540054
#020340:34
#021320:23
#023350:0013002300000000
#025380:0013002300000000
#026380:0000000000000013
#0273b0:0033000000000000
#027380:0000002300000000
#031320:0000001300000023
#031350:0000000000330000
#031340:00000033
#0333b0:0000001300000023
#033380:0000000000330000
#033390:00000033
#035380:0013002300000000
#037320:14
#037360:0034
#038320:24
#039380:0013002300000000
#040350:0000000000130023
#042350:00132300
#043380:0013002300000000
#044320:13
#044350:0000003300003300
#045350:23
#0443b1:13
#044381:0000003300003300
#045381:23
#046391:1525
#046320:1525
#047320:00000014
#048360:00240000
#0483a0:0014
#049360:34
#0493a0:0024
#052350:0000001300000000
#053320:23
#054320:14
#054360:0024
#0553a0:00000014
#056360:00240000
#056320:0014
#057360:34
#057320:0024
#058320:13
#058350:0000002300000000
#059380:00000013
#0603b0:0023
#0613b0:13
#061380:0023
#062380:13
#0623b0:0023
#063350:13
#063320:0023
#066320:13535353230000000000000000000000
#066330:0053005300530053000000000000000000000000000000000000000000000000
#0663b0:00000000000000000000000000001353
#0663a0:0000000000000000000000000000000000000000000000000000000000530053
#0673b0:53532300000000000000000000000000
#0673a0:0053005300000000000000000000000000000000000000000000000000000000
#0693b0:00000000000000001353535353535353
#0693a0:0000000000000000000000000000000000530053005300530053005300530053
#0703b0:23
#070350:0000000000000013
#071320:00003353330000000000000000000000
#071330:0000003300000000
#071350:0023
#072320:0000000000000013
#073350:00003353330000000000000000000000
#073340:0000003300000000
#073320:0023
#077320:00000000000000001353535353535353
#077330:0000000000000000000000000000000000530053005300530053005300530053
#078320:23
#078380:0000000000000013
#0793b0:00003353330000000000000000000000
#0793a0:0000003300000000
#079380:0023
#0803b0:0000000000000013
#081380:00003353330000000000000000000000
#081390:0000003300000000
#0813b0:0023
#0843a0:0000000014000024
#088320:13
#089350:33
#089340:003300000000000000000000000000000000000000000000
#089330:003300000000000000000000
#089320:000000333333333333333333333333333333333333333333
#090320:26
#0883b1:13
#089381:33
#089391:003300000000000000000000000000000000000000000000
#0893a1:003300000000000000000000
#0893b1:000000333333333333333333333333333333333333333333
#090381:26
#092381:0000001300000000
#0923b1:00000000000000000000005300000000
#093381:23
#094321:1424
#094341:00540000
#0943a0:1424
#094380:00540000
#095380:00000013
#0963b0:00230000
#095321:00000013
#096351:00230000
#096351:0013
#097321:23
#0963b0:0013
#097380:23
#098320:13
#098350:0000002300000000
#0983b1:13
#098381:0000002300000000
#099371:00000013
#1003b1:00000023
#099320:00000013
#100360:00000023
#1023a0:1424
#102380:00540000
#102321:1424
#102341:00540000
#103351:00000013
#104321:00230000
#1033b0:00000013
#104380:00230000
#104380:0013
#1053b0:23
#104321:0013
#105351:23
#1103a1:1424
#110381:00540000
#110320:1424
#110340:00540000
#112380:00000013
#113380:00560000
#1133a0:0023
#112351:00000013
#113321:00560000
#113331:0023
#1143b1:1300002300000000
#114381:00000053000000000000000000000000
#114320:1300002300000000
#114350:00000053000000000000000000000000
#115370:00000013
#1163b0:0053000000000000
#116370:0023
#115321:00000013
#116361:0053000000000000
#116321:0023
#117361:1323
#117321:00530000
#1173b0:1323
#117370:00530000
#1213b0:13
#121380:0023
#121321:13
#121351:0023
#136381:00000013
#1373b1:00230000
#138381:13000023
#1383a1:0000003300000000
#139351:13000023
#139331:0000003300000000
