This file was generated by Ched 2.7.0.0.
#TITLE ""
#ARTIST ""
#DESIGNER ""
#DIFFICULTY 0
#PLAYLEVEL
#SONGID ""
#WAVE ""
#WAVEOFFSET 0
#JACKET ""
#REQUEST "ticks_per_beat 480"
#00002: 4
#BPM01: 268
#00008: 01
#TIL00: ""
#VOLUME: ""
#HISPEED 00
#MEASUREHS 00
#04612:0016
#04618:26
#04610:41
#03712:0014
#03714:14
#0471a:14
#04716:0014
#0121a:14
#01416:0014
#01816:0014
#03614:1414
#03618:00140014
#04912:14
#10116:0014
#10015:0014
#10012:14
#01317:14
#0841a:00140000
#08412:1400000000000024
#12314:00140000
#12318:0014
#00414:0014
#0041a:24
#00518:14
#00512:0014
#0061a:14
#00616:0014
#00818:0014
#00812:24
#00914:14
#0091a:0014
#01012:14
#01016:0014
#01612:14
#01715:14
#02218:0014
#02210:41
#02312:14
#0231a:0014
#02314:00000014
#0241a:14
#02414:0014
#0251a:14
#02512:0014
#02518:00000014
#02612:14
#0261a:0014
#02712:14
#02718:0014
#02714:00000014
#02818:14
#02812:0014
#0291a:14
#02914:0014
#02918:00000014
#03014:14
#03012:0014
#0301a:00140000
#03118:14
#0311a:0014
#03112:00140000
#03212:14
#03214:0014
#03218:00140000
#0331a:14
#03318:0014
#03314:00140000
#03412:1414
#03417:00140000
#03410:41
#0351a:1414
#03515:00140000
#0381a:0014
#03814:24
#03916:14
#03912:0014
#04016:14
#0401a:0014
#04112:14
#04118:00240024
#04114:0024
#04216:0014
#04212:14
#0431a:14
#04316:0014
#04412:14
#04414:0000003400000000
#04812:14
#0481a:0014
#0501a:1414
#05012:00140000
#05113:1414
#05119:00140000
#05218:1414
#05214:00140000
#05314:14
#05318:0014
#05418:0016
#05412:26
#05512:14
#05516:0014
#0571a:14
#0561a:14
#05612:0014
#05812:1414
#0581a:00140000
#05810:41
#05919:1414
#05913:00140000
#06014:1414
#06018:00140000
#06118:14
#06214:14
#06312:14
#0661a:1414
#06614:00140000
#06712:1414
#06718:00140000
#06914:0014000000000000
#0701a:1414
#07014:00140014
#0701f:11
#0711a:14
#07116:0014
#07212:1414
#07218:00140014
#07312:14
#07316:0014
#0741a:1414
#07414:00140014
#0751a:14
#07516:0014
#07612:1414
#07618:00140014
#07712:14
#07716:0014
#0781a:14
#07814:00140000
#07819:0014
#07813:00000014
#07918:14
#07915:0014
#08012:14
#08018:00140000
#08013:0014
#08019:00000014
#08114:14
#08117:0014
#0821a:14
#08214:00140000
#08219:0014
#08213:00000014
#08318:14
#08315:0014
#09014:00140000
#09018:0014
#09012:00000014
#0901a:24
#0901f:21
#09118:14
#09114:00140000
#0911a:0014
#09214:14
#09218:0014
#09210:41
#09312:14
#0931a:00140000
#09314:0014
#09318:00000014
#09418:0016
#09412:26
#09512:1414
#09518:00140000
#0961a:1414
#09614:00140000
#09714:14
#09912:14
#09918:00140000
#09914:0014
#0991a:00000014
#09818:14
#10212:0016
#10218:26
#1031a:14
#10314:00140000
#10318:0014
#10412:14
#10418:00140000
#10414:0014
#1051a:14
#10612:14
#10614:0014
#10716:14
#10718:0014
#1081a:14
#10816:0014
#10912:14
#10916:0014
#11012:0016
#11018:26
#11010:41
#1111a:1414
#11112:00140014
#11218:1414
#11214:00140014
#11318:14
#1131a:0014
#11414:0014
#1151a:1414
#11512:00140000
#11614:1414
#11618:00140000
#11718:14
#12518:00140000
#12514:0014
#12714:00140000
#12718:0014
#12812:14
#12816:00140000
#1281a:0014
#13118:00140000
#13114:0014
#13314:00140000
#13318:0014
#13518:00140000
#13514:0014
#1361a:14
#13616:00140000
#13612:0014
#12914:14
#12918:0014
#13718:14
#13714:0014
#14118:14
#14114:14
#06818:1414
#06814:00140000
#1181a:24
#06514:24
#08618:26
#0211a:24
#02112:24
#11914:24
#1221a:24
#12412:24
#1261a:24
#13012:24
#1321a:24
#13412:24
#14012:00240000
#1401a:00240000
#0045a:14
#03752:0054
#03754:64
#04554:14
#1185a:14
#0125a:64
#04952:54
#06554:14
#10055:0024
#10052:54
#01357:24
#08452:0000000000000014
#08658:16
#03854:14
#00852:14
#01652:54
#01755:24
#0205a:14
#0225a:14
#02252:14
#04452:54
#04658:16
#04652:0016
#05458:0016
#05452:16
#0575a:64
#06158:54
#06254:64
#06352:54
#06952:0014
#06954:0054000000000000
#08952:16
#09452:16
#09458:0016
#09754:64
#09858:54
#10252:0016
#10258:16
#1055a:64
#11052:0016
#11058:16
#11358:54
#1135a:0024
#11458:14
#11758:54
#11954:64
#12152:14
#1225a:00000014
#12452:00000014
#1265a:00000014
#13052:00000014
#1325a:00000014
#13452:00000014
#14152:0014
#1415a:0014
#14158:54
#14154:64
#007320:1454545454545454
#007330:00540054005400540054005400540054
#008320:24
#0113a0:14
#0123a0:34
#013370:54
#0143a0:24
#015320:14
#016320:34
#017350:54
#018320:24
#0193a0:1454545454545454
#019390:00540054005400540054005400540054
#0203a0:24
#0213a0:14340000
#021380:0000000000340000
#0223a0:24
#021321:14340000
#021341:0000000000340000
#022321:24
#037341:14
#037321:0034
#038341:24
#044321:14
#044341:0000003400003400
#045341:24
#049321:14
#049341:0024
#0573a1:14
#057381:0024
#061381:14
#0613a1:0024
#062341:14
#063321:34
#064341:00340000
#064321:0000000000340000
#065341:24
#068341:00000014
#069341:0034000000000000
#069321:0024
#084321:0000000014000024
#088321:16
#089321:26
#097341:14
#097321:0024
#098381:14
#0983a1:0024
#100321:14
#100351:0054
#101321:24
#1053a1:14
#105381:0024
#113381:14
#1133a1:0054
#114381:24
#117381:14
#1183a1:24
#119341:14
#120321:00340000
#120341:0000000000340000
#121321:24
#1223a1:14000024
#122381:0000003400000000
#124321:14000024
#124351:0000003400000000
#1263a1:14000024
#126361:0000003400000000
#130321:14000024
#130341:0000003400000000
#1323a1:14000024
#132371:0000003400000000
#134321:14000024
#134361:0000003400000000
#1383a1:14
#138381:00000034
#139381:34
#1393a1:00000024
#140321:00140000
#140331:0000000000340000
#141341:34
#141321:0024
#1403a0:00140000
#140390:0000000000340000
#141380:34
#1413a0:0024
