This file was generated by Ched 2.7.0.0.
#TITLE ""
#ARTIST ""
#DESIGNER ""
#DIFFICULTY 0
#PLAYLEVEL
#SONGID ""
#WAVE ""
#WAVEOFFSET 0
#JACKET ""
#REQUEST "ticks_per_beat 480"
#00002: 4
#BPM01: 170
#00008: 01
#TIL00: ""
#VOLUME: ""
#HISPEED 00
#MEASUREHS 00
#01612:13
#0161b:13
#01715:13
#01718:13
#0861a:00000014000000000000000000000014
#08618:1400001400001400
#08616:00000000000000000014000000000000
#00015:13
#00012:0013
#00115:13
#00118:00000013
#0011b:0000000000000033
#0021b:1300003313000033
#00218:00130013
#00318:00000013
#00315:0000000000130013
#00418:13
#0041b:0013
#00518:13
#0051b:00000000000000130000000000000000
#00513:00000000000000000000000000000033
#00618:0000000000130013
#00615:00000013
#0081b:13
#00812:0013
#00810:41
#00915:00000013
#0091b:13
#00918:00130000
#00912:0000000000000033
#01012:1300003313000033
#01015:00130013
#01118:0000000000130013
#01115:00000013
#01112:0013
#01215:1313
#01212:00130000
#0131b:00130000
#01318:2313
#01312:0000000000000014
#01412:0000001400000000
#0141a:24
#01417:0024
#01512:14
#01518:00140000
#01514:00000014
#01516:0014
#0151a:14
#07612:0000000013000013
#07615:0000130000130000
#07618:0000001300001300
#0761b:0000000000000013
#0761a:24
#0771a:00140014
#07717:0014
#07715:00240024
#07712:0024
#0781b:0000000013000023
#07818:0000130000130000
#07815:0000001300001300
#07812:2400000000000023
#07516:00140000
#07512:24000014
#08715:00000013
#08718:0000000000000013
#0181b:13
#01812:13
#01918:13
#01915:13
#01912:00000013
#0191b:00000013
#02112:00000013
#0211b:00000013
#02115:13
#02118:13
#08115:00000014
#0811a:00002424
#08516:0000000000140000
#0851a:0024
#08512:00000024
#08412:14
#08416:0014000000000000
#0841a:0000240000000024
#06715:0013000000130000
#06718:00131300
#06918:00130013
#0691b:0013
#06515:00131300
#06518:0000001300000000
#0651b:0000000000130000
#06512:00000013
#06618:00130000
#06615:0000001300000000
#06818:00130013
#0681b:0013
#06815:0000000000130013
#06812:0013
#0701b:13
#07015:0013
#03918:1300000000130000
#03915:0013000013000000
#03912:00130025
#0391b:00000013
#03919:00250000
#04612:15
#04615:0015
#04712:14
#04715:0014
#04818:13
#03214:14
#03212:00130000
#03216:0000000000005252
#03815:0013
#03818:0000000000130000
#03812:00130025
#0381b:00000013
#03819:00250000
#04012:0000000000130000
#04018:13130013
#0401b:0013
#04015:0013001300000000
#04010:41
#04118:0014
#0411a:00000014
#04114:0000000000140000
#0421b:0000000000130000
#04215:13130013
#04212:0013
#04218:0013001300000000
#04412:0000000000130000
#04418:13130013
#04415:0013001300000000
#0441b:0013
#04518:0014
#0451a:00000014
#04514:0000000000140000
#05015:13
#0521b:13
#05217:00000000000000133300000000000000
#05412:13
#05416:00000000000000133300000000000000
#04918:0013
#0491b:00000013
#04915:00230000
#05112:0013
#05118:00230000
#05318:0013
#0531b:00000013
#05315:00230000
#05512:00000013
#05515:0013
#05518:00130000
#05510:41
#0221b:00130013
#02218:0013
#02215:13
#02318:1313
#0231b:00130000
#02312:00130025
#02315:2313
#02319:00000025
#06212:16160000
#06218:00001616
#06017:14
#06018:0000000000000013
#06015:0000000000000013
#0601b:00130000
#06318:0016001600000000
#06312:16162600
#06315:00000000000000000000003616360000
#06314:0000000000360036
#06313:00000000000000000036000000000036
#0241c:12
#0241b:00130000
#0241a:0014
#02419:00000015
#02412:22232425
#02518:16151413
#02512:26
#02513:00250000
#02514:0024
#02515:00000023
#02618:12131415
#02616:22
#02615:00230000
#02614:0024
#02613:00000025
#02718:16000000260000002600000026666666
#02712:2600002600260000
#0301a:1400000000000014
#03012:0014
#03015:00140000
#03116:00000014000000000000000058000000
#03119:00000000000000000055000000000000
#03118:0000000000560000
#03117:00000000000000000000005700000000
#0311a:0054
#03418:1400000000005252
#0341b:00130000
#03614:14
#03612:00130000
#03616:0000000000005252
#0561b:13
#05617:0013
#0561f:11
#05618:00330033
#0571a:14
#05716:0014
#05717:00340034
#05812:13
#05816:0013
#05815:00330033
#05912:14
#05916:0014
#05915:00340034
#06412:16
#0641f:00210000
#06418:2600000000000023
#06415:0023
#06410:0041
#04318:0000000000140000
#04314:0024
#04312:00000024
#0611b:00130000
#06112:00130000
#02012:13
#0201b:13
#02010:41
#00712:23636464656566666767686869000000
#0721a:24240000
#07214:00240000
#07212:24
#07215:0000000000000023
#07218:0023
#07918:0000002400240000
#07914:00002424
#07412:24
#0741a:0024
#07318:00232300
#07312:0000000000240000
#0731a:00000024
#07315:0000002300000000
#0801a:0000240000000024
#08212:0000240000000024
#08312:0025
#08319:00000025
#0711b:00230000
#07115:00002323
#07118:0000000000230000
#07112:00230000
#02812:00260027
#02817:0027
#02810:41
#02818:66
#02916:28
#02912:00280029
#02915:0029
#03318:0023
#03314:00000000000000000000003300000000
#03313:00000033
#03312:00000000000000000000000000333333
#03316:5252520000000000
#03512:00000023
#0351b:00000023
#03518:5252525252000000
#03718:0023
#03714:00000000000000000000003300000000
#03713:00000033
#03712:00000000000000000000000000333333
#03716:5252520000000000
#08912:00000000000000000000000000535353
#08913:00000053
#08914:00000000000000000000005300000000
#08915:0000000000530000
#01358:6363
#0135b:00230000
#01652:63
#0165b:53
#01755:63
#01758:53
#08758:0014
#0865a:00000024000000000000000000000024
#08656:00000000000000000024000000000000
#08658:5400005400005400
#00055:63
#00052:0063
#00155:63
#00158:00000053
#0025b:2323
#00258:00530053
#00458:53
#0045b:0053
#00558:53
#0055b:00000000000000230000000000000000
#00752:00000019
#0085b:53
#00852:0063
#00955:00000063
#0095b:53
#00958:00230000
#01052:2323
#01055:00630063
#01255:5353
#01252:00230000
#02359:00000015
#02358:5353
#0235b:00530000
#02352:00630015
#02355:6363
#07954:00000014
#07552:64000014
#07556:00240000
#0185b:53
#01852:63
#01958:53
#01955:63
#0765a:14
#07852:14
#08352:0015
#08359:00000015
#06958:00530053
#0695b:0053
#06552:00000013
#06755:0000000000530000
#0705b:53
#07055:0053
#07155:00000013
#07152:13
#0665b:0000000000000013
#0735a:00000014
#0645b:00130000
#06458:5600000000000063
#06455:0063
#06452:56130000
#07258:0053
#07255:0000000000000053
#04652:65
#04655:0025
#04752:64
#04755:0024
#04858:53
#03254:64
#03252:00230000
#05055:63
#0525b:63
#05257:00000000000000230000000000000000
#05452:53
#05456:00000000000000230000000000000000
#05152:0013
#0225b:00530053
#02258:0053
#06057:54
#06058:0000000000000053
#06055:0000000000000063
#0605b:00230000
#02858:16
#02852:00160017
#02857:0017
#02956:18
#02952:00180019
#02955:0019
#03052:0064
#03055:00640000
#0305a:1400000000000064
#03156:00000024000000000000000018000000
#03458:54
#0345b:00230000
#03558:0012
#03654:64
#03652:00230000
#03852:13
#0565b:53
#05657:0023
#0575a:54
#05756:0024
#05852:63
#05856:0023
#05952:64
#05956:0024
#06355:00000026
#06352:0056
#06158:0014
#06154:0014
#0615b:00530000
#06152:00630000
#0145a:54
#01457:0064
#06852:13
#02052:63
#0205b:53
#02155:63
#02158:53
#000350:13
#000320:0033
#001350:33
#001320:0023
#001380:00000013
#0013b0:0000000000000033
#0023b0:5300003353000033
#002380:00330033
#0033b0:0023
#004380:13
#0043b0:0033
#005380:3300000000000023
#0053b0:00000000000000530000000000000000
#005351:0000000000000013
#005331:00000000000000000000000000000033
#006321:3323
#0083b1:13
#008381:00230000
#008321:0013
#008351:00000023
#0093b1:1323
#009381:00530000
#009351:00000013
#009321:0000000000000033
#010321:5300003353000033
#010351:00330033
#011321:00230000
#012351:1333
#012321:00530023
#013381:1333
#0133b1:00530023
#0143a1:14
#014371:00240000
#014371:0014
#0143a1:00000024
#016321:13
#016351:0033
#017351:33
#017321:0023
#0163b0:13
#016380:0023
#017380:13
#0173b0:0023
#0183b0:13
#018380:0033
#019380:33
#0193b0:0023
#018321:13
#018351:0023
#019351:13
#019321:0023
#020321:13
#020351:0033
#021351:33
#021321:0023
#0203b0:13
#020380:0023
#021380:13
#0213b0:0023
#0223b0:00130033
#022380:0033
#023380:3333
#0233b0:00330000
#023390:00000025
#023351:1333
#023321:00330025
#030351:00140024
#030321:0034
#0303a1:0000000000000014
#031361:00000054000000000000000000000000
#0313a1:0024
#032341:14
#032321:00530000
#032361:00003222
#033351:0000000000130000
#033341:00000000000000000000003300000000
#033331:00000033
#033321:00000000000000000000000000333333
#034321:23
#034380:14003222
#0343b0:00530000
#036340:14
#036320:00530000
#036360:00003222
#037350:0000000000130000
#037340:00000000000000000000003300000000
#037330:00000033
#037320:00000000000000000000000000333333
#038320:23
#040350:0000000000000013
#041320:0033000000000000
#041350:0000002300000000
#042380:0000000000000013
#0433b0:0033000000000000
#043380:0000002300000000
#044350:0000000000000013
#045320:0033000000000000
#045350:0000002300000000
#046320:15
#046350:0055
#047320:34
#047350:0054
#048320:23
#048381:13
#0483b1:0000000000000023
#050351:13
#050321:0000000000000023
#0523b1:1300000000000023
#052371:00000000000000533300000000000000
#054321:1300000000000023
#054361:00000000000000533300000000000000
#0563b1:13
#056381:00330033
#056371:0053
#0573a1:54
#057371:00340034
#057361:0054
#058391:25
#058320:13
#058350:00330033
#058360:0053
#059320:54
#059350:00340034
#059360:0054
#060320:25
#060371:14
#0603b1:00530000
#060381:0000000033000033
#0613b1:00330000
#061381:0024
#060350:0000000000000013
#061320:00330000
#061340:0024
#063320:0016
#063330:00000000000000000036000000000036
#063340:0000000000360036
#063350:00000000000000000000003636360000
#064320:36230000
#064381:16
#0643b1:00230000
#064351:0013
#064321:00000023
#064381:0000000000000013
#0653b1:0023000000000000
#066381:0013
#066391:0000000000330000
#0663a1:00000033
#0663b1:0000000000000023
#067351:0000000000130000
#068321:23
#069381:00130033
#0693b1:0033
#0703b1:33
#070381:0000002300000000
#070351:0013
#071321:23
#072381:0013
#0723b1:00000023
#072351:0000000000000013
#073321:0023000000000000
#074321:143400
#074361:003400240000
#0743a0:000000140034
#074360:000034
#075360:24
#075321:1424
#075361:00540000
#080321:00000000000000001555555525000000
#080331:0000000000000000000000000000000000550055005500550000000000000000
#081341:00001555555525000000000000000000
#081351:0000000000550055005500550000000000000000000000000000000000000000
#082391:00000000000000001555555525000000
#082381:0000000000000000000000000000000000550055005500550000000000000000
#083371:00001555555525000000000000000000
#083361:0000000000550055005500550000000000000000000000000000000000000000
#084321:00000000000000001555555525000000
#084331:0000000000000000000000000000000000550055005500550000000000000000
#085341:00001555555525000000000000000000
#085351:0000000000550055005500550000000000000000000000000000000000000000
#086381:1400003400003400
#0863a1:00000034000000000000000000000054
#086361:00000000000000000034000000000000
#087381:0024
#088351:13535353535353535353535353535353
#088341:0053005300530053005300530053005300530053005300530053005300530053
#089351:5300000000230000
#007920:130000000000000000000000000000000000000000000000000000000000000000000000000000000000000000000000000000000000000000000000000000000000000000000000000000000000000000000000000000000000000000000000000000000000000000000000000000000000000000000000000000000000000000000000000000000000000000000000000000000000000000000000000000000000000000000000000000000000000000000000000000000000000000000000000000000000000000000000000000000000000000000000000000000000000000000000000000000000000000000000000000000000000000000000000000000000000000000000000000000000000000000000000000000000000000000000000000000000000000000000000000000000000000000000000000000000000000000000000000000000000000000000000000000000000000000000000000000000000000000000000000000000000000000000000000000000000000000000000000000000000000000000000000000000000000000000000000000000000000000000000000000000000000000000000000000000000000000000000000000000000000000000000000000000000000000000000000000000000000000000000000000000000000000000000000000000000000000000000000000000000000000000000000000000000000000000000000000000000000000000000000000000000000000000000000000000000000000000000000000000000000000000000000000000000000000000000000000000000000000000000000000000000000000000000000000000000000000000000000000000000000000000000000000000000000000000000000000000000000000000000000000000000000000000000000000000000000000000000000000000000000000000000000000000000000000000000000000000000000000000000000000000000000000000000000000000000000000000000000000000000000000000000000000000000000000000000000000000000000000000000000000000000000000000000000000000000000000000000000000000000000000000000000000000000000000000000000000000000000000000000000000000000000000000000000000000000000000000000000000000000000000000000000000000000000000000000000000000000000000000000000000000000000000000000000000000000000000000000000000000000000000000000000000000000000000000000000000000000000000000000000000000000000000000000000000000000000000000000000000000000000000000000000000000000000000000000000000000000000000000000000000000000000000000000000000000000000000000000000000000000000000000000000000000000000000000000000000000000000000000000000000000000000000000000000000000000000000000000000000000000000000000000000000000000000000000000000000000000000000000000000000000000000000000000000000000000000000000000000000000000000000000000000000000000000000000000000000000000000000000000000000000000000000000000000000000000000000000000000000000000000000000000000000000000000000000000000000000000000000000000000000000000000000000000000000000000000000000000000000000000000000000000000000000000000000000000000000000000000000000000000000000000000000000000000000000000000000000000000000000000000000000000000000000000000000000000000000000000000000000000000000000000000000000000000000000000000000000000000000000000000000000000000000000000000000000000000000000000059595959290000000000000000000000000000000000000000000000000000000000000000000000000000000000000000000000000000000000000000000000000000000000000000000000000000000000000000000000000000000000000000000000000000000000000000000000000000000000000000000000000000000000000000000000000000000000000000000000000000000000000000000000000000000000000000000000000000000000000000000000000000000000000000000000000000000000000000000000000000000000000000000000000000000000000000000000000000000000000000000000000000000000000000000000000000000000000000000000000000000000000000000000000000000000000000000000000000000000000000000000000000000000000000000000000000000000000000000000000000000000000000000000000000000000000000000000000000000000000000000000000000000000000000000000000000000000000000000000000000000000000000000000000000000000000000000000000000000000000000000000000000000000000000000000000000000000000000000000000000000000000000000000000000000000000000000000000000000000000000000000
#027980:000000000000000000000000000000000000000000000000000000000000000000000000000000000000000000000000000000000000000000000000000000000000000000000000000000000000000000000000000000000000000000000000000000000000000000000000000000000000000000000000000000000000000000000000000000000000000000000000000000000000000000000000000000000000000000000000000000000000000000000000000000000000000000000000000000000000000000000000000000000000000000000000000000000000000000000000000000000000000000000000000000000000000000000000000000000000000000000000000000000000000000000000000000000000000000000000000000000000000000000000000000000000000000000000000000000000000000000000000000000000000000000000000000000000000000000000000000000000000000000000000000000000000000000000000000000000000000000000000000000000000000000000000000000000000000000000000000000000000000000000000000000000000000000000000000000000000000000000000000000000000000000000000000000000000000000000000000000000000000000000000000000000000000000000000000000000000000000000000000000000000000000000000000000000000000000000000000000000000000000000000000000000000000000000000000000000000000000000000000000000000000000000000000000000000000000000000000000000000000000000000000000000000000000000000000000000000000000000000000000000000000000000000000000000000000000000000000000000000000000000000000000000000000000000000000000000000000000000000000000000000000000000000000000000000000000000000000000000000000000000160000000000000000000000000000000000000000000000000000000000000000000000000000000000000000000000000000000000000000000000000000000000000000000000000000000000000000000000000000000000000000000000000000000000000000000000000000000000000000000000000000000000000000000000000000000000000000000000000000000000000000000000000000000000000000000000000000000000000000000000000000000000000000000000000000000000000000000000000000000000000000000000000000000000000000000000000000000000000000565600
#028980:26
#0319a0:0014
#031960:000000000000000000000000000000000000000000000000000000000000000000000000000000000000000000000000000000000000000000000000000000000000000000000000000000000000000000000000000000000000000000000000000000000000000000000000000000000000000000000000000000000000000000000000000000000000000000000000000000000000000000000000000000000000000000000000000000000000000000000000000000000000000000000000000000000000000000000000000000000000000000000000000000000000000000000000000000000000000000000000000000000000000000000000000000000000000000000000000000000000000000000000000000000000000000000000000000000000000000000000000000000000000000000000000000000000000000000000000000000000000000000000000000000000000000000000000000000000000000000000000000000000000000000000000000000000000000000000000000000000000000000000000000000000000000000000000000000000000000000000000000000000000000000000000000000000000000000000000000000000000000000000000000000000000000000000000000000000000000000000000000000000000000000000000000000000000000000000000000000000000000000000000000000000000000000000000000000000000000000000000000000000000000000000000000000000000000000000000000000000000000000000000000000000000000000000000000000000000000000000000000000000000000000000000000000000000000000000000000000000000000000000000000000000000000000000000000000000000000000000000000000000000000000000000000000000000000000000000000000000000000000000000000000000000000000000000000000000000000005858280000000000000000000000000000000000000000000000000000000000000000000000000000000000000000000000000000000000000000000000000000000000000000000000000000000000000000000000000000000000000000000000000000000000000000000000000000000000000000000000000000000000000000000000000000000000000000000000000000000000000000000000000000000000000000000000000000000000000000000000000000000000000000000000000000000000000000000000000000000000000000000000000000000000000000000000000000000000000000000000
#032960:0000000000001252
#032950:00000000000000000000000000540054
#033960:520000000000000000000000000000000000000000000000000000000000000000000000000000000000000000000000000000000000000000000000000000000000000000000000000000000000000000000000000000000000000000000000000000000000000000000000000000000000000000000000000000000000000000000000000000000000000000000000000000000000000000000000000000000000000000000000000000000000000000000000000000000000000000000000000000000000000000000000000000000000000000000000000000000000000000000000000000000000000000000000520000000000000000000000000000000000000000000000000000000000000000000000000000000000000000000000000000000000000000000000000000000000000000000000000000000000000000000000000000000000000000000000000000000000000000000000000000000000000000000000000000000000000000000000000000000000000000000000000000000000000000000000000000000000000000000000000000000000000000000000000000000000000000000000000000000000000000000000000000000000000000000000000000000000000000000000005252525252525252525252220000000000000000000000000000000000000000000000000000000000000000000000000000000000000000000000000000000000000000000000000000000000000000000000000000000000000000000000000000000000000000000000000000000000000000000000000000000000000000000000000000000000000000000000000000000000000000000000000000000000000000000000000000000000000000000000000000000000000000000000000000000000000000000000000000000000000000000000000000000000000000000000000000000000000000000000000000000000000000000000000000000000000000000000000000000000000000000000000000000000000000000000000000000000000000000000000000000000000000000000000000000000000000000000000000000000000000000000000000000000000000000000000000000000000000000000000000000000000000000000000000000000000000000000000000000000000000000000000000000000000000000000000000000000000000000000000000000000000000000000000000000000000000000000000000000000000000000000000000000000000000000000000000000000000000000000000000000000000000000000000000000000000000000000000000000000000000000000000000000000000000000000000000000000000000000000000000000000000000000000000000000000000000000000000000000000000000000000000000000000000000000000000000000000000000000000000000000000000000000000000000000000000000000000000000000000000000000000000000000000000000000000000000000000000000000000000000000000000000000000000000000000000000000000000000000000000000000000000000000000000000000000000000000000000000000000000000000000000000000000000000000000000000000000000000000000000000000000000000000000000000000000000000000000000000000000000000000000000000000000000000000000000000000000000000000000000000000000000000000000000000000000000000000000000000000000000000000000000000000000000000000000000000000000000000000000000000000000000000000000000000000000000000000000000000000000000000000000000000000000000000000000000000000000000000000000000000000000000000000000000000000000000000000000000000000000000000000000000000000000000000000000000000000000000000000000000000000000000000000000000000000000000000000000000000000000000000000000000000000000000000000000000000000000000000000000000000000000000000000000000000000000000000000000000000000000000000000000000000000000000000000000000000000000000000000000000000000000000000000000000000000000000000000000000000000000000000000000000000000000000000000000000000000000000000000000000000000000000000000000000000000000000000000000000000000000000000000000000000000000000000000000000000000000000000000000000000000000000000000000000000000000000000000000000000000000000000000000000000000000000000000000000000000000000000000000000000000000000000000000000000000000000000000000000000000000000000000000000000000000000000000000000000000000000000000000000000000000000000000000000000000000000000000000000000000000000000000000000000000000000000000000000000000000000000000000000000000000000000000000000000000000000000000000000000000000000000000000000000000000
#033950:00540054000000000000000000000000
#034980:0000000000001252
#034970:00000000000000000000000000540054
#035980:520000000000000000000000000000000000000000000000000000000000000000000000000000000000000000000000000000000000000000000000000000000000000000000000000000000000000000000000000000000000000000000000000000000000000000000000000000000000000000000000000000000000000000000000000000000000000000000000000000000000000000000000000000000000000000000000000000000000000000000000000000000000000000000000000000000000000000000000000000000000000000000000000000000000000000000000000000000000000000000000520000000000000000000000000000000000000000000000000000000000000000000000000000000000000000000000000000000000000000000000000000000000000000000000000000000000000000000000000000000000000000000000000000000000000000000000000000000000000000000000000000000000000000000000000000000000000000000000000000000000000000000000000000000000000000000000000000000000000000000000000000000000000000000000000000000000000000000000000000000000000000000000000000000000000000000000000000000000000000000000520000000000000000000000000000000000000000000000000000000000000000000000000000000000000000000000000000000000000000000000000000000000000000000000000000000000000000000000000000000000000000000000000000000000000000000000000000000000000000000000000000000000000000000000000000000000000000000000000000000000000000000000000000000000000000000000000000000000000000000000000000000000000000000000000000000000000000000000000000000000000000000000000000000000000000000000000000000000000000000000520000000000000000000000000000000000000000000000000000000000000000000000000000000000000000000000000000000000000000000000000000000000000000000000000000000000000000000000000000000000000000000000000000000000000000000000000000000000000000000000000000000000000000000000000000000000000000000000000000000000000000000000000000000000000000000000000000000000000000000000000000000000000000000000000000000000000000000000000000000000000000000000000000000000000000000000525252525252525252525252220000000000000000000000000000000000000000000000000000000000000000000000000000000000000000000000000000000000000000000000000000000000000000000000000000000000000000000000000000000000000000000000000000000000000000000000000000000000000000000000000000000000000000000000000000000000000000000000000000000000000000000000000000000000000000000000000000000000000000000000000000000000000000000000000000000000000000000000000000000000000000000000000000000000000000000000000000000000000000000000000000000000000000000000000000000000000000000000000000000000000000000000000000000000000000000000000000000000000000000000000000000000000000000000000000000000000000000000000000000000000000000000000000000000000000000000000000000000000000000000000000000000000000000000000000000000000000000000000000000000000000000000000000000000000000000000000000000000000000000000000000000000000000000000000000000000000000000000000000000000000000000000000000000000000000000000000000000000000000000000000000000000000000000000000000000000000000000000000000000000000000000000000000000000000000000000000000000000000000000000000000000000000000000000000000000000000000000000000000000000000000000000000000000000000000000000000000000000000000000000000000000000000000000000000000000000000000000000000000000000000000000000000000000000000000000000000000000000000000000000000000000000000000000000000000000000000000000000000000000000000000000000000000000000000000000000000000000000000000000000000000000000000000000000000000000000000000000000000000000000000000000000000000000000000000000000000000000000000000000000000000000000000000000000000000000000000000000000000000000000000000000000000000000000000000000000000000000000000000000000000000000000000000000000000000000000000000000000000000000000000000000000000000000000000000000000000000000000000000000000000000000000000000000000000000000000000000000000000000000000000000000000000000000000000000000000000000000000000000000000
#035970:00540054005400540000000000000000
#036960:0000000000001252
#036950:00000000000000000000000000540054
#037960:520000000000000000000000000000000000000000000000000000000000000000000000000000000000000000000000000000000000000000000000000000000000000000000000000000000000000000000000000000000000000000000000000000000000000000000000000000000000000000000000000000000000000000000000000000000000000000000000000000000000000000000000000000000000000000000000000000000000000000000000000000000000000000000000000000000000000000000000000000000000000000000000000000000000000000000000000000000000000000000000520000000000000000000000000000000000000000000000000000000000000000000000000000000000000000000000000000000000000000000000000000000000000000000000000000000000000000000000000000000000000000000000000000000000000000000000000000000000000000000000000000000000000000000000000000000000000000000000000000000000000000000000000000000000000000000000000000000000000000000000000000000000000000000000000000000000000000000000000000000000000000000000000000000000000000000000005252525252525252525252220000000000000000000000000000000000000000000000000000000000000000000000000000000000000000000000000000000000000000000000000000000000000000000000000000000000000000000000000000000000000000000000000000000000000000000000000000000000000000000000000000000000000000000000000000000000000000000000000000000000000000000000000000000000000000000000000000000000000000000000000000000000000000000000000000000000000000000000000000000000000000000000000000000000000000000000000000000000000000000000000000000000000000000000000000000000000000000000000000000000000000000000000000000000000000000000000000000000000000000000000000000000000000000000000000000000000000000000000000000000000000000000000000000000000000000000000000000000000000000000000000000000000000000000000000000000000000000000000000000000000000000000000000000000000000000000000000000000000000000000000000000000000000000000000000000000000000000000000000000000000000000000000000000000000000000000000000000000000000000000000000000000000000000000000000000000000000000000000000000000000000000000000000000000000000000000000000000000000000000000000000000000000000000000000000000000000000000000000000000000000000000000000000000000000000000000000000000000000000000000000000000000000000000000000000000000000000000000000000000000000000000000000000000000000000000000000000000000000000000000000000000000000000000000000000000000000000000000000000000000000000000000000000000000000000000000000000000000000000000000000000000000000000000000000000000000000000000000000000000000000000000000000000000000000000000000000000000000000000000000000000000000000000000000000000000000000000000000000000000000000000000000000000000000000000000000000000000000000000000000000000000000000000000000000000000000000000000000000000000000000000000000000000000000000000000000000000000000000000000000000000000000000000000000000000000000000000000000000000000000000000000000000000000000000000000000000000000000000000000000000000000000000000000000000000000000000000000000000000000000000000000000000000000000000000000000000000000000000000000000000000000000000000000000000000000000000000000000000000000000000000000000000000000000000000000000000000000000000000000000000000000000000000000000000000000000000000000000000000000000000000000000000000000000000000000000000000000000000000000000000000000000000000000000000000000000000000000000000000000000000000000000000000000000000000000000000000000000000000000000000000000000000000000000000000000000000000000000000000000000000000000000000000000000000000000000000000000000000000000000000000000000000000000000000000000000000000000000000000000000000000000000000000000000000000000000000000000000000000000000000000000000000000000000000000000000000000000000000000000000000000000000000000000000000000000000000000000000000000000000000000000000000000000000000000000000000000000000000000000000000000000000000000000000000000000000000000000000000000000000
#037950:00540054000000000000000000000000
#089950:0000000000130000
#089920:00000000000000000000000000530023
