This file was generated by Ched 2.7.0.0.
#TITLE ""
#ARTIST ""
#DESIGNER ""
#DIFFICULTY 0
#PLAYLEVEL
#SONGID ""
#WAVE ""
#WAVEOFFSET 0
#JACKET ""
#REQUEST "ticks_per_beat 480"
#00002: 4
#BPM01: 202
#00008: 01
#TIL00: ""
#VOLUME: ""
#HISPEED 00
#MEASUREHS 00
#0691f:11
#06912:1300000000130000
#0691b:1300001300000000
#06915:0013000013000000
#06918:00130000
#08412:1313
#0841b:1300001300000000
#08415:00001300130000000000001300000000
#08418:00000013000000000000130013000000
#00115:0000000000130000
#00112:1413
#00118:00000013
#00116:0014000000000000
#0011a:24140000
#0011b:0000000000000013
#00318:0000130000130013
#00315:0013001300001300
#0031b:2313
#00312:0023
#00414:00120000
#0041a:00120000
#00418:00000016
#00413:0014
#00419:0014
#00412:23000016
#0041b:23
#0071a:1400000000140000
#00718:0014000000000000
#00716:00140014
#00714:0000001400000000
#00712:2300000014000014
#06216:00001313
#0621b:1300131300000000
#06214:0000000000000013
#06117:00130000
#06112:00001313
#06119:0000001300000000
#06114:0000000000000013
#0611b:23
#04816:0013
#04818:0000000000130000
#0481b:0013
#04815:00000013
#04812:1300000000000013
#04917:13
#0491b:0013
#04914:0013000000000000
#04919:00130000
#04916:0000001300000000
#04912:0000000000130000
#04915:00000013
#04918:0000000000000013
#00917:0013
#00914:0000000000130000
#00919:00000013
#00916:0000000000000013
#00912:0000001300000000
#0091b:23
#02418:0000001313000013
#0241b:0013000000000000
#02415:0013000000001300
#02412:0013
#02512:14000014
#0251a:00141400
#02516:0014000000140000
#02618:0000000000130013
#02615:00000013
#0261a:1400001400000000
#02616:14
#02612:00000014000000000000000000000000
#02712:13
#02715:0013001300000013
#02718:00000000130000001300000000000013
#0271b:0000000000130000
#02818:0000130000000013
#02815:0000001300001300
#0281b:0013
#02812:0000000000130000
#02912:13130000
#0291b:1313
#02917:00130000
#02919:00000013
#02914:0000000000000013
#02916:0000000000130000
#02910:41
#03212:0013000023000000
#03218:00130000
#03215:0000001300000000
#0321b:0023
#03615:0013000000000000
#03614:0000000000000014
#03618:1300000000000014
#03612:00131400
#0361b:00130000
#03619:00000000000000000000001400000000
#0361a:0024
#03613:00000000000000000000002400000000
#03315:0000000000130000
#03318:0013000013000000
#0331b:1300001300001300
#03312:1300130000000013
#03912:0000001400000000
#03914:0013
#03916:0000140000140000
#03913:00000013
#03915:1300000000000016
#0391a:0014000000001300
#03919:0013
#03717:00000013
#03715:0000001300000000
#03718:00130000
#03712:00001313
#0371b:0013
#03719:0000000000130000
#03714:0000000000000013
#0381b:1300000000130000
#03816:1313
#03815:0000000000000013
#03819:0013000000000000
#03814:0000001300000000
#03817:00130000
#03812:0000000000130000
#03818:00000000000000000000000000000013
#03415:0000130013000013
#03418:1300001300001300
#03412:0000000000130000
#10012:1300001300001400
#1001b:1300001300000013
#10018:00001300130000001300001300000000
#10015:00000013000000000000130000000000
#09912:13130013
#0991b:13001313
#09918:0000000000130000
#09915:0000000000000013
#09917:0013000000000000
#09916:0000001300000000
#03515:0000000013000013
#03518:1300001300000000
#03512:0000130000130000
#0351b:0013000000001300
#04512:0000001313000000
#04515:0000130000000013
#0451b:13
#04518:0013000000130000
#04517:0013
#04514:00000013
#04519:00000013
#04718:00000000000000130000000000000000
#04716:00130000
#0471b:0000000000130000
#04715:0013
#04712:24000013
#04717:1300000000000013
#0441b:0013
#04417:1300000000130000
#04416:0000130000000013
#04412:13000013
#04312:1400240000001313
#04316:0014140013000000
#0431b:0000000000131300
#04310:41
#0591b:13
#05915:00130000
#0591a:0014
#05918:0013001300001400
#05912:1314
#05914:0000000000140014
#06012:14
#0601a:14
#06018:0000620000620000
#06016:00006262
#07415:00130000000000000000000013001300
#07418:13001300000000000000000000130013
#07414:0000131300000000
#07419:00000000001300000000000000000000
#0741b:0000000013130000
#07412:00000000000000000013000000000000
#07912:14001414
#0791a:14001414
#07918:0014000000000000
#07916:0000140000140014
#07914:0000001400000000
#0821a:00241400
#08212:00241400
#08218:1300000000130013
#08215:00000013
#07715:0000000000000012
#07717:00001212
#07719:0000000000120000
#08118:1613
#08115:00001600000000130000000000001300
#08112:1600160000130000
#0811b:00000013
#0021a:14
#00216:0014000000000000
#00212:24140000
#0021b:0013
#00215:00000013
#00517:00130000
#00519:0000000013000013
#0051b:23000013
#00512:24242424
#00617:13
#00618:0000000000130013
#00615:00001313
#00612:24240000
#0101b:1313
#01018:00000013
#01012:0000001300130000
#01015:0000000000000013
#01612:13
#0161b:13
#01616:00620062
#01618:0062
#0181b:1300000000000013
#01818:0013000013001300
#01815:0000130000130000
#01812:0000001300000013
#01718:0000000000131300
#01715:00000000000000000000001300000000
#01712:1300000000000013
#0171b:13
#01714:00000033000000000000000000000000
#01719:00000033000000000000000000000000
#01710:41
#02212:13000013
#02215:0013000013000000
#0221b:0000000000130000
#02218:0000130000000013
#02115:1300000000131300
#02118:13000000000000000000001300000000
#0211b:0000000000000013
#02015:0000000000130000
#02018:0000001300000000
#0201b:00000013
#01918:0000000000131300
#01915:00000000000000000000001300000000
#01912:0000000000000013
#02315:1300001313000000
#02318:00000000000000130000000000001300
#0231b:0000130000130000
#02312:00000013
#03012:1313
#0301b:13130000
#03016:00130000
#03014:00000013
#03019:0000000000000013
#03017:0000000000130000
#0311b:2300001300000000
#03118:0013
#03115:0000000000130000
#03112:23000013
#03117:0000000000000013
#0461b:1313
#04616:13
#04617:00130000
#04612:0013
#05012:13
#0501b:13
#05019:0013
#0501a:00000013
#05014:0013
#05013:00000013
#05617:00231300
#05615:0000000000130000
#05612:00231300
#05618:00000013
#0561b:1300000000000013
#05716:13
#05712:0013
#05719:0013000000000000
#05714:00130000
#05717:0000001300000000
#0571b:0000000000130000
#05718:00000013
#05715:0000000000000013
#0541a:1414
#05412:1414
#05418:0000001400000000
#05414:00140000
#05517:00130000
#05516:1300000000000013
#05515:00000000000000130000000000000000
#05512:0000000000130000
#05518:0013
#0551b:00000013
#0551a:24
#05510:41
#0581b:13
#05812:13
#05814:0013
#05813:00000013
#05819:0013
#0581a:00000013
#06312:0000000013001313
#0631b:13130000
#06319:0000001300000000
#06412:0013
#06417:13
#0641b:00130000
#06419:0000001300000000
#06416:000000000000000000000000246500650065006500650065
#06415:000000000000006565656565
#06612:0000000013001313
#0661b:1313
#06617:00130000
#06619:0000001300000000
#06616:13
#0651b:00130000
#06512:13001313
#06519:0000001300000000
#06514:0000000000000013
#06517:0013
#06516:64
#06712:13001313
#0671b:1313
#06717:0000130000130000
#06719:0000001300000000
#06714:0000000000000013
#06716:0013000000000000
#0681b:1300130000130000
#06819:0000001300000000
#06812:0013000013002300
#06816:13
#06817:0013
#07312:13000000000000330000000000000000
#07317:00130000000000000000000000000000
#07314:0000000013000000000000330000000000000000000000000000000000000000
#07319:0000000000001300000000000000000000000033000000000000000000000000
#0731b:00000000000000000000003300000000
#0801a:1424
#08012:1424
#08017:0000000000140000
#08015:000000000000000000000000000000000000000000000000000000000000000000000000000000000000000000000000000000000000000000000000000000000000000000000000000000000000000000000000000000000000000000000000000000000000000000000000000000000000000000000000000000000000000000000000000000000000000000000000000000000000000000000000000000000000000000000000000000000000000000000000000000000000000000000000000000000000000000000000000000000000000000000000000000000000000000000000000000000000000000000000000000000000000000000000000000000000000000000000000000000000000000000000000000000000000000000000000000000000000000000000000000000000000000000000000000000000000000000000000000000000000000000000000000000000000000000000000000000000000000000000000000000000000000000000000000000000000000000000000000000000000000000000000000000000000000000000000000000000000000000000000000000000000000000000000000000000000000000000000000000000000000000000000000000000000000000000000000000000000000000000230000000000000000000000000000000000000000000000000000000000000000000000000000000000000000000000000000000000000000000000000000000000000000000000000000000000000000000000000000000000000000000000000000000000000000000000000000000000000000000000000000000000000000000000000000000000000000000000000000000000000000000000000000000000000000000000000000000000000000000000000000000000000000000000000000000000000000000000000000000000000000000000000000000000000000000000000000000000000000000000000000000000000000000000000000000000000000000000000000000000000000000000000000000000000000000000000000000000000000000000000000000000000000000000000000000000000000000000000000000000000000000000000000000000000000000000000000000000000000000000000000000000000000000000000000000000000000000000000000000000000000000000000000000000000000000000000000000000000000000000000000000000000000000000000000000000000000000000000000000000000000000000000000000000000000000000000000000000000000000000000000000000000000000000000000000000000000000000000000000000000000000000000000000000000000000000000000000000000000000000000000000000000000000000000000000000000000000000000000000000000000000000000000000000000000000000000000000000000000000000000000000000000000000000000000000000000000000000000000000000000000000000000000000000000000000000000000000000000000000000000000000000000000000000000000000000000000000000000000000000000000000000000000000000000000000000000000000000000000000014000000000000000000000000000000000000000000000000000000000000000000000000000000000000000000000000000000000000000000000000000000000000000000000000000000000000000000000000000000000000000000000000000000000000000000000000000000000000000000000000000000000000000000000000000000000000000000000000000000000000000000000000000000000000000000000000000000000000000000000000000000000000000000000000000000000000000000000000000000000000000000000000000000000000000000000000000000000000000000000000000000000000000000000000000000000000000000000000000000000000000000000000000000000000000000000000000000000000000000000000000000000000000000000000000000000000000000000000000000000000000000000000000000000000000000000000000000000000000000000000000000000000000000000000000000000000000000000000000000000000000000000000000000000000000000000000000000000000000000000000000000000000000000000000000000000000000000000000000000000000000000000000000000000000000000000000000000000000000000000000000000000000000000000000000000000000000000000000000000000000000000000000000000000000000000000000000000000000000000000000000000000000000000000000000000000000000000000000000000000000000000000000000000000000000000000000000000000000000000000000000000000000000000000000000000000000000000000000000000000000000000000000000000000000000000000000000000000000000000000000000000000000000000000000000000000000000000000000000000000000000000000000000000000000000000000000000000000000000000000000
#08018:0000002300000000
#08010:41
#0831b:1300131313000000
#08312:1313130000001300
#08316:0013
#08314:0000000000130000
#08317:00000013
#08319:0000000000000013
#09012:00241400
#0901a:00241400
#09015:1300000000130013
#09018:00000013
#09010:41
#08716:0000240000140014
#0871a:00002414
#08712:24001424
#08718:1400001400000000
#08714:0014000000000000
#08812:1424
#0881a:1424
#08815:0000002300140000
#08817:000000000000000000000000000000000000000000000000000000000000000000000000000000000000000000000000000000000000000000000000000000000000000000000000000000000000000000000000000000000000000000000000000000000000000000000000000000000000000000000000000000000000000000000000000000000000000000000000000000000000000000000000000000000000000000000000000000000000000000000000000000000000000000000000000000000000000000000000000000000000000000000000000000000000000000000000000000000000000000000000000000000000000000000000000000000000000000000000000000000000000000000000000000000000000000000000000000000000000000000000000000000000000000000000000000000000000000000000000000000000000000000000000000000000000000000000000000000000000000000000000000000000000000000000000000000000000000000000000000000000000000000000000000000000000000000000000000000000000000000000000000000000000000000000000000000000000000000000000000000000000000000000000000000000000000000000000000000000000000000000000000000000000000000000000000000000000000000000000000000000000000000000000000000000000000000000000000000000000000000000000000000000000000000000000000000000000000000000000000000000000000000000000000000000000000000000000000000000000000000000000000000000000000000000000000000000000000000000000000000000000000000000000000000000000000000000000000000000000000000000000000000000000000000000000000000000000000000000000000000000000000000000000000000000000000000000000000000000000000000000000000000000000000000000000000000000000000000000000000000000000000000000000000000000000000000000000000000000000000000000000000000000000000000000000000000000000000000000000000000000000000000000000000000000000000000000000000000000000000000000000000000000000000000000000000000000000000000000000000000000000000000000000000000000000000000000000000000000000000000000000000000000000000000000000000000000000000000000000000000000000000000000000000000000000000000000000000000000000000000000000000000000000000000000000000000000000000000000000000000000000000000000000000000000000000000000000000000000000000000000000000000000000000000000000000000000000000000000000000000000000000000000000000000000000000000000000000000000000000000000000000000000000000000000000000000000000000000000000000000000000000000000000000000000000000000000000000000000000000000000000000000000000000000000000000000000000000000000000000000000000000000000000000000000000000000000000000000000000000000014000000000000000000000000000000000000000000000000000000000000000000000000000000000000000000000000000000000000000000000000000000000000000000000000000000000000000000000000000000000000000000000000000000000000000000000000000000000000000000000000000000000000000000000000000000000000000000000000000000000000000000000000000000000000000000000000000000000000000000000000000000000000000000000000000000000000000000000000000000000000000000000000000000000000000000000000000000000000000000000000000000000000000000000000000000000000000000000000000000000000000000000000000000000000000000000000000000000000000000000000000000000000000000000000000000000000000000000000000000000000000000000000000000000000000000000000000000000000000000000000000000000000000000000000000000000000000000000000000000000000000000000000000000000000000000000000000000000000000000000000000000000000000000000000000000000000000000000000000000000000000000000000000000000000000000000000000000000000000000000000000000000000000000000000000000000000000000000000000000000000000000000000000000000000000000000000000000000000000000000000000000000000000000000000000000000000000000000000000000000000000000000000000000000000000000000000000000000000000000000000000000000000000000000000000000000000000000000000000000000000000000000000000000000000000000000000000000000000000000000000000000000000000000000000000000000000000000000000000000000000000000000000000000000000000000000000000000000000000000000000
#08818:00230000
#08918:16000000160000130000000000001300
#08915:0016000013000000
#08912:16000013
#0891b:0000000000130000
#09112:1300131313000000
#0911b:1313130000001300
#09117:0013
#09119:0000000000130000
#09116:00000013
#09114:0000000000000013
#09212:1300001300000000
#0921b:13
#09218:00001300130000000000000000130013
#09215:00000013000000000000000013001300
#0921a:0014
#09312:1400001400000000
#0931a:0014000000000000
#09316:00140000
#09318:0000000013131313
#09315:00000000000000000013001300130013
#09512:0000001300001300
#09518:0000000013000013
#09515:0000230000130000
#0951b:23000023
#09618:0000001300130000
#09612:1300000013000013
#0961b:00230013
#09615:00000023
#01315:00000013000013000000000013000000
#0131b:0013
#01318:0000000000130013
#01312:2313
#01412:0000000013130000
#0141b:1313
#01418:00000013000013000000000013001300
#0151b:1313
#01518:00000013000013000000000013000000
#01512:0013
#01515:0000000000130013
#0971b:0000001300001300
#09715:0000000013000013
#09718:0000230000130000
#09712:13000023
#09815:0000001300130000
#0981b:1300000013000013
#09812:00230013
#09818:00000023
#1011b:0000000013000013
#10112:0000000013000013
#10115:1300130000131300
#10118:00001300000013000000001300000000
#04218:000000000000000000000000000000000000000000000000000000000000000000000000000000000000000000000000000000000000000000000000000000000000000000000000000000000000000000000000000000000000000000000000000000000000000000000000000000000000000000000000000000000000000000000000000000000000000000000000000000000000000000000000000000000000000000000000000000000000000000000000000000000000000000000000000000000000000000000000000000000000000000000000000000000000000000000000000000000000000000000000000000000000000000000000000000000000000000000000000000000000000000000000000000000000000000000000000000000000000000000000000000000000000000000000000000000000000000000000000000000000000000000000000000000000000000000000000000000000000000000000000000000000000000000000000000000000000000000000000000000000000000000000000000000000000000000000000000000000000000000000000000000000000000000000000000000000000000000000000000000000000000000000000000000000000000000000000000000000000000000000250000000000000000000000000000000000000000000000000000000000000000000000000000000000000000000000000000000000000000000000001300000000000000000000000000000000000000000000000000000000000000000000000000000000000000000000000000000000000000000000000000000000000000000000000000000000000000000000000000000000000000000000000000000000000000000000000000000000000000000000000000000000000000000000000000000000000000000000000000000000000000000000000000000000000000000000000000000000000000000000000000000000000000000000000000000000000000000000000000000000000000000000000000000000000000000000000000000000000000000000000000000000000000000000000000000000000000000000000000000000000000000000000000000000000000000000000000000000000000000000150000000000000000000000000000000000000000000000000000000000000000000000000000000000000000000000000000000000000000000000000000000000000000000000000000000000000000000000000000000000000000000000000000000000000000000000000000000000000000000000000000000000000000000000000000000000000000000000000000000000000000000000000000000000000000000000000000000000000000000000000000000000000000000000000000000000000000000000000000000000000000000000000000000000000000000000000000000000000000000000000000000000000000000000000000000000000000000000000000000000000000000000000000000000000000000000000000000000000000000000000000000000000000000000000000000000000000000000000000000000000000000000000000000000000000000000000000000000000000000000000000000000000000000000000000000000000000000000000000000000000000000000000000000000000000000000000000000000000000000000000000000000000000000000000000000000000000000000000000000000000000000000000000000000000000000000000000000000000000000000000000000000000000000000000000000000000000000000000000000000000000000000000000000000000000000000000000000000000000000000000000000000000000000000000000000000000000000000000000000000000000000000000000000000000000000000000000000000000000000000000000000000000000000000000000000000000000000000000000000000000000000000000000000000000000000000000000000000000000000000000000000000000000000000000000000000000000000000000000000000000000000000000000000000000000000000000000000000000000000000000000000000000000000000000000000000000000000000000000000000000000000000000000000000000000000000000000000000000000000000000000000000000000000000000000000000000000000000000000000000000000000000000000000000000000000000000000000000000000000000000000000000000000000000000000000000000000000000000000000000000000000000000000000000000000000000000000000000000000000000000000000000000000000000000000000000000000000000000000000000000000000000000000000000000000000000000000000000000000000000000000000000000000000000000000000000000000000000000000000000000000000000000000000000000000000000000000000000000000000000000000000000000000000000000000000000000000000000000000000000000000000000000000000000000000000000000000000000000000000000
#04219:00000000000000000000000000000000000000000000001300000000000000000000000000000000000000000000000023000000000000000000000000000000
#04212:00000000000000000000000000150000000000000000000000000000000000000000000000000000000000000000000000000000000000000000000000000000
#04215:00000000000000000013001300000000
#04213:0000000023130000
#04214:23
#0401b:13
#04012:13
#04018:00000000003333333333333333333333
#04015:00000000003333333333333333333333
#01116:0013
#01119:0000000000130000
#01114:00000013
#01117:0000000000000013
#0111b:0000001300000000
#01112:13
#01212:1313
#01215:00000013
#0121b:0000001300130000
#01218:0000000000000013
#0711b:00000000000000130000000000000000
#07116:0000001300000013
#07112:13
#07212:00000000000000130000000000000000
#07217:0000001300000013
#0721b:13
#07012:0000000000000013
#07518:00000000000013000013000000000000
#07515:00000000000000000013000000000000
#0511a:1414
#05112:2414
#05117:0014001400001400
#05115:0000140000140014
#0521a:1414
#05212:1414
#05217:0014001400000000
#05214:00140000
#05215:0000000000140014
#05218:00000014
#0531a:1414
#05312:1414
#05314:0014000000000014
#05316:00140014
#05318:0000001400140000
#08514:00140014
#08518:0014
#08513:0000001400000014
#08519:0000000000140000
#0851b:23
#08512:2324
#0851a:00240024
#08618:14
#08613:00140014
#0861a:0014
#08617:0014000000140000
#08615:0000001400000014
#08612:24
#08619:00240024
#08614:0024
#0781f:00000021
#07812:0000002c
#10212:24
#1021a:24
#00817:6262620000000000
#00819:0062
#0081a:00000000000000000062000000000000
#0081b:0000000000620000
#0081c:00000000000000000000006200000000
#09417:6262620000000000
#0941c:00000000000000000000006200000000
#0941b:0000000000620000
#0941a:00000000000000000062000000000000
#09419:0062
#00152:54340000
#0015a:44640000
#00156:0024000000000000
#0025a:64440000
#00252:34540000
#00256:0024000000000000
#0025b:0063
#00255:00000063
#0065b:00130000
#00657:53
#01955:0013000000000000
#01958:0013000000000000
#0215b:0000001300000000
#02152:0000001300000000
#02155:63
#02158:53
#04658:00000013
#04655:00000013
#04656:63
#04657:00530000
#0465b:0063
#04652:0053
#0485b:00130000
#04856:00130000
#04852:53
#05058:00130000
#05055:00130000
#05052:53
#0505b:63
#05458:00000013
#05455:00000013
#0545a:0064
#05452:0054
#05855:00130000
#05858:00130000
#0585b:63
#05852:53
#06152:00130000
#0615b:00000013
#06256:00130000
#0625b:00000013
#06352:00130000
#06357:00000013
#06452:00130000
#06556:14130000
#0655b:00000013
#06552:53
#06557:0053
#06652:00130000
#06657:00000013
#0665b:0063
#06656:63
#06856:63130000
#06857:00005313
#06852:0023000000001300
#0685b:0000000000230000
#06752:53130000
#0675b:00006313
#06756:0023000000000000
#06757:0000000000230000
#08158:66460000
#08155:0026000000000063
#08152:36
#0995b:63430000
#09952:33530000
#09957:0023000000000000
#09956:0000002300000000
#04359:13
#04352:54340000
#04356:0024540000000000
#07752:14
#0775a:14
#08952:56360000
#08958:4600000000000053
#08955:0026000000000000
#08859:00000045
#08852:14005435
#0885a:1464
#08855:0000000000240000
#08857:000000000000000000000000000000000000000000000000000000000000000000000000000000000000000000000000000000000000000000000000000000000000000000000000000000000000000000000000000000000000000000000000000000000000000000000000000000000000000000000000000000000000000000000000000000000000000000000000000000000000000000000000000000000000000000000000000000000000000000000000000000000000000000000000000000000000000000000000000000000000000000000000000000000000000000000000000000000000000000000000000000000000000000000000000000000000000000000000000000000000000000000000000000000000000000000000000000000000000000000000000000000000000000000000000000000000000000000000000000000000000000000000000000000000000000000000000000000000000000000000000000000000000000000000000000000000000000000000000000000000000000000000000000000000000000000000000000000000000000000000000000000000000000000000000000000000000000000000000000000000000000000000000000000000000000000000000000000000000000000000000000000000000000000000000000000000000000000000000000000000000000000000000000000000000000000000000000000000000000000000000000000000000000000000000000000000000000000000000000000000000000000000000000000000000000000000000000000000000000000000000000000000000000000000000000000000000000000000000000000000000000000000000000000000000000000000000000000000000000000000000000000000000000000000000000000000000000000000000000000000000000000000000000000000000000000000000000000000000000000000000000000000000000000000000000000000000000000000000000000000000000000000000000000000000000000000000000000000000000000000000000000000000000000000000000000000000000000000000000000000000000000000000000000000000000000000000000000000000000000000000000000000000000000000000000000000000000000000000000000000000000000000000000000000000000000000000000000000000000000000000000000000000000000000000000000000000000000000000000000000000000000000000000000000000000000000000000000000000000000000000000000000000000000000000000000000000000000000000000000000000000000000000000000000000000000000000000000000000000000000000000000000000000000000000000000000000000000000000000000000000000000000000000000000000000000000000000000000000000000000000000000000000000000000000000000000000000000000000000000000000000000000000000000000000000000000000000000000000000000000000000000000000000000000000000000000000000000000000000000000000000000000000000000000000000000000000000000000000000000024000000000000000000000000000000000000000000000000000000000000000000000000000000000000000000000000000000000000000000000000000000000000000000000000000000000000000000000000000000000000000000000000000000000000000000000000000000000000000000000000000000000000000000000000000000000000000000000000000000000000000000000000000000000000000000000000000000000000000000000000000000000000000000000000000000000000000000000000000000000000000000000000000000000000000000000000000000000000000000000000000000000000000000000000000000000000000000000000000000000000000000000000000000000000000000000000000000000000000000000000000000000000000000000000000000000000000000000000000000000000000000000000000000000000000000000000000000000000000000000000000000000000000000000000000000000000000000000000000000000000000000000000000000000000000000000000000000000000000000000000000000000000000000000000000000000000000000000000000000000000000000000000000000000000000000000000000000000000000000000000000000000000000000000000000000000000000000000000000000000000000000000000000000000000000000000000000000000000000000000000000000000000000000000000000000000000000000000000000000000000000000000000000000000000000000000000000000000000000000000000000000000000000000000000000000000000000000000000000000000000000000000000000000000000000000000000000000000000000000000000000000000000000000000000000000000000000000000000000000000000000000000000000000000000000000000000000000000000000000000000
#08052:14005435
#08059:00000045
#0805a:1464
#08057:0000000000240000
#08055:000000000000000000000000000000000000000000000000000000000000000000000000000000000000000000000000000000000000000000000000000000000000000000000000000000000000000000000000000000000000000000000000000000000000000000000000000000000000000000000000000000000000000000000000000000000000000000000000000000000000000000000000000000000000000000000000000000000000000000000000000000000000000000000000000000000000000000000000000000000000000000000000000000000000000000000000000000000000000000000000000000000000000000000000000000000000000000000000000000000000000000000000000000000000000000000000000000000000000000000000000000000000000000000000000000000000000000000000000000000000000000000000000000000000000000000000000000000000000000000000000000000000000000000000000000000000000000000000000000000000000000000000000000000000000000000000000000000000000000000000000000000000000000000000000000000000000000000000000000000000000000000000000000000000000000000000000000000000000000000000000000000000000000000000000000000000000000000000000000000000000000000000000000000000000000000000000000000000000000000000000000000000000000000000000000000000000000000000000000000000000000000000000000000000000000000000000000000000000000000000000000000000000000000000000000000000000000000000000000000000000000000000000000000000000000000000000000000000000000000000000000000000000000000000000000000000000000000000000000000000000000000000000000000000000000000000000000000000000000000000000000000000000000000000000000000000000000000000000000000000000000000000000000000000000000000000000000000000000000000000000000000000000000000000000000000000000000000000000000000000000000000000000000000000000000000000000000000000000000000000000000000000000000000000000000000000000000000000000000000000000000000000000000000000000000000000000000000000000000000000000000000000000000000000000000000000000000000000000000000000000000000000000000000000000000000000000000000000000000000000000000000000000000000000000000000000000000000000000000000000000000000000000000000000000000000000000000000000000000000000000000000000000000000000000000000000000000000000000000000000000000000000000000000000000000000000000000000000000000000000000000000000000000000000000000000000000000000000000000000000000000000000000000000000000000000000000000000000000000000000000000000000000000000000000000000000000000000000000000000000000000000000000000000000000000000000000000000000000000000024000000000000000000000000000000000000000000000000000000000000000000000000000000000000000000000000000000000000000000000000000000000000000000000000000000000000000000000000000000000000000000000000000000000000000000000000000000000000000000000000000000000000000000000000000000000000000000000000000000000000000000000000000000000000000000000000000000000000000000000000000000000000000000000000000000000000000000000000000000000000000000000000000000000000000000000000000000000000000000000000000000000000000000000000000000000000000000000000000000000000000000000000000000000000000000000000000000000000000000000000000000000000000000000000000000000000000000000000000000000000000000000000000000000000000000000000000000000000000000000000000000000000000000000000000000000000000000000000000000000000000000000000000000000000000000000000000000000000000000000000000000000000000000000000000000000000000000000000000000000000000000000000000000000000000000000000000000000000000000000000000000000000000000000000000000000000000000000000000000000000000000000000000000000000000000000000000000000000000000000000000000000000000000000000000000000000000000000000000000000000000000000000000000000000000000000000000000000000000000000000000000000000000000000000000000000000000000000000000000000000000000000000000000000000000000000000000000000000000000000000000000000000000000000000000000000000000000000000000000000000000000000000000000000000000000000000000000000000000000000000
#01758:0000001300000000
#01755:0000001300000000
#0175b:63
#01752:53
#04158:16
#04152:16
#0035b:13
#00352:0013
#0315b:13
#03152:13
#03157:0000000000000053
#10252:14
#1025a:14
#04752:14
#04757:5300000000000053
#07852:0000001c
#00452:13000016
#0045b:13
#00458:00000016
#0055b:13
#00752:13
#0095b:13
#0325b:0013
#03252:0013
#0555a:14
#05556:6300000000000063
#05152:34
#0855b:13
#08552:13
#0955b:13
#01352:13
#08252:00140000
#0825a:00140000
#08258:53
#0905a:00140000
#09052:00140000
#09055:63
#04253:0000000053530000
#04258:000000000000000000000000000000000000000000000000000000000000000000000000000000000000000000000000000000000000000000000000000000000000000000000000000000000000000000000000000000000000000000000000000000000000000000000000000000000000000000000000000000000000000000000000000000000000000000000000000000000000000000000000000000000000000000000000000000000000000000000000000000000000000000000000000000000000000000000000000000000000000000000000000000000000000000000000000000000000000000000000000000000000000000000000000000000000000000000000000000000000000000000000000000000000000000000000000000000000000000000000000000000000000000000000000000000000000000000000000000000000000000000000000000000000000000000000000000000000000000000000000000000000000000000000000000000000000000000000000000000000000000000000000000000000000000000000000000000000000000000000000000000000000000000000000000000000000000000000000000000000000000000000000000000000000000000000000000000000000000000000000000000000000000000000000000000000000000000000000000000000000000000000000000000000000000000000000000000000000000000000002300000000000000000000000000000000000000000000000000000000000000000000000000000000000000000000000000000000000000000000000000000000000000000000000000000000000000000000000000000000000000000000000000000000000000000000000000000000000000000000000000000000000000000000000000000000000000000000000000000000000000000000000000000000000000000000000000000000000000000000000000000000000000000000000000000000000000000000000000000000000000000000000000000000000000000000000000000000000000000000000000000000000000000000000000000000000000000000000000000000000000000000000000000000000000000000000000000000000000000000250000000000000000000000000000000000000000000000000000000000000000000000000000000000000000000000000000000000000000000000000000000000000000000000000000000000000000000000000000000000000000000000000000000000000000000000000000000000000000000000000000000000000000000000000000000000000000000000000000000000000000000000000000000000000000000000000000000000000000000000000000000000000000000000000000000000000000000000000000000000000000000000000000000000000000000000000000000000000000000000000000000000000000000000000000000000000000000000000000000000000000000000000000000000000000000000000000000000000000000000000000000000000000000000000000000000000000000000000000000000000000000000000000000000000000000000000000000000000000000000000000000000000000000000000000000000000000000000000000000000000000000000000000000000000000000000000000000000000000000000000000000000000000000000000000000000000000000000000000000000000000000000000000000000000000000000000000000000000000000000000000000000000000000000000000000000000000000000000000000000000000000000000000000000000000000000000000000000000000000000000000000000000000000000000000000000000000000000000000000000000000000000000000000000000000000000000000000000000000000000000000000000000000000000000000000000000000000000000000000000000000000000000000000000000000000000000000000000000000000000000000000000000000000000000000000000000000000000000000000000000000000000000000000000000000000000000000000000000000000000000000000000000000000000000000000000000000000000000000000000000000000000000000000000000000000000000000000000000000000000000000000000000000000000000000000000000000000000000000000000000000000000000000000000000000000000000000000000000000000000000000000000000000000000000000000000000000000000000000000000000000000000000000000000000000000000000000000000000000000000000000000000000000000000000000000000000000000000000000000000000000000000000000000000000000000000000000000000000000000000000000000000000000000000000000000000000000000000000000000000000000000000000000000000000000000000000000000000000000000000000000000000000000000000000000000000000000000000000000000000000000000000000000000000000000000000000000000000000000000000
#04259:00000000000000000000000000000000000000000000005300000000000000000000000000000000000000000000000000000000000000000000000000000000
#04252:00000000000000000000000000550000000000000000000000000000000000000000000000000000000000000000000000000000000000000000000000000000
#04255:00000000000000000023002300000000
#05652:00130000
#05657:00130000
#0565b:63
#02952:13530000
#0295b:13
#0255a:00140000
#02552:00000014
#0265a:6400001400000000
#02652:00000054000000000000000000000000
#10052:00000014
#03654:0000000000000014
#03658:0000000000000014
#03652:00130000
#0365b:00130000
#0445b:0063
#04457:5300000000230000
#04456:0000630000000023
#04452:00000053
#06052:14
#0605a:14
#01652:13
#0165b:13
#02058:0000005300000000
#0205b:00000063
#03052:13
#0305b:13630000
#02355:63
#02258:00530000
#02455:0063000000000000
#02458:0053
#03352:00130000
#0335b:00000013
#03458:53000013
#03455:00130000
#03552:00130000
#0355b:00000013
#03856:63
#03857:00530000
#08458:00000053
#09352:14
#0925a:0014
#0405b:63
#04052:53
#01852:0000000000000053
#0185b:0000000000000063
#06955:0063
#06952:0000000000230000
#06958:00530000
#0695b:0000002300000000
#07558:00000000000000000053000000000000
#07555:00000000000000000063000000000000
#001320:14240000
#001360:0054000000000000
#0013a1:00140000
#001361:0024
#0023a1:14240000
#002361:0054000000000000
#002320:00140000
#002360:0024
#0023b1:0013
#002381:00000023
#002350:00000013
#003320:23
#006370:13
#0063b0:00230000
#009320:13
#009360:00000023000000000000000000000000
#0093b1:00000013000000000000000000000000
#009371:0000002300000000
#010361:13
#010321:00000023000000000000000000000000
#010370:00000013000000000000000000000000
#0103b0:0000002300000000
#0113b0:13
#011370:00000023000000000000000000000000
#011321:00000013000000000000000000000000
#011361:0000002300000000
#012371:13
#0123b1:00000023000000000000000000000000
#012360:00000013000000000000000000000000
#012320:0000002300000000
#0133b0:13
#013380:00000023000000000000000000000000
#013380:0000132300000000
#014350:13
#014320:00000023000000000000000000000000
#014320:0000132300000000
#015320:13
#015350:00000023000000000000000000000000
#015350:0000132300000000
#0173b0:13
#017390:00000033000000000000000000000000
#017380:0000002300000000
#017321:13
#017341:00000033000000000000000000000000
#017351:0000002300000000
#018321:0000000000000013
#019351:0023000000000000
#0183b0:0000000000000013
#019380:0023000000000000
#0203b0:13
#020380:00000023000000000000000000000000
#020321:00000013000000000000000000000000
#020351:0000002300000000
#020380:0000001300000000
#0203b0:0000000000230000
#0203b0:00000013
#021380:33
#0213b0:0000002300000000
#021351:13
#021321:0000002300000000
#022381:00130000
#0223b1:0023
#023351:13
#023321:00230000
#024351:0013000000000000
#024321:0000002300000000
#024381:0013
#0243b1:00000023
#0263a1:14
#026361:00000024000000000000000000000000
#026320:00000014000000000000000000000000
#026360:0000002400000000
#028350:13230000
#029320:00130000
#029360:0023
#0303b0:00130000
#030370:0023
#031370:0000000000000013
#0323b0:0023000000000000
#034380:13
#0343b0:00230000
#038360:13
#038320:00230000
#038371:00130000
#0383b1:0023
#0403b1:13
#040381:00000000333333333333333333333333
#041381:26
#040320:13
#040350:00000000333333333333333333333333
#041320:26
#042340:130000000000000000000000000000000000000000000000000000000000000000000000000000000000000000000000000000000000000000000000000000000000000000000000000000000000000000000000000000000000000000000000000000000000000000000000000000000000000000000000000000000000000000000000000000000000000000000000000000000000000000000000000000000000000000000000000000000000000000000000000000000000000000000000000000000000000000000000000000000000000000000000000000000000000000000000000000000000000000000000000000000000000000000000000000000000000000000000000000000000000000000000000000000000000000000000000000000000000000000000000000000000000000000000000000000000000000000000000000000000000000000000000000000000000000000000000000000000000000000000000000000000000000000000000000000000000000000000000000000053000000000000000000000000000000000000000000000000000000000000000000000000000000000000000000000000000000000000000000000000000000000000000000000000000000000000000000000000000000000000230000000000000000000000000000000000000000000000000000000000000000000000000000000000000000000000000000000000000000000000000000000000000000000000000000000000000000000000000000000000000000000000000000000000000000000000000000000000000000000000000000000000000000000000000000000000000000000000000000000000000000000000000000000000000000000000000000000000000000000000000000000000000000000000000000000000000000000000000000000000000000000000000000000000000000000000000000000000000000000000000000000000000000000000000000000000000000000000000000000000000000000000000000000000000000000000000000000000000000000000000000000000000000000000000000000000000000000000000000000000000000000000000000000000000000000000000000000000000000000000000000000000000000000000000000000000000000000000000000000000000000000000000000000000000000000000000000000000000000000000000000000000000000000000000000000000000000000000000000000000000000000000000000000000000000000000000000000000000000000000000000000000000000000000000000000000000000000000000000000000000000000000000000000000000000000000000000000000000000000000000000000000000000000000000000000000000000000000000000000000000000000000000000000000000000000000000000000000000000000000000000000000000000000000000000000000000000000000000000000000000000000000000000000000000000000000000000000000000000000000000000000000000000000000000000000000000000000000000000000000000000000000000000000000000000000000000000000000000000000000000000000000000000000000000000000000000000000000000000000000000000000000000000000000000000000000000000000000000000000000000000000000000000000000000000000000000000000000000000000000000000000000000000000000000000000000000000000000000000000000000000000000000000000000000000000000000000000000000000000000000000000000000000000000000000000000000000000000000000000000000000000000000000000000000000000000000000000000000000000000000000000000000000000000000000000000000000000000000000000000000000000000000000000000000000000000000000000000000000000000000000000000000000000000000000000000000000000000000000000000000000000000000000000000000000000000000000000000000000000000000000000000000000000000000000000000000000000000000000000000000000000000000000000000000000000000000000000000000000000000000000000000000000000000000000000000000000000000000000000000000000000000000000000000000000000000000000000000000000000000000000000000000000000000000000000000000000000000000000000000000000000000000000000000000000000000000000000000000000000000000000000000000000000000000000000000000000000000000000000000000000000000000000000000000000000000000000000000000000000000000000000000000000000000000000000000000000000000000000000000000000000000000000000000000000000000000000000000000000000000000000000000000000000000000000000000000000000000000000000000000000000000000000000000000000000000000000000000000000000000000000000000000000000000000000000000000000000000000000000000
#042320:00000000000000000000000000550000000000000000000000000000000000000000000000000000000000000000000000000000000000000000000000000000
#042381:000000000000000000000000000000000000000000000000000000000000000000000000000000000000000000000000000000000000000000000000000000000000000000000000000000000000000000000000000000000000000000000000000000000000000000000000000000000000000000000000000000000000000000000000000000000000000000000000000000000000000000000000000000000000000000000000000000000000000000000000000000000000000000000000000000000000000000000000000000000000000000000000000000000000000000000000000000000000000000000000000000000000000000000000000000000000000000000000000000000000000000000000000000000000000000000000000000000000000000000000000000000000000000000000000000000000000000000000000000000000000000000000000000000000000000000000000000000000000000000000000000000000000000000000000000000000000000000000000000000000000000000000000000000000000000000000000000000000000000000000000000000000000000000000000000000000000000000000000000000000000000000000000000000000000000000000000000000000000000000000150000000000000000000000000000000000000000000000000000000000000000000000000000000000000000000000000000000000000000000000555300000000000000000000000000000000000000000000000000000000000000000000000000000000000000000000000000000000000000000000000000000000000000000000000000000000000000000000000000000000000000000000000000000000000000000000000000000000000000000000000000000000000000000000000000000000000000000000000000000000000000000000000000000000000000000000000000000000000000000000000000000000000000000000000000000000000000000000000000000000000000000000000000000000000000000000000000000000000000000000000000000000000000000000000000000000000000000000000000000000000000000000000000000000000000000000000000000000000000000000550000000000000000000000000000000000000000000000000000000000000000000000000000000000000000000000000000000000000000000000000000000000000000000000000000000000000000000000000000000000000000000000000000000000000000000000000000000000000000000000000000000000000000000000000000000000000000000000000000000000000000000000000000000000000000000000000000000000000000000000000000000000000000000000000000000000000000000000000000000000000000000000000000000000000000000000000000000000000000000000000000000000000000000000000000000000000000000000000000000000000000000000000000000000000000000000000000000000000000000000000000000000000000000000000000000000000000000000000000000000000000000000000000000000000000000000000000000000000000000000000000000000000000000000000000000000000000000000000000000000000000000000000000000000000000000000000000000000000000000000000000000000000000000000000000000000000000000000000000000000000000000000000000000000000000000000000000000000000000000000000000000000000000000000000000000000000000000000000000000000000000000000000000000000000000000000000000000000000000000000000000000000000000000000000000000000000000000000000000000000000000000000000000000000000000000000000000000000000000000000000000000000000000000000000000000000000000000000000000000000000000000000000000000000000000000000000000000000000000000000000000000000000000000000000000000000000000000000000000000000000000000000000000000000000000000000000000000000000000000000000000000000000000000000000000000000000000000000000000000000000000000000000000000000000000000000000000000000000000000000000000000000000000000000000000000000000000000000000000000000000000000000000000000000000000000000000000000000000000000000000000000000000000000000000000000000000000000000000000000000000000000000000000000000000000000000000000000000000000000000000000000000000000000000000000000000000000000000000000000000000000000000000000000000000000000000000000000000000000000000000000000000000000000000000000000000000000000000000000000000000000000000000000000000000000000000000000000000000000000000000000000000000000000000000000000000000000000000000000000000000000000000000000000000000000000000000000000000000000000000
#042391:00000000000000000000000000000000000000000000005300000000000000002300000000000000000000000000000000000000000000000000000000000000
#0423a1:000000000000000000000000000000000000000000000000000000000000000000000000000000000000000000000000000000000000000000000000000000000000000000000000000000000000000000000000000000000000000000000000000000000000000000000000000000000000000000000000000000000000000000000000000000000000000000000000000000000000000000000000000000000000000000000000000000000000000000000000000000000000000000000000000000000000000000000000000000000000000000000000000000000000000000000000000000000000000000000000000000000000000000000000000000000000000000000000000000000000000000000000000000000000000000000000000000000000000000000000000000000000000000000000000000000000000000000000000000000000000000000000000000000000000000000000000000000000000000000000000000000000000000000000000000000000000000000000000000000000000000000000000000000000000000000000000000000000000000000000000000000000000000000000000000000000000000000000000000000000000000000000000000000000000000000000000000000000000000000000000000000000000000000000000000000000000000000000000000000000000000000000000000000000000000000000000000000000000000000000000000000000000000000000000000000000000000000000000000000000000000000000000000000000000000000000000000000000000000000000000000000000000000000000000000000000000000000000000000000000000000000000000000000000000000000000000000000000000000000000000000000000000000000000000000000000000000000000000000000000000000000000000000000000000000000000000000000000000000000000000000000000000000000000000000000000000000000000000000000000000000000000000000000000000000000000000000000000000000000000000000000000000000000000000000000000000000000000000000000000000000000000000000000000000000000000000000000000000000000053000000000000000000000000000000000000000000000000000000000000000000000000000000000000000000000000000000000000000000000000000000000000000000000000000000000000000000000000000000000000000000000000000000000000000000000000000000000000000000000000000000000000000000000000000000000000000000000000000000000000000000000000000000000000000000000000000000000000000000000000000000000000000000000000000000000000000000000000000000000000000000000000000000000000000000000000000000000000000000000000000000000000000000000000000000000000000000000000000000000000000000000000000000000000000000000000000000000000000000000000000000000000000000000000000000000000000000000000000000000000000000000000000000000000000000000000000000000000000000000000000000000000000000000000000000000000000000000000000000000000000000000000000000000000000000000000000000000000000000000000000000000000000000000000000000000000000000000000000000000000000000000000000000000000000000000000000000000000000000000000000000000000000000000000000000000000000000000000000000000000000000000000000000000000000000000000000000000000000000000000000000000000000000000000000000000000000000000000000000000000000000000000000000000000000000000000000000000000000000000000000000000000000000000000000000000000000000000000000000000000000000000000000000000000000000000000000000000000000000000000000000000000000000000000000000000000000000000000000000000000000000000000000000000000000000000000000000000000000000000000000000000000000000000000000000000000000000000000000000000000000000000000000000000000000000000000000000000000000000000000000000000000000000000000000000000000000000000000000000000000000000000000000000000000000000000000000000000000000000000000000000000000000000000000000000000000000000000000000000000000000000000000000000000000000000000000000000000000000000000000000000000000000000000000000000000000000000000000000000000000000000000000000000000000000000000000000000000000000000000000000000000000000000000000000000000000000000000000000000000000000000000000000000000000000000000000000000000000000000000000000000000000000000000000000000000000000000000000000000000000000000000000000000000000000000000000000000000000000000000000
#042330:0000000013532300
#042350:00000000000000000053005300000000
#042391:000000000000000000000000000000000000000000000000000000000000000000000000000000000000000000000000000000000000000000000000000000000000000000000000000000000000000000000000000000000000000000000000000000000000000000000000000000000000000000000000000000000000000000000000000000000000000000000000000000000000000000000000000000000000000000000000000000000000000000000000000000000000000000000000000000000000000000000000000000000000000000000000000000000000000000000000000000000000000000000000000000000000000000000000000000000000000000000000000000000000000000000000000000000000000000000000000000000000000000000000000000000000000000000000000000000000000000000000000000000000000000000000000000000000000000000000000000000000000000000000000000000000000000000000000000000000000000000000000000000000000000000000000000000000000000000000000000000000000000000000000000000000000000000000000000000000000000000000000000000000000000000000000000000000000000000000000000000000000000000000000000000000000000000000000000000000000000000000000000000000000000000000000000000000000000000000000000000000000000000000000000000000000000000000000000000000000000000000000000000000000000000000000000000000000000000000000000000000000000000000000000000000000000000000000000000000000000000000000000000000000000000000000000000000000000000000000000000000000000000000000000000000000000000000000000000000000000000000000000000000000000000000000000000000000000000000000000000000000000000000000000000000000000000000000000000000000000000000000000000000000000000000000000000000000000000000000000000000000000000000000000000000000000000000000000000000000000000000000000000000000000000000000000000000000000000000000000000000000000000000000000000000000000000000000000000000000000000000000000000000000000000000000000000000000000000000000000000000000000000000000000000000000000000000000000000000000000000000000000000000000000000000000000000000000000000000000000000000000000000000000000000000000000000000000000000000000000000000000000000000000000000000000000000000000000000000000000000000000000000000000000000000000000000000000000000000000000000000000000000000000000000000000000000000000000000000000000000000000000000000000000000000000000000000000000000000000000000000000000000000000000000000000000000000000000000000000000000000000000000000000000000000000000000000000000000000000000000000000000000000000000000000000000000000000000000000000000000000000000000000000000000000000000000000000000000000000000000000000000000000000000000000000000000000000000000000000000000000000000000000000000000000000000000000000000000000000000000000000000000000000000000000000000000000000000000000000000000000000000000000000000000000000000000000000000000000000000000000000000000000000000000000000000000000000000000000000000000000000000000000000000000000000000000000000000000000000000000000000000000000000000000000000000000000000000000000000000000000000000000000130000000000000000000000000000000000000000000000000000000000000000000000000000000000000000000000000000000000000000000000000000000000000000000000000000000000000000000000000000000000000000000000000000000000000000000000000000000000000000000000000000000000000000000000000000000000000000000000000000000000000000000000000000000000000000000000000000000000000000000000000000000000000000000000000000000000000000000000000000000053000000000000000000000000000000000000000000000000000000000000000000000000000000000000000000000000000000000000000000000000000000000000000000000000000000000000000000000000000000000000000000000000000000000000000000000000000000000000000000000000000000000000000000000000000000000000000000000000000000000000000000000000000000000000000000000000000000000000000000000000000000000000000000000000000000000000000000000000000000000000000000000000000000000000000000000000000000000000000000000000000000000000000000000000000000000000000000000000000000000000
#042371:000000000000000000000000000000000000000000000000000000000000000000000000000000000000000000000000000000000000000000000000000000000000000000000000000000000000000000000000000000000000000000000000000000000000000000000000000000000000000000000000000000000000000000000000000000000000000000000000000000000000000000000000000000000000000000000000000000000000000000000000000000000000000000000000000000000000000000000000000000000000000000000000000000000000000000000000000000000000000000000000000000000000000000000000000000000000000000000000000000000000000000000000000000000000000000000000000000000000000000000000000000000000000000000000000000000000000000000000000000000000000000000000000000000000000000000000000000000000000000000000000000000000000000000000000000000000000000000000000000000000000000000000000000000000000000000000000000000000000000000000000000000000000000000000000000000000000000000000000000000000000000000000000000000000000000000000000000000000000000000000000000000000000000000000000000000000000000000000000000000000000000000000000000000000000000000000000000000000000000000000000000000000000000000000000000000000000000000000000000000000000000000000000000000000000000000000000000000000000000000000000000000000000000000000000000000000000000000000000000000000000000000000000000000000000000000000000000000000000000000000000000000000000000000000000000000000000000000000000000000000000000000000000000000000000000000000000000000000000000000000000000000000000000000000000000000000000000000000000000000000000000000000000000000000000000000000000000000000000000000000000000000000000000000000000000000000000000000000000000000000000000000000000000000000000000000000000000000000000000000000000000000000000000000000000000000000000000000000000000000000000000000000000000000000000000000000000000000000000000000000000000000000000000000000000000000000000000000000000000000000000000000000000000000000000000000000000000000000000000000000000000000000000000000000000000000000000000000000000000000000000000000000000000000000000000000000000000000000000000000000000000000000000000000000000000000000000000000000000000000000000000000000000000000000000000000000000000000000000000000000000000000000000000000000000000000000000000000000000000000000000000000000000000000000000000000000000000000000000000000000000000000000000000000000000000000000000000000000000000000000000000000000000000000000000000000000000000000000000000000000000000000000000000000000000000000000000000000000000000000000000000000000000000000000000000000000000000000000000000000000000000000000000000000000000000000000000000000000000000000000000000000000000000000000000000000000000000000000000000000000000000000000000000000000000000000000000000000000000000000000000000000000000000000000000000000000000000000000000000000000000000000000000000000000000000000000000000000000000000000000000000000000000000000000000000000000000000000000000000000000000000000000000000000000000000000000000000000000000000000000000000000000000000000000000000000000000000000000000000000000000000000000000000000000000000000000000000000000000000000000000000000000000000000000000000000000000000000000000000000000000000000000000000000000000000000000000000000000000000000000000000000000000000000000000000000000000000000000000000000000000000000000000000000000000000000000000000000000000000000000570000000000000000000000000000000000000000000000000000000000000000000000000000000000000000000000000000000000000000000000575500000000000000000000000000000000000000000000000000000000000000000000000000000000000000000000000000000000000000000000000000000000000000000000000000000000000000000000000000000000000000000000000000000000000000000000000000000000000000000000000000000000000000000000000000000000000000000000000000000000000000000000000000000000000000000000000000000000000000000000000000000000000000000000000000000000000000000000000000000000
#043391:23
#043320:14240000
#043360:0054000000000000
#043361:00140000
#0433b1:0023
#044371:13
#0443b1:00230000
#044360:00130000
#044320:0023
#0443b1:00001323
#044371:0000000000530000
#044320:00000013
#044360:0000000000000053
#045320:23
#046360:13
#046320:00230000
#046371:00130000
#0463b1:0033
#046381:00000023
#046320:0013
#046350:00000023
#047370:13
#0473b0:00230000
#047370:0000000000000013
#0483b0:00230000
#048321:13
#048361:00230000
#0503b1:13
#050381:00230000
#050320:13
#050350:00230000
#0543a0:0014
#054380:00000023
#054321:0014
#054351:00000023
#055361:13
#055321:00230000
#055361:0000000000000013
#056321:00230000
#0563b0:13
#056370:00230000
#058320:13
#058350:00230000
#0583b1:13
#058381:00230000
#061321:13230000
#0613b1:00001323
#062361:13230000
#0623b1:00001323
#063321:13230000
#063371:00001323
#064321:13230000
#065321:13
#065361:00230000
#065371:0013
#0653b1:00000023
#066361:13
#066321:00230000
#0663b1:0013
#066371:00000023
#067321:13230000
#067361:0053000000000000
#0673b1:00001323
#067371:0000000000530000
#068361:13230000
#068321:0053000000000000
#068371:00001323
#0683b1:0000000000530000
#069381:00132300
#0693b1:0000005300000000
#069350:00001323
#069320:0000000000530000
#069381:00000013
#0703b1:23
#070320:13
#070330:00330000000000000000000000000000
#070340:0033000000000000
#070350:00000033000000000000000000000000
#070360:00230000
#0703b1:00130000
#0703a1:00000000003300000000000000000000
#070391:0000003300000000
#070381:00000000000000330000000000000000
#070371:0023
#070320:00000000000000001300002300000000
#070371:00000000000000000000001300002300
#071371:13
#0713b1:0000002300000000
#071361:00000000000000001300002300000000
#0713b0:00000000000000000000001300002300
#072360:13
#072320:0000002300000000
#072370:0013
#0723b0:00000000000000000000002300000000
#072361:00000000000000000000001300000000
#072321:0000000000000023
#073361:00130000
#073341:0000000000000000000000330000000000000000000000000000000000000000
#073321:00000000000000332300000000000000
#073370:0013
#073390:0000000000000000000000000000000000000033000000000000000000000000
#0733b0:00000000000000000000003323000000
#073351:00000013
#074351:23
#075351:1353535353535353535353535353535353533300000000000000000000000000
#075341:00530053005300530053005300530053005300530053005300530053005300530053005300000000000000000000000000000000000000000000000000000000
#076321:3454545454545454545454545454545454545454545454545454545454545454
#076331:00540054005400540054005400540054005400540054005400540054005400540054005400540054005400540054005400540054005400540054005400540054
#077321:24
#075380:00000000000000000013000000000000
#0763a0:3454545454545454545454545454545454545454545454545454545454545454
#076390:00540054005400540054005400540054005400540054005400540054005400540054005400540054005400540054005400540054005400540054005400540054
#0773a0:24
#078370:12
#078320:0000002c
#080320:00001425
#080350:000000000000000000000000000000000000000000000000000000000000000000000000000000000000000000000000000000000000000000000000000000000000000000000000000000000000000000000000000000000000000000000000000000000000000000000000000000000000000000000000000000000000000000000000000000000000000000000000000000000000000000000000000000000000000000000000000000000000000000000000000000000000000000000000000000000000000000000000000000000000000000000000000000000000000000000000000000000000000000000000000000000000000000000000000000000000000000000000000000000000000000000000000000000000000000000000000000000000000000000000000000000000000000000000000000000000000000000000000000000000000000000000000000000000000000000000000000000000000000000000000000000000000000000000000000000000000000000000000000000000000000000000000000000000000000000000000000000000000000000000000000000000000000000000000000000000000000000000000000000000000000000000000000000000000000000000000000000000000000000000000000000000000000000000000000000000000000000000000000000000000000000000000000000000000000000000000000000000000000000000000000000000000000000000000000000000000000000000000000000000000000000000000000000000000000000000000000000000000000000000000000000000000000000000000000000000000000000000000000000000000000000000000000000000000000000000000000000000000000000000000000000000000000000000000000000000000000000000000000000000000000000000000000000000000000000000000000000000000000000000000000000000000000000000000000000000000000000000000000000000000000000000000000000000000000000000000000000000000000000000000000000000000000000000000000000000000000000000000000000000000000000000000000000000000000000000000000000000000000000000000000000000000000000000000000000000000000000000000000000000000000000000000000000000000000000000000000000000000000000000000000000000000000000000000000000000000000000000000000000000000000000000000000000000000000000000000000000000000000000000000000000000000000000000000000000000000000000000000000000000000000000000000000000000000000000000000000000000000000000000000000000000000000000000000000000000000000000000000000000000000000000000000000000000000000000000000000000000000000000000000000000000000000000000000000000000000000000000000000000000000000000000000000000000000000000000000000000000000000000000000000000000000000000000000000000000000000000000000000000000000000000000000000000000000000000000000000000000000000000054000000000000000000000000000000000000000000000000000000000000000000000000000000000000000000000000000000000000000000000000000000000000000000000000000000000000000000000000000000000000000000000000000000000000000000000000000000000000000000000000000000000000000000000000000000000000000000000000000000000000000000000000000000000000000000000000000000000000000000000000000000000000000000000000000000000000000000000000000000000000000000000000000000000000000000000000000000000000000000000000000000000000000000000000000000000000000000000000000000000000000000000000000000000000000000000000000000000000000000000000000000000000000000000000000000000000000000000000000000000000000000000000000000000000000000000000000000000000000000000000000000000000000000000000000000000000000000000000000000000000000000000000000000000000000000000000000000000000000000000000000000000000000000000000000000000000000000000000000000000000000000000000000000000000000000000000000000000000000000000000000000000000000000000000000000000000000000000000000000000000000000000000000000000000000000000000000000000000000000000000000000000000000000000000000000000000000000000000000000000000000000000000000000000000000000000000000000000000000000000000000000000000000000000000000000000000000000000000000000000000000000000000000000000000000000000000000000000000000000000000000000000000000000000000000000000000000000000000000000000000000000000000000000000000000000000000000000000000000000000000
#0803a1:0014
#080371:0000000000540000
#080391:00000025
#081381:16260000
#081351:0056000000000000
#081351:0000000000000013
#082321:00240000
#082380:13
#0823a0:00240000
#084380:00000013
#0853b0:23
#0883a0:0014
#088370:000000000000000000000000000000000000000000000000000000000000000000000000000000000000000000000000000000000000000000000000000000000000000000000000000000000000000000000000000000000000000000000000000000000000000000000000000000000000000000000000000000000000000000000000000000000000000000000000000000000000000000000000000000000000000000000000000000000000000000000000000000000000000000000000000000000000000000000000000000000000000000000000000000000000000000000000000000000000000000000000000000000000000000000000000000000000000000000000000000000000000000000000000000000000000000000000000000000000000000000000000000000000000000000000000000000000000000000000000000000000000000000000000000000000000000000000000000000000000000000000000000000000000000000000000000000000000000000000000000000000000000000000000000000000000000000000000000000000000000000000000000000000000000000000000000000000000000000000000000000000000000000000000000000000000000000000000000000000000000000000000000000000000000000000000000000000000000000000000000000000000000000000000000000000000000000000000000000000000000000000000000000000000000000000000000000000000000000000000000000000000000000000000000000000000000000000000000000000000000000000000000000000000000000000000000000000000000000000000000000000000000000000000000000000000000000000000000000000000000000000000000000000000000000000000000000000000000000000000000000000000000000000000000000000000000000000000000000000000000000000000000000000000000000000000000000000000000000000000000000000000000000000000000000000000000000000000000000000000000000000000000000000000000000000000000000000000000000000000000000000000000000000000000000000000000000000000000000000000000000000000000000000000000000000000000000000000000000000000000000000000000000000000000000000000000000000000000000000000000000000000000000000000000000000000000000000000000000000000000000000000000000000000000000000000000000000000000000000000000000000000000000000000000000000000000000000000000000000000000000000000000000000000000000000000000000000000000000000000000000000000000000000000000000000000000000000000000000000000000000000000000000000000000000000000000000000000000000000000000000000000000000000000000000000000000000000000000000000000000000000000000000000000000000000000000000000000000000000000000000000000000000000000000000000000000000000000000000000000000000000000000000000000000000000000000000000000000000000000000000054000000000000000000000000000000000000000000000000000000000000000000000000000000000000000000000000000000000000000000000000000000000000000000000000000000000000000000000000000000000000000000000000000000000000000000000000000000000000000000000000000000000000000000000000000000000000000000000000000000000000000000000000000000000000000000000000000000000000000000000000000000000000000000000000000000000000000000000000000000000000000000000000000000000000000000000000000000000000000000000000000000000000000000000000000000000000000000000000000000000000000000000000000000000000000000000000000000000000000000000000000000000000000000000000000000000000000000000000000000000000000000000000000000000000000000000000000000000000000000000000000000000000000000000000000000000000000000000000000000000000000000000000000000000000000000000000000000000000000000000000000000000000000000000000000000000000000000000000000000000000000000000000000000000000000000000000000000000000000000000000000000000000000000000000000000000000000000000000000000000000000000000000000000000000000000000000000000000000000000000000000000000000000000000000000000000000000000000000000000000000000000000000000000000000000000000000000000000000000000000000000000000000000000000000000000000000000000000000000000000000000000000000000000000000000000000000000000000000000000000000000000000000000000000000000000000000000000000000000000000000000000000000000000000000000000000000000000000000000000000000
#088390:00000025
#088321:00001425
#088351:0000000000540000
#089321:16260000
#089351:0056000000000000
#089381:0000000000000013
#0903a1:00240000
#090350:13
#090320:00240000
#095320:13
#095350:00000023000000000000000000000000
#095381:00000013000000000000000000000000
#0953b1:0000002300000000
#096381:13
#0963b1:00000023000000000000000000000000
#096320:00000013000000000000000000000000
#096350:0000002300000000
#0973b0:13
#097380:00000023000000000000000000000000
#097351:00000013000000000000000000000000
#097321:0000002300000000
#098351:13
#098321:00000023000000000000000000000000
#0983b0:00000013000000000000000000000000
#098380:0000002300000000
#0993b0:13230000
#099370:0053000000000000
#099321:00132300
#099361:0000005300000000
#008990:0012
#0089c0:000000000000000000000000000000000000000000000000000000000000000000000000000000000000000000000000000000000000000000000000000000000000000000000000000000000000000000000000000000000000000000000000000000000000000000000000000000000000000000000000000000000000000000000000000000000000000000000000000000000000000000000000000000000000000000000000000000000000000000000000000000000000000000000000000000000000000000000000000000000000000000000000000000000000000000000000000000000000000000000000000000000000000000000000000000000000000000000000000000000000000000000000000000000000000000000000000000000000000000000000000000000000000000000000000000000000000000000000000000000000000000000000000000000000000000000000000000000000000000000000000000000000000000000000000000000000000000000000000000000000000000000000000000000000000000000000000000000000000000000000000000000000000000000000000000000000000000000000000000000000000000000000000000000000000000000000000000000000000000000000000000000000000000000000000000000000000000000000000000000000000000000000000000000000000000000000000000000000000000000000000000000000000000000000000000000000000000000000000000000000000000000000000000000000000000000000000000000000000000000000000000000000000000000000000000000000000000000000000000000000000000000000000000000000000000000000000000000000000000000000000000000000000000000000000000000000000000000000000000000000000000000000000000000000000000000000000000000000000000000000000000000000000000000000000000000000000000000000000000000000000000000000000000000000000000000000000000000000000000000000000000000000000000000000000000000000000000000000000000000000000000000000000000000000000000000000000000000000000000000000000000000000000000000000000000000000000000000000000000000000000000000000000000000000000000000000000000000000000000000000000000000000000000000000000000000000000000000000000000000000000000000000000000000000000000000000000000000000000000000000000000000000000000000000000000000000000000000000000000000000000000000000000000000000000000000000000000000000000000000000000000000000000000000000000000000000000000000000000000000000000000000000000000000000000000000000000000000000000000000000000000000000000000000000000000000000000000000000000000000000000000000000000000000000000000000000000000000000000000000000000000000000000000000000000000000000000000000000000000000000000000000000000000000000000000000000000000000000000000000000000000000000000000000000000000000000000000000000000000000000000000000000000000000000000000000000000000000000000000000000000000000000000000000000000000000000000000000000000000000000000000000000000000000000000000000000000000000000000000000052220000000000000000000000000000000000000000000000000000000000000000000000000000000000000000000000000000000000000000000000000000000000000000000000000000000000000000000000000000000000000000000000000000000000000000000000000000000000000000000000000000000000000000000000000000000000000000000000000000000000000000000000000000000000000000000000000000000000000000000000000000000000000000000000000000000000000000000000000000000000000000000000000000000000000000000000000000000000000000000000000000000000000000000000000000000000000000000000000000000000000000000000000000000000000000000000000000000000000000000000000000000000000000000000000000000000000000000000000000000000000000000000000000000000000000000000000000000000000000000000000000000000000000000000000000000000000000000000000000000000000000000000000000000000000000000000000000000000000000000000000000000000000000000000000000000000000000000000000000000000000000000000000000000000000000000000000000000000000000000000000000000000000000000000000000000000000000000000000000000000000000000000000000000000000000000000000000000000000000000000000000000000000000000000000000000000000000000000000000000000000000000000000000000000000000000000000000000000000000000000
#064960:000000000000000000000000000000000000000000000000000000000000000000000000000000000000000000000000000000000000000000000000000000000000000000000000000000000000000000000000000000000000000000000000000000000000000000000000000000000000000000000000000000000000000000000000000000000000000000000000000000000000000000000000000000000000000000000000000000000000000000000000000000000000000000000000000000000000000000000000000000000000000000000000000000000000000000000000000000000000000000000000000000000000000000000000000000000000000000000000000000000000000000000000000000000000000000000000000000000000000000000000000000000000000000000000000000000000000000000000000000000000000000000000000000000000000000000000000000000000000000000000000000000000000000000000000000000000000000000000000000000000000000000000000000000000000000000000000000000000000000000000000000000000000000000000000000000000000000000000000000000000000000000000000000000000000000000000000000000000000000000000000000000000000000000000000000000000000000000000000000000000000000000000000000000000000000000000000000000000000000000000000000000000000000000000000000000000000000000000000000000000000000000000000000000000000000000000000000000000000000000000000000000000000000000000000000000000000000000000000000000000000000000000000000000000000000000000000000000000000000000000000000000000000000000000000000000000000000000000000000000000000000000000000000000000000000000000000000000000000000000000000000000000000000000000000000000000000000000000000000000000000000000000000000000000000000000000000000000000000000000000000000000000000000000000000000000000000000000000000000000000000000000000000000000000000000000000000000000000000000000000000000000000000000000000000000000000000000000000000000000000000000000000000000000000000000000000000000000000000000000000000000000000000000000000000000000000000000000000000000000000000000000000000000000000000000000000000000000000000000000000140000000000000000000000000000000000000000000000000000000000000000000000000000000000000000000000000000000000000000000000000000000000000000000000000000000000000055000000000000000000000000000000000000000000000000000000000000000000000000000000000000000000000000000000000000000000000000000000000000000000000000000000000000000000000000000000000000000000000000000000000000000000000000000000000000000000000000000000000000000000000000000000000000000000000000000000000000000000000000000000550000000000000000000000000000000000000000000000000000000000000000000000000000000000000000000000000000000000000000000000000000000000000000000000000000000000000000000000000000000000000000000000000000000000000000000000000000000000000000000000000000000000000000000000000000000000000000000000000000000000000000000000000000005500000000000000000000000000000000000000000000000000000000000000000000000000000000000000000000000000000000000000000000000000000000000000000000000000000000000000000000000000000000000000000000000000000000000000000000000000000000000000000000000000000000000000000000000000000000000000000000000000000000000000000000000000000055000000000000000000000000000000000000000000000000000000000000000000000000000000000000000000000000000000000000000000000000000000000000000000000000000000000000000000000000000000000000000000000000000000000000000000000000000000000000000000000000000000000000000000000000000000000000000000000000000000000000000000000000000000550000000000000000000000000000000000000000000000000000000000000000000000000000000000000000000000000000000000000000000000000000000000000000000000000000000000000000000000000000000000000000000000000000000000000000000000000000000000000000000000000000000000000000000000000000000000000000000000000000000000000000000000000000005500000000000000000000000000000000000000000000000000000000000000000000000000000000000000000000000000000000000000000000000000000000000000000000545454545454545454
#064950:000000000000005555555555
#065960:24
#094990:0012
#0949c0:000000000000000000000000000000000000000000000000000000000000000000000000000000000000000000000000000000000000000000000000000000000000000000000000000000000000000000000000000000000000000000000000000000000000000000000000000000000000000000000000000000000000000000000000000000000000000000000000000000000000000000000000000000000000000000000000000000000000000000000000000000000000000000000000000000000000000000000000000000000000000000000000000000000000000000000000000000000000000000000000000000000000000000000000000000000000000000000000000000000000000000000000000000000000000000000000000000000000000000000000000000000000000000000000000000000000000000000000000000000000000000000000000000000000000000000000000000000000000000000000000000000000000000000000000000000000000000000000000000000000000000000000000000000000000000000000000000000000000000000000000000000000000000000000000000000000000000000000000000000000000000000000000000000000000000000000000000000000000000000000000000000000000000000000000000000000000000000000000000000000000000000000000000000000000000000000000000000000000000000000000000000000000000000000000000000000000000000000000000000000000000000000000000000000000000000000000000000000000000000000000000000000000000000000000000000000000000000000000000000000000000000000000000000000000000000000000000000000000000000000000000000000000000000000000000000000000000000000000000000000000000000000000000000000000000000000000000000000000000000000000000000000000000000000000000000000000000000000000000000000000000000000000000000000000000000000000000000000000000000000000000000000000000000000000000000000000000000000000000000000000000000000000000000000000000000000000000000000000000000000000000000000000000000000000000000000000000000000000000000000000000000000000000000000000000000000000000000000000000000000000000000000000000000000000000000000000000000000000000000000000000000000000000000000000000000000000000000000000000000000000000000000000000000000000000000000000000000000000000000000000000000000000000000000000000000000000000000000000000000000000000000000000000000000000000000000000000000000000000000000000000000000000000000000000000000000000000000000000000000000000000000000000000000000000000000000000000000000000000000000000000000000000000000000000000000000000000000000000000000000000000000000000000000000000000000000000000000000000000000000000000000000000000000000000000000000000000000000000000000000000000000000000000000000000000000000000000000000000000000000000000000000000000000000000000000000000000000000000000000000000000000000000000000000000000000000000000000000000000000000000000000000000000000000000000000000000000000000000000000052220000000000000000000000000000000000000000000000000000000000000000000000000000000000000000000000000000000000000000000000000000000000000000000000000000000000000000000000000000000000000000000000000000000000000000000000000000000000000000000000000000000000000000000000000000000000000000000000000000000000000000000000000000000000000000000000000000000000000000000000000000000000000000000000000000000000000000000000000000000000000000000000000000000000000000000000000000000000000000000000000000000000000000000000000000000000000000000000000000000000000000000000000000000000000000000000000000000000000000000000000000000000000000000000000000000000000000000000000000000000000000000000000000000000000000000000000000000000000000000000000000000000000000000000000000000000000000000000000000000000000000000000000000000000000000000000000000000000000000000000000000000000000000000000000000000000000000000000000000000000000000000000000000000000000000000000000000000000000000000000000000000000000000000000000000000000000000000000000000000000000000000000000000000000000000000000000000000000000000000000000000000000000000000000000000000000000000000000000000000000000000000000000000000000000000000000000000000000000000000000
