This file was generated by Ched 2.7.0.0.
#TITLE ""
#ARTIST ""
#DESIGNER ""
#DIFFICULTY 0
#PLAYLEVEL
#SONGID ""
#WAVE ""
#WAVEOFFSET 0
#JACKET ""
#REQUEST "ticks_per_beat 480"
#00002: 4
#BPM01: 202
#00008: 01
#TIL00: ""
#VOLUME: ""
#HISPEED 00
#MEASUREHS 00
#00115:0000000000130013
#00118:00001313
#00112:00140000
#0011a:24
#00316:00140014
#00312:0023
#0031b:23
#00415:00130000
#00418:0013
#00412:00000013
#0041b:23
#00718:00130000
#00715:13
#00712:00001414
#0071a:0000000000140014
#04914:0013
#04919:0000000000130000
#04913:00000013
#04918:0000000000000013
#04916:13
#0491b:0013000000000000
#04915:00130000
#0491a:0000001300000000
#02518:1400140000140000
#02514:0014000014001400
#02618:0000000000130000
#02615:0000000000000013
#02612:14
#0261a:14
#02613:00000034000000000000000000000000
#02619:00000034000000000000000000000000
#0271b:1313
#02718:0000130000000013
#02715:0000001300000000
#02712:0013000000130000
#0281b:00131300
#02818:0000000000000013
#02815:1300001300000000
#02812:00000013
#02912:13
#02918:00000013
#02915:0000000013000013
#0291b:00130000
#02910:41
#03318:0000001300000000
#03315:00131300
#0331b:13000013
#03312:13
#03912:0013000000000000
#0391b:13
#03919:0013
#0391a:00130000
#03913:0000001300000000
#03915:0000000000000013
#03914:0000000000130000
#03918:00000013
#03715:00130000
#03718:0013
#03712:00000013
#0371b:0000000000000013
#03815:1313
#03812:0000000000000013
#03818:00130000
#0381b:0000000000130000
#0351b:13
#03515:0013000013000000
#03518:0000130000000013
#03518:00130000
#03512:00000013
#04515:0013001300000000
#0451b:13130000
#04512:0000000000130013
#04518:00001313
#04417:13
#04416:0013
#04316:0000000000130000
#0431b:0013
#04319:00000013
#04314:0000000000000013
#0431a:24
#04312:00240000
#04310:41
#0591a:14140000
#05912:0014001400000000
#05914:0000000000140014
#05918:00001414
#07415:00130013
#0741b:0013000000130000
#07412:1313
#07418:0000001300000013
#0791b:1313
#07912:0013000000130000
#07918:00130013
#07915:0000001300000013
#0821b:00001313
#08212:0000240000130013
#08216:14
#07714:00001313
#07719:00001313
#0021b:0013
#00214:00140000
#00218:24000013
#00515:00001313
#00518:1300000000130013
#0181b:13
#01818:00130013
#01815:0013
#01718:00000013
#01715:0000000000130000
#01712:0000000000000013
#01719:00000033000000000000000000000000
#01710:41
#02212:13
#02215:00130013
#02218:0000000013000013
#02115:00000013
#02118:0000000000130000
#0211b:0000000000000013
#02018:0000000000130000
#02015:00000013
#02014:00000033000000000000000000000000
#0191b:0000000000130000
#01915:00000013
#01918:0000000000000013
#02315:1313
#02318:0000001300000000
#02312:0000000000000013
#0231b:00000013
#0301b:13
#03015:00000013
#03018:0000000013000013
#03012:00130000
#03412:1300000000000013
#0341b:00130000
#03415:0013
#03418:0000000000130000
#04618:13
#04612:00140000
#04616:0014
#0461a:00000014
#0501a:0014
#05016:00000014
#05012:13
#06018:14
#0801b:13
#08012:00240000
#08016:0024
#0801a:00000024
#08010:41
#08318:13130013
#08315:0013001300000013
#0831b:0013
#08312:0000000000130000
#0841b:13001313
#08412:00001313
#09312:0014000000140000
#09318:00140014
#09314:0000001400000014
#0931a:1414
#0941a:14
#09518:00000013
#09512:13
#09515:00000033130033000000000000001300
#09615:00000013
#09618:00000033130033000000000000001300
#0961b:13
#08512:00141400
#0851a:0000140000000014
#08518:2400000000140000
#08514:24000014
#09918:00001313
#09915:0000000000130013
#0991b:13
#09912:13
#10115:13131300
#10118:0013001300000000
#10112:00000000000000000000003300000000
#0691b:00130013
#06917:0013
#0691f:11
#00615:13000013
#00618:0000000013000013
#00812:14
#03115:0000000013000013
#03118:00000013
#03112:23
#03218:00130000
#03215:0000001300000000
#0321b:0023
#03618:0013
#03615:13
#0361b:0013000000000000
#03612:00130000
#0361a:00000000000000000000003300000000
#0421b:13
#04212:13
#0421a:00130000
#04213:00130000
#04214:0013
#04219:0013
#04218:00000013
#04215:00000013
#04719:00000013
#04716:0000000000130000
#0471b:0013
#04714:0000000000000013
#04712:13
#04817:1300000000130000
#04812:0013
#04819:0000000000000013
#04814:00000013
#05719:0013
#05714:0000000000130000
#0571a:00000013
#05715:0000000000000013
#05717:13
#05712:0013000000000000
#05718:00130000
#05713:0000001300000000
#05318:0013001300000000
#05312:13130000
#0531b:0000000000130013
#05315:00001313
#05216:13
#05217:0013
#05117:0000000000130000
#05112:2413
#05114:00000013
#05119:0000000000000013
#0511a:00240000
#05415:13
#0541a:00140000
#05416:0014
#05412:00000014
#05514:00000013
#05517:0000000000130000
#05512:0013
#05519:0000000000000013
#0551b:13
#05510:41
#05616:1300000000130000
#0561b:0013
#05614:0000000000000013
#05619:00000013
#05612:00230000
#0581b:13
#05812:0014
#05816:00000014
#07012:1300000000000033
#07016:00000000333333331300000000000000
#07013:00330000000000000000000000000000
#07014:00003300000000000000003300000000
#07015:00000033000000000000000000000000
#0711b:1300000000000033
#07117:0013
#07119:00000000000000000000003300000000
#07212:1300000000000033
#07216:0013
#07214:00000000000000000000003300000000
#07317:00130000
#0731b:13000000000000000000003300000000
#07318:0000000000003300000000330000000000000000000000000000000000000000
#07319:00003300000000333300000000000000
#0731a:0000330000000000000000000000000000000033000000000000000000000000
#0751b:13
#07512:13
#07518:00000000000000000013000000000000
#07515:00000000000000000013000000000000
#0761a:14
#07612:14
#01112:00000013
#01118:0000003300000000
#01119:00000033000000000000000000000000
#01015:00000013
#0101b:0000003300000000
#0101a:00000033000000000000000000000000
#01215:00000013
#01218:0000000000000013
#0121b:0000003300000000
#0121a:00000033000000000000000000000000
#01612:13
#00912:00000013
#00918:0000003300000000
#00919:00000033000000000000000000000000
#0151b:00000013
#01515:0000003300000000
#01514:00000033000000000000000000000000
#01418:00000013
#01412:0000003300000000
#01413:00000033000000000000000000000000
#0131b:00000013
#01315:0000003300000000
#01314:00000033000000000000000000000000
#08112:0014
#08118:0000000000140000
#08116:0000001400000000
#08114:00000014
#0811a:0000000000000014
#08712:1313
#08715:00130013
#08718:0000001300000013
#0871b:0013000000130000
#09012:00001313
#0901b:0000000000130013
#09016:14
#0901a:00240000
#09010:41
#08812:13000024
#0881a:00240000
#08816:0024
#09115:13130013
#09118:0013001300000013
#09112:0013
#0911b:0000000000130000
#09212:1314
#09216:00000014
#0891a:0014
#08914:0000000000140000
#08916:0000001400000000
#08918:00000014
#08912:0000000000000014
#0861a:0014
#08616:14
#09715:1300000000000013
#09712:00000033130033000000000000000000
#09718:00000013
#09818:1300000000000013
#0981b:00000033130033000000000000000000
#09815:00000013
#10018:1300000000000013
#10015:00000013
#1001b:00000033000000000000000000000000
#07818:00000026
#07812:00000026
#0781f:00000021
#06812:00000024
#10212:23
#04016:00000000003434343434343434343434
#04457:53
#0445b:00130000
#04456:0063
#04452:00000013
#07858:00000016
#07852:00000016
#00352:0013
#0035b:13
#0045b:13
#00452:00000013
#0025b:0063
#00254:00140000
#00258:14000053
#01955:0013000000000000
#02055:0000001300006300
#02952:13
#0305b:13
#03152:13
#03155:0000000000000063
#0325b:0013
#02652:54
#0265a:64
#02654:0000001400000000
#02658:0000001400000000
#06058:14
#06152:00130000
#0615b:00000013
#06255:00130000
#06258:00000013
#06352:00130000
#0635b:00000013
#06455:00130000
#06554:00000014
#06558:00140000
#0805b:13
#0805a:00000014
#08452:00000053
#0845b:13000063
#08554:14
#08558:14
#0945a:14
#0995b:63
#09958:00130000
#09952:53
#09955:00130000
#0435a:14
#04352:00140000
#04154:18
#0695b:00630063
#06957:0053
#0015a:14
#00152:00140000
#00655:63
#00652:00130000
#0055b:00130000
#00558:53
#00852:14
#01758:0000001300000000
#02152:13
#02458:0000001300000000
#02455:00000013
#02558:00140000
#02554:00000014
#0365b:0000000000000013
#03658:0053
#03652:00130000
#04258:00000013
#04255:00000013
#0465a:00000014
#04857:53
#0485b:00130000
#04752:53
#04756:00130000
#05052:53
#05056:00130000
#05256:63
#05257:0053
#05252:00130000
#0525b:00000013
#05452:00000014
#05656:63
#05652:00130000
#0555b:63
#05557:00130000
#0585b:63
#05857:00130000
#05152:14
#0515a:00140000
#0665a:00140000
#06652:00000014
#06758:00140000
#06754:00000014
#0685a:00140000
#06852:00000014
#07052:53
#07056:0063
#0715b:63
#07157:0053
#07252:53
#07256:0063
#07357:00530000
#0735b:63
#0755b:63
#07552:53
#07558:00000000000000000053000000000000
#07555:00000000000000000063000000000000
#0765a:64
#07652:54
#07758:15
#07753:15
#01652:13
#08256:64
#08252:00140000
#08852:13000014
#09252:13
#09056:54
#0905a:00140000
#0865a:0064
#08656:64000014
#08652:00140000
#09552:53
#09555:00230000
#0965b:63
#09658:00230000
#09755:63
#09752:00230000
#09858:53
#0985b:00230000
#1005b:0013
#10058:53
#10155:0063
#10252:13
#0023b0:0013
#002380:00000033
#0033b0:23
#005380:13
#0053b0:00230000
#006350:13
#006320:00230000
#0093b0:13
#009390:00000033000000000000000000000000
#009380:0000003323000000
#010380:13
#0103a0:00000033000000000000000000000000
#0103b0:0000003323000000
#0113b0:13
#011390:00000033000000000000000000000000
#011380:0000003323000000
#012380:13
#0123a0:00000033000000000000000000000000
#0123b0:0000003323000000
#013320:13
#013340:00000033000000000000000000000000
#013350:0000003323000000
#014350:13
#014330:00000033000000000000000000000000
#014320:0000003323000000
#015320:13
#015340:00000033000000000000000000000000
#015350:0000003323000000
#0173b0:13
#017390:00000033000000000000000000000000
#017380:0000002300000000
#018350:0000000000000013
#019350:0023000000000000
#020320:13
#020340:00000033000000000000000000000000
#020350:0000002300000000
#020350:00000013
#021320:23
#024380:0013002300000000
#024350:00001323
#0263a0:14
#026390:00000034000000000000000000000000
#026380:0000002400000000
#026321:14
#026331:00000034000000000000000000000000
#026341:0000002400000000
#031351:0000000000000013
#032321:0023000000000000
#036381:0013
#0363a1:00000000000000000000003300000000
#0363b1:0000000000000023
#040361:14000000343434343434343434343434
#041341:28
#044371:13
#0443b1:00230000
#044361:0013
#044321:00000023
#047321:13
#047361:00230000
#048371:13
#0483b1:00230000
#050321:13
#050361:00230000
#052361:13
#052321:00230000
#052371:0013
#0523b1:00000023
#0553b1:13
#055371:00230000
#056361:13
#056321:00230000
#0583b1:13
#058371:00230000
#061321:13230000
#0613b1:00001323
#062351:13230000
#062381:00001323
#063321:13230000
#0633b1:00001323
#064351:13230000
#064381:0014
#064371:000000000000000000000000003400340034003400340034
#064391:000000000000003434343434
#065381:34240000
#065341:00001424
#0663a1:14240000
#066321:00001424
#067381:14240000
#067341:00001424
#0683a1:14240000
#068321:00001424
#0693b1:13330033
#069371:0033
#070371:23
#070320:1300000000000033
#070330:00330000000000000000000000000000
#070340:00003300000000000000003300000000
#070350:00000033000000000000000000000000
#070360:00000000333333333300000000000000
#071320:23
#0713b1:1300000000000033
#071371:0000003333000000
#071391:00000000000000000000003300000000
#0723b1:23
#072320:1300000000000033
#072360:0000003333000000
#072340:00000000000000000000003300000000
#073320:23
#0733b1:13000000000000000000003323000000
#0733a1:0000330000000000000000000000000000000033000000000000000000000000
#073391:00003300000000333300000000000000
#073381:0000000000003300000000330000000000000000000000000000000000000000
#073371:00330000
#075321:13
#075351:00000000000033000033000000000000
#076321:34
#077331:25
#0753b0:13
#075380:00000000000033000033000000000000
#0763a0:34
#077380:25
#078390:13
#078380:00000026
#078341:13
#078321:00000026
#081321:14240000
#082361:14
#082321:00240000
#084321:00000013
#085341:24
#0843b0:00000013
#085380:24
#086360:14
#086320:00240000
#0863a0:0014
#086360:00000024
#0893a0:14240000
#090360:14
#0903a0:00240000
#095320:1323
#095350:00000033530033000000000000000000
#0963b0:1323
#096380:00000033530033000000000000000000
#097350:1323
#097320:00000033530033000000000000000000
#098380:1323
#0983b0:00000033530033000000000000000000
#0993b0:13
#099380:00230000
#099321:13
#099351:00230000
#100381:13
#1003b1:00000033000033002300000000000000
#101351:0013
#101321:00000000000000000000003300003300
#102321:23
