This file was generated by Ched 2.7.0.0.
#TITLE ""
#ARTIST ""
#DESIGNER ""
#DIFFICULTY 0
#PLAYLEVEL
#SONGID ""
#WAVE ""
#WAVEOFFSET 0
#JACKET ""
#REQUEST "ticks_per_beat 480"
#00002: 4
#BPM01: 202
#00008: 01
#TIL00: ""
#VOLUME: ""
#HISPEED 00
#MEASUREHS 00
#05014:0014
#05018:14
#08012:00000014
#0801a:14
#08014:00140000
#08018:0014
#08010:41
#09316:00140014
#09312:14
#0931a:0014
#09412:14
#08512:00140000
#08518:0014
#08514:00000014
#0851a:24
#0311a:14
#03112:0014
#04618:00140000
#04614:0014
#0461a:00000014
#04612:14
#07718:0014
#07714:00000014
#08114:00140000
#0811a:14
#08112:00000014
#08118:0014
#09214:0014
#09218:00000014
#0921a:14
#10018:14
#00914:0014
#00918:00000014
#01018:0014
#01014:00000014
#01114:0014
#0111a:00000014
#01218:0014
#01212:00000014
#01314:0014
#0131a:00000014
#01418:0014
#01412:00000014
#01514:0014
#0151a:00000014
#01612:14
#01718:1414
#01710:41
#01812:14
#0181a:0014
#01914:1414
#0201a:14
#02012:0014
#0211a:1414
#02214:14
#02218:0014
#02312:1414
#02418:14
#02414:0014
#02618:1414
#02614:00140000
#02712:1414
#0271a:00140000
#02512:00140014
#0251a:1414
#02818:1414
#02814:00140014
#03218:14
#03214:0014
#00312:0014
#0031a:14
#00412:0014
#0041a:14
#04212:13
#04215:00130000
#04218:0013
#0421b:00000013
#04318:00140000
#04312:0014
#0431a:00000014
#04314:24
#04310:41
#00718:00000014
#00712:14
#00713:0014
#00719:00140000
#00814:14
#00518:1414
#00514:00140014
#00612:0014
#0061a:00000014
#04414:14
#04418:00140000
#04412:0014
#0441a:00000014
#04514:14140000
#04518:00001414
#04712:14
#0471a:00140000
#04714:0014
#04718:00000014
#04818:0014
#04814:00000014
#0491a:14
#04913:00140000
#04919:0014
#04912:00000014
#05414:00140000
#05418:0014
#05412:00000014
#0541a:14
#05114:00140000
#0511a:0014
#05112:00000014
#05118:24
#05218:14
#05214:00140000
#0521a:0014
#05212:00000014
#05318:14140000
#05314:00001414
#0551a:14
#05512:00140000
#05518:0014
#05514:00000014
#05510:41
#05614:0014
#05618:00000014
#05712:14
#05719:00140000
#05713:0014
#0571a:00000014
#05814:14
#05818:0014
#05912:14
#0591a:00140000
#05914:0014
#05918:00000014
#06012:14
#07312:00140000
#07316:0014
#0731a:00000014
#07414:1414
#07418:00140014
#07616:14
#07514:14
#07914:14
#07918:00140000
#07912:0014
#07916:00000014
#08218:14000014
#08212:0014
#0821a:00240000
#0831a:00140000
#08314:1414
#08318:00000014
#08412:14
#08418:0014
#08414:00000014
#0881a:00000014
#08812:14
#08818:00140000
#08814:0014
#08918:00140000
#08912:14
#0891a:00000014
#08914:0014
#08718:14
#08714:00140000
#0871a:0014
#08716:00000014
#09014:14000014
#0901a:0014
#09012:00240000
#09010:41
#09112:00140000
#09118:1414
#09114:00000014
#0861a:14
#08614:00140000
#08618:0014
#08612:00000014
#09514:0014
#09518:00000014
#0951a:14
#09618:0014
#09614:00000014
#09612:14
#09718:14000014
#09712:0014
#09814:14000014
#0981a:0014
#09918:1414
#09912:00140014
#10114:1414
#1011a:00140000
#0691f:11
#00118:26
#07818:00000026
#0781f:00000021
#06814:00000024
#10212:24
#00212:26
#04014:0000000000343434
#07018:00000000000000000000003400000000
#0701a:0000000000000034
#07114:00000000000000000000003400000000
#07116:0000000000000034
#07218:00000000000000000000003400000000
#07216:0000000000000034
#02910:41
#07858:00000016
#08052:00000014
#09452:14
#04354:14
#0315a:14
#03152:0014
#0465a:00000014
#06854:00000014
#07752:16
#0855a:14
#1005a:0014
#10058:54
#10252:14
#01652:14
#03258:14
#03254:0014
#03458:0014
#03654:0014
#0385a:0014
#04152:18
#00352:0014
#0035a:14
#00158:16
#00854:14
#0065a:00140000
#04852:00140000
#05058:14
#05452:00000014
#05854:14
#05158:14
#0565a:00140000
#06052:14
#0645a:0014
#0715a:14
#07256:14
#07356:14
#07656:64
#07554:64
#08258:54
#0825a:00140000
#08452:14
#0885a:00000014
#09054:64
#09052:00140000
#0925a:14
#0955a:64
#09652:54
#09758:54
#09854:64
#10154:0064
#00252:16
#0045a:14
#0063a0:14240000
#009380:14240000
#010340:14240000
#0113a0:14240000
#012320:14240000
#013380:14240000
#014340:14240000
#015380:14240000
#0293a0:14240000
#029320:00001424
#030380:14240000
#030340:00001424
#0333a0:14000034
#033380:00343400
#0343a0:34
#034380:00342400
#035320:14000034
#035340:00343400
#036320:34
#036340:00342400
#0373a0:1434
#037380:00340034
#0383a0:3424
#038380:00340000
#039320:1434
#039340:00340034
#040320:34
#040340:0000340034343434
#041320:28
#048320:14240000
#0563a0:14240000
#0613a0:14340000
#061380:00000034
#0623a0:00340000
#062380:00000034
#0633a0:00340000
#063380:00000034
#0643a0:00342400
#065320:14340000
#065340:00000034
#066320:00340000
#066340:00000034
#067320:00340000
#067340:00000034
#068320:00340000
#068340:00000024
#069380:14340034
#0693a0:0034
#0703a0:3400000000000034
#070390:0034000000000000
#070380:00000000340000000000003400000000
#070370:0000003400000000
#070360:0034
#0713a0:24
#071320:0014
#071340:00000000000000000000003400000000
#071360:0000000000000034
#072360:24
#0723a0:0014
#072380:00000000000000000000003400000000
#072360:0000000000000034
#073360:24
#075340:14
#075320:00000000000034000034000000000000
#076360:34
#077320:26
#078380:14000026
#082380:14
#0823a0:00240000
#090340:14
#090320:00240000
#0953a0:14
#095380:00240000
#096320:14
#096340:00240000
#097380:14
#0973a0:00240000
#098340:14
#098320:00240000
#100380:14
#1003a0:0024
#101340:0014
#102320:24
