This file was generated by Ched 2.7.0.0.
#TITLE ""
#ARTIST ""
#DESIGNER ""
#DIFFICULTY 0
#PLAYLEVEL
#SONGID ""
#WAVE ""
#WAVEOFFSET 0
#JACKET ""
#REQUEST "ticks_per_beat 480"
#00002: 4
#BPM01: 180
#00008: 01
#TIL00: ""
#VOLUME: ""
#HISPEED 00
#MEASUREHS 00
#00219:14
#00319:14
#00413:14
#00513:14
#0061a:14
#00610:41
#00714:14
#0081a:14
#00914:14
#00918:0014
#01012:14
#01118:14
#01414:14
#01514:14
#01618:14
#01718:14
#01812:14
#01810:41
#01918:14
#02014:14
#0211a:14
#02112:0014
#02218:14
#02314:14
#02812:0016
#02818:26
#02810:41
#02918:16
#02912:0016
#03018:16
#03012:0016
#03212:16
#03218:0016
#03312:16
#03318:0016
#03412:16
#03418:0016
#03618:1616
#03818:1616
#03712:1616
#04012:1616
#04212:1616
#04118:1616
#0461a:14
#04614:0014
#04610:41
#0471a:14
#04812:14
#04818:0014
#04912:14
#05018:14
#05014:0014
#0511a:14
#05214:14
#05218:0014
#0541a:14
#0541f:11
#05612:14
#05818:14
#06014:14
#06412:14
#06418:0026
#0641f:00210000
#06818:1616
#07018:1616
#06912:1616
#07212:1616
#07412:1616
#07318:1616
#0781a:1414
#07810:41
#08012:1414
#08218:16
#03118:26
#03918:26
#06118:0026
#07118:26
#07618:26
#07612:0026
#07718:26
#07712:0026
#08312:26
#06510:41
#0545a:64
#05652:54
#05858:64
#06054:54
#08352:66
#012320:1424
#0133a0:1424
#0243a0:1424
#025320:1424
#031380:1626
#035320:1626
#039380:1626
#043320:1626
#053320:1424
#0543a0:14
#055380:24
#056320:14
#057340:24
#058380:14
#0593a0:24
#060340:14
#061320:24
#065320:1626
#066380:1626
#067320:1626
#071380:1626
#075320:1626
#0793a0:1424
#081320:1424
#083320:16000000000000000000000000000024
