This file was generated by Ched 2.7.0.0.
#TITLE ""
#ARTIST ""
#DESIGNER ""
#DIFFICULTY 0
#PLAYLEVEL
#SONGID ""
#WAVE ""
#WAVEOFFSET 0
#JACKET ""
#REQUEST "ticks_per_beat 480"
#00002: 4
#BPM01: 180
#00008: 01
#TIL00: ""
#VOLUME: ""
#HISPEED 00
#MEASUREHS 00
#00012:13
#00015:00130000
#00018:0013
#0001b:00000013
#00115:1313000000000000
#00118:0000131300000000
#00112:0014
#00116:0000000000140000
#0011a:00000014
#00218:0013001300000000
#00215:00130013
#00212:2400000014000013
#00415:0013001300000000
#00418:00130013
#0041a:2414
#0041b:0000000000000013
#00315:0013000000130000
#00318:0013
#00312:00000013
#00518:0013000000130000
#0051b:00000013
#00515:0013
#00612:24140000
#00618:00001313
#00615:0000000000130013
#00610:41
#0071a:14140000
#00715:00001313
#00718:0000000000130013
#00812:1400000000130000
#0081b:00130000
#00815:0000001300000000
#00818:0013
#0081a:00000014
#00912:14141400
#00915:0000001400000000
#00914:0014000000000000
#00916:0000000000140000
#01015:0013001300000000
#01018:00000000130000000033330000000000
#0101b:0013
#0101a:24
#01112:1413
#01118:0013001300000000
#01115:0000130000330000
#0131b:13
#01313:00130000
#0131a:00130000
#01314:0023
#01415:0013001300000000
#01418:00130013
#0141a:2414
#0141b:0000000000000013
#01618:0013001300000000
#01615:00130013
#01612:2400000014000013
#01518:0013000000130000
#01515:0013
#0151a:00000014
#01715:0013000000130000
#01718:0013
#01712:00000014
#0181a:24140000
#01815:00001313
#01818:0000000000130013
#01810:41
#01912:14140000
#01918:00001313
#01915:0000000000130013
#0201a:14240000
#02014:0014000000000000
#02016:0024
#02012:00000024
#0211a:14141400
#02117:0000001400000000
#02118:0014000000000000
#02116:0000000000140000
#02218:0013001300000000
#02215:00000000130000000033330000000000
#02212:2413
#0231a:14
#02315:0013001300000000
#02318:0000130000330000
#0231b:0013
#0241b:00130000
#02412:00000013
#02518:0013001300000000
#02515:13130000
#0251b:0023
#01215:00130000
#01218:00000013
#02718:0013
#02715:0000000000130000
#0271a:00000014
#02712:0000001300000000
#02817:0014000000000000
#02813:00140000
#02818:0000001400000000
#02814:0014
#02812:24
#02810:41
#0291a:14
#02915:0014000000000000
#02919:00140000
#02914:0000001400000000
#02918:0024
#03012:14
#03017:0014000000000000
#03013:00140000
#03018:0000001400000000
#03014:0024
#0311a:1414
#03118:00140024
#03112:0014000000140000
#03114:0000001400000000
#0321a:0014000000000000
#03213:00140000
#03219:0000001400000000
#03212:0014
#03214:24
#03318:14000054
#03312:0014000000000000
#03319:00140000
#03313:0000001400000000
#0331a:00000000000000000000000000000000000000000000000000000000000000001400000000000000000000000000000000540000000000000000000000000000
#03412:14000000000000000000000000000000005400000000000000000000000000000000000000000000000000000000000000000000000000000000000000000000
#0341a:00000000000000000000000000000000000000000000000000000000000000001400000000000000000000000000000000540000000000000000000000000000
#03414:00540000
#03418:00000054
#03514:14140054
#03518:0014001400000000
#03512:00000000000000000000000000000000000000000000000000000000000000001400000000000000000000000000000000540000000000000000000000000000
#03615:0013001300000000
#0361a:24140000
#03612:0000000000130013
#03618:00002414
#03715:0013001300000000
#0371a:24140000
#03718:0014
#03818:0013001300000000
#03812:24140000
#0381b:0000000000130013
#03814:00002414
#04015:0013000000130000
#04019:00140000
#04014:0000001300000000
#04018:00000014
#04013:0000000000000013
#0401a:2424
#04115:0013000000000000
#04117:00140000
#04112:0000001300000000
#0411a:2414
#04218:0013000000130000
#04213:00140000
#04219:0000001300000000
#04214:00000014
#0421a:0000000000000013
#04212:2424
#04312:1414
#04318:0014000000000000
#04314:00140000
#0431a:00000000000000000000000000000000000000000000001400000000000000000000000000000000000000000000000000000000000000000000000000000000
#04315:00000054
#04313:00000000000000000000000000000000000000000000000000000000000000000000000000000000000000000000000000540000000000000000000000000000
#04518:00000016
#04512:00000016
#04519:0000240024240000
#04513:0000240024240000
#04618:0014000023002300
#04612:24140000
#04615:0000000000230023
#04610:41
#04812:1414
#04818:0014000000140000
#04814:00140014
#0481a:0000001400000000
#04917:13131300
#0491a:0000001300000000
#04919:0013000000000000
#0491b:0000000000130000
#04912:13131300
#04915:0000001300000000
#04914:0013000000000000
#04916:0000000000130000
#05015:0013001300000000
#05018:00000000130000000033330000000000
#0501b:0013
#0501a:24
#05212:00140000
#0521a:00000014
#05318:14
#05314:0014000000000000
#05319:00140000
#05313:0000001400000000
#05312:0024
#05112:13000000000033331300000000000000
#05115:00333300130000000000333300000000
#05418:00120012
#05416:0000001200120000
#0541a:0012
#05414:0000000000000012
#0541f:11
#05419:25
#05412:25
#0551a:12
#05516:0012
#05518:0032323200000000
#05514:0000000000323232
#05618:00120012
#05616:0000001200120000
#0561a:0012
#05816:00120012
#05818:0000001200120000
#05814:0012
#0581a:0000000000000012
#05819:25
#05812:25
#05914:12
#05918:0012
#05916:0032323200000000
#0591a:0000000000323232
#06016:00120012
#06018:0000001200120000
#06014:0012
#06315:0013
#06318:0000000000130000
#06312:00000014
#0631b:0000001300000000
#06514:14000000000000000000000000000000000000000000000000000000000000001400000000000000000000000000000000540000000000000000000000000000
#06518:0014001400000000
#06512:00140054
#06510:41
#06718:14000000000000000000000000000000000000000000000000000000000000001400000000000000000000000000000000540000000000000000000000000000
#06714:0014001400000000
#0671a:00140054
#06914:0014
#06912:2414000000000000
#06918:0000241400000000
#07218:0000241400002400
#07212:2414000024000000
#07213:0000000000140000
#07219:0000000000000014
#07312:2414
#07314:0014000000000000
#0731a:0000001400000000
#07318:00240000
#0751a:1414
#07514:0014000000000000
#07518:00140000
#07512:0000001400000000
#07517:00000054
#07519:00000000000000000000000000000000000000000000000000000000000000000000000000000000000000000000000000540000000000000000000000000000
#0641a:0014
#06418:00240000
#06414:00240000
#0641f:00210000
#06618:14000000000000000000000000000000005400000000000000000000000000000000000000000000000000000000000000000000000000000000000000000000
#06614:00000000000000000000000000000000000000000000000000000000000000001400000000000000000000000000000000540000000000000000000000000000
#0661a:00540000
#06612:00000054
#06812:2414000000000000
#06814:0000000024140000
#06818:0000241400000000
#0681a:0000000000002414
#0701a:2414000000000000
#07018:0000000024140000
#07014:0000241400000000
#07012:0000000000002414
#07414:0000241400002400
#0741a:2414000024000000
#07419:0000000000140000
#07413:0000000000000014
#07618:0014000000140000
#07614:00140014
#07619:0000001400000000
#0761a:0000000000000014
#07613:24
#07612:0024
#07717:0014000000000000
#07715:00140000
#0771a:0000001400000000
#07712:24002626
#07718:0000000000260000
#07815:0013001300000013
#07818:00130000
#0781a:2414
#07810:41
#08018:0013001300000013
#08015:00130000
#08012:2414
#07915:0000001300130000
#07918:0013
#0791b:0013000000000000
#0791a:00000024
#08118:0000001300130000
#08115:0013
#08112:0013000000002400
#0821a:0014
#08216:0000000000140000
#08214:0000141400000000
#08218:1424000000000000
#08212:00000024
#03912:24242400
#03917:0024002400000000
#04419:24
#04413:24
#0471a:24242400
#04712:0024002400000000
#0711a:24242400
#07115:0024002400000000
#08313:2a
#08317:00000000000000000000000000000062
#0015a:00000014
#00255:00000063
#00252:0000000064000063
#00355:0063000000000000
#00352:00000013
#00458:00000053
#0045a:0054
#0045b:0000000000000053
#00558:0053000000000000
#0055b:00000013
#00952:64646434
#00955:0000002400000000
#00954:0024000000000000
#00956:0000000000240000
#01058:00000013
#0105b:0063
#01152:0053
#01155:00000013
#01358:00000013
#01355:00000013
#01458:00000053
#0145a:0054
#0145b:0000000000000053
#01558:0053000000000000
#0155a:00000014
#01655:00000063
#01652:0000000064000063
#01755:0063000000000000
#01752:00000014
#0215a:54545444
#02157:0000002400000000
#02158:0024000000000000
#02156:0000000000240000
#02252:0053
#02255:00000013
#0235b:0063
#02358:00000013
#02552:00000013
#0255b:00000013
#0275a:00000014
#02854:0064
#02852:00000014
#0295a:00000014
#02958:0064
#03052:00000014
#03054:0054
#03158:00000014
#0335a:0054
#03252:0054
#03254:00000014
#03452:64
#0345a:0054
#03552:0064
#0375a:00000014
#03758:0064
#03954:00000014
#03952:0064
#0415a:0064
#04157:00000014
#04352:0064
#04558:00000016
#04552:00000016
#04957:63636333
#0495a:0000002300000000
#04959:0023000000000000
#0495b:0000000000230000
#04952:63636333
#04955:0000002300000000
#04954:0023000000000000
#04956:0000000000230000
#0505b:0063
#05058:00000013
#0535a:00000014
#05352:00000014
#04652:00140000
#04756:00000014
#04854:00000014
#05152:5353
#05155:00630013
#0555a:62
#05556:0062
#05654:12
#05755:00000014
#05954:52
#05958:0052
#0605a:12
#06352:00000014
#06554:0054
#06954:0054
#06952:00000014
#07352:0054
#07355:00000014
#0755a:0054
#0715a:0054
#07158:00000014
#06458:00140014
#06454:00140000
#0645a:0064
#06658:64
#06654:0054
#06758:0064
#07752:00000016
#0785a:0054
#07858:00000013
#07855:0000000000000013
#0795b:0013000000000000
#08052:0064
#08058:0000000000000013
#08055:00000013
#08152:0013000000000000
#08252:00000014
#08353:6a
#06157:00000014
#002320:0000000014000033
#002350:00000033
#003350:0033000000000000
#003320:0000002300000000
#0043a0:0014
#004380:00000033
#0043b0:0000000000000033
#005380:0033000000000000
#0053b0:0000002300000000
#009320:14343424
#009340:0054000000000000
#009350:0000005400000000
#009360:0000000000540000
#0103b0:0013
#010380:00000000000000000033330023000000
#011320:0013
#011350:0000000000332300
#0123b0:1323
#012321:0013
#013321:23
#013391:0013
#013381:00000000000000000053000023000000
#013340:0013
#013350:00000000000000000053000023000000
#0143a0:0014
#014380:00000033
#0143b0:0000000000000033
#015380:0033000000000000
#0153b0:0000002300000000
#016320:0000000014000033
#016350:00000033
#017350:0033000000000000
#017320:0000002300000000
#0213a0:14343424
#021380:0054000000000000
#021370:0000005400000000
#021360:0000000000540000
#022320:0013
#022350:00000000000000000033330023000000
#0233b0:0013
#023380:0000000000332300
#024350:1323
#024381:0013
#025381:23
#025321:00001323
#0253b0:00001323
#028340:0014
#028320:00000024
#029380:0014
#0293a0:00000024
#030340:0014
#030320:00000024
#032320:0014
#032340:00000024
#0333a0:0014
#033380:00000024
#034320:14
#034340:00240000
#0343a0:0014
#034380:00000024
#035320:0014
#035340:00000024
#037380:0014
#0373a0:00000024
#039320:0014
#039340:00000024
#0413a0:0014
#041370:00000024
#043320:0014
#043350:00000024
#044390:1400000000000054005400000000005400540000005400540000005400540000
#044380:00000000360000003600003600003600
#045390:24
#044331:1400000000000054005400000000005400540000005400540000005400540000
#044321:00000000360000003600003600003600
#045331:24
#0473a1:0014
#047361:00000000000000000054000024000000
#049371:13333323
#049391:0053000000000000
#0493a1:0000005300000000
#0493b1:0000000000530000
#049320:13333323
#049340:0053000000000000
#049350:0000005300000000
#049360:0000000000530000
#0503b0:0013
#050380:00000000000000000033330023000000
#051320:13000000000033333300000000000000
#051350:00333300330000000000333323000000
#052380:1424
#052341:0014
#053341:24
#0533a1:00001424
#053320:00001424
#0553a0:12
#055380:0032323222000000
#055361:0012
#055341:0000000000323232
#056341:22
#056341:0000000000000012
#057341:0032000000000000
#057351:00333424
#057321:0000003400000000
#059341:12
#059361:0032323222000000
#059380:0012
#0593a0:0000000000323232
#0603a0:22
#0603a0:0000000000000012
#0613a0:0032003400000000
#061380:00330000
#061370:00003424
#0643a0:14
#064380:00540000240000000000000000000000
#064321:14
#064341:00540000240000000000000000000000
#0643a1:0014
#064381:00000024
#065341:0014
#065321:00000024
#066381:14
#0663a1:00240000
#066341:0014
#066321:00000024
#067381:0014
#0673a1:00000024
#069341:0014
#069321:00000024
#0713a1:0014
#071381:00000024
#073321:0014
#073351:00000024
#0753a1:0014
#075371:00000024
#0783a1:0014
#078381:00000023
#080321:0014
#080351:00000023
#083331:1a
#083371:00000000000000000000000000000022
#033980:00000014
#0339a0:00000000000000000000000000000000000000000000000000000000000000000000000000000000000000000000000000240000000000000000000000000000
#034940:00140000
#034920:00000000000000000000000000000000002400000000000000000000000000000000000000000000000000000000000000000000000000000000000000000000
#034980:00000014
#0349a0:00000000000000000000000000000000000000000000000000000000000000000000000000000000000000000000000000240000000000000000000000000000
#035940:00000014
#035920:00000000000000000000000000000000000000000000000000000000000000000000000000000000000000000000000000240000000000000000000000000000
#043950:00000014
#043930:00000000000000000000000000000000000000000000000000000000000000000000000000000000000000000000000000240000000000000000000000000000
#065920:00000014
#065940:00000000000000000000000000000000000000000000000000000000000000000000000000000000000000000000000000240000000000000000000000000000
#0669a0:00140000
#066980:00000000000000000000000000000000002400000000000000000000000000000000000000000000000000000000000000000000000000000000000000000000
#066920:00000014
#066940:00000000000000000000000000000000000000000000000000000000000000000000000000000000000000000000000000240000000000000000000000000000
#0679a0:00000014
#067980:00000000000000000000000000000000000000000000000000000000000000000000000000000000000000000000000000240000000000000000000000000000
#075970:00000014
#075990:00000000000000000000000000000000000000000000000000000000000000000000000000000000000000000000000000240000000000000000000000000000
