This file was generated by Ched 2.7.0.0.
#TITLE ""
#ARTIST ""
#DESIGNER ""
#DIFFICULTY 0
#PLAYLEVEL
#SONGID ""
#WAVE ""
#WAVEOFFSET 0
#JACKET ""
#REQUEST "ticks_per_beat 480"
#00002: 4
#BPM01: 170
#00008: 01
#TIL00: ""
#VOLUME: ""
#HISPEED 00
#MEASUREHS 00
#00418:14
#00512:14
#0061a:14
#00818:14
#00912:14
#0101a:14
#02018:14
#02112:14
#0221a:14
#03118:0016
#03112:26
#03110:41
#03212:16
#03218:0016
#03512:0016
#03518:16
#03618:16
#03612:0016
#03912:2616
#03910:41
#04018:1616
#04318:1616
#04412:1616
#05618:0014
#05614:24
#0561f:21
#05712:14
#0571a:0014
#05710:41
#06014:0014
#06018:14
#0611a:14
#06112:0014
#06412:2414
#0651a:1414
#0681a:1414
#06912:1414
#08214:0014
#0821a:24
#08318:14
#08312:0014
#02312:14
#02310:41
#02412:14
#02518:14
#02618:14
#02714:14
#02814:14
#0291a:14
#0301a:14
#00714:14
#0471f:11
#00314:24
#01914:24
#07214:24
#0741a:24
#07414:0024
#07410:41
#07518:24
#07512:0024
#07812:24
#07818:0024
#07914:24
#0791a:0024
#08618:26
#01110:41
#011320:14
#012320:24
#013380:14
#014380:24
#015340:14
#016340:24
#0173a0:14
#0183a0:24
#033320:16
#034320:26
#037380:16
#038380:26
#041320:16
#042320:26
#045380:16
#046380:26
#047340:14
#048320:34
#049340:34
#050320:24
#051380:14
#0523a0:34
#053380:34
#0543a0:24
#058340:14
#059340:24
#062380:14
#063380:24
#066340:14
#067340:24
#070380:14
#071380:24
#072340:14
#073320:24
#0763a0:14
#076380:0034
#0773a0:3424
#080320:14
#080340:0034
#081320:3424
#0843a0:1424
#085320:1424
#086380:16
#087380:00000026
