This file was generated by Ched 2.7.0.0.
#TITLE ""
#ARTIST ""
#DESIGNER ""
#DIFFICULTY 0
#PLAYLEVEL
#SONGID ""
#WAVE ""
#WAVEOFFSET 0
#JACKET ""
#REQUEST "ticks_per_beat 480"
#00002: 4
#BPM01: 170
#00008: 01
#TIL00: ""
#VOLUME: ""
#HISPEED 00
#MEASUREHS 00
#00612:2313
#0061b:0000001300000000
#00618:0013000000000000
#00615:00130000
#00516:00140014
#00415:00000014
#00417:00140000
#00314:00000014
#00318:00140000
#00916:00140014
#00817:00000014
#00815:00140000
#00718:00000014
#00714:00140000
#0111b:00000013
#01115:0000000000130000
#01118:0013
#01112:0000240000000013
#0111a:00240000
#01110:41
#01212:0000001300000000
#01217:0013
#01214:0000000000130000
#01219:00000013
#01216:0000000000000013
#01218:13
#01418:00130000
#01415:00130000
#0141a:24
#01412:24
#01515:0013
#01512:14000013
#01518:0000000000130000
#0151b:0000000000000013
#0151a:00240000
#01615:13
#0161b:0000001300000000
#01616:0013
#01619:0000000000130000
#01614:00000013
#01617:0000000000000013
#01812:0013000000000000
#01818:00130000
#01815:0000001300000000
#0181b:0013
#02116:00140014
#02015:00000014
#02017:00140000
#01914:00000014
#01918:00140000
#02315:0013
#02318:0000000000130000
#02312:00240013
#0231b:0000000000000013
#0231a:00240000
#02310:41
#02415:13000013
#0241b:0013
#02412:0000000000000013
#02418:0000000000130000
#0261b:00130000
#02612:00130000
#02618:23
#02615:23
#02718:0000001300000000
#0271b:0000000000130000
#02715:0013
#02712:0000240000000013
#0271a:14
#02818:13
#03017:13000053
#03016:0013
#03012:13000053
#0301b:0013
#03014:0000000000530000
#03013:00000000000000000000005300000000
#03015:00000000000000000053000000000000
#03019:0000000000530000
#03018:00000000000000000000005300000000
#0301a:00000000000000000053000000000000
#03118:00000013
#03115:0000000000130000
#03112:2400000000000013
#0311b:0023
#03110:41
#03218:00130000
#0321b:2313
#03212:0000000000000013
#03315:0013000000000000
#03318:00130000
#03312:0000001300000023
#0331b:2313
#03418:0000240000130000
#03415:00000013
#03412:0000000000000013
#03414:0000002400000000
#03515:00000013
#03518:0000000000130000
#0351b:0000000000000013
#03517:0014000000000000
#0351a:24
#03512:0023
#03615:00140000
#03612:2414
#03618:0000000000000024
#03712:0013000000000024
#03718:00130013
#03715:0000001300130000
#0371b:0013
#01718:00000014
#01712:24
#01716:00240000
#0171a:0024
#03819:00000013
#03816:00000014000000000000000000000000
#03814:00000023
#03915:00000013
#03918:0000000000130000
#0391b:0000000000000013
#0391a:24
#03912:0023
#03910:41
#04015:00130000
#04012:2313
#0401b:0000000000000013
#04118:0013000000000000
#04115:00130000
#0411b:0000001300000023
#04112:2313
#04214:00240013
#04219:00000013
#04218:0000002400000000
#04315:00130000
#04318:13
#0431b:00130000
#04314:00000014
#04312:23
#0431a:0000000000000024
#04417:0014000000000000
#0441a:0000001400000000
#04414:0000000000000024
#04614:00000013
#04616:00000014000000000000000000000000
#04619:00000023
#05615:00000013
#05618:0000000000130000
#05614:24
#05612:0023
#0561f:21
#05715:00130000
#05712:2313
#0571b:1313
#05718:00130000
#05710:41
#05818:0013000000000000
#05815:00130000
#0581b:0000001300000000
#05812:2314
#0581a:0000000000000024
#05915:0000000000130000
#05918:0000002400001300
#05914:00240000
#06018:14000013
#06015:0000000000130000
#06012:2400000000000013
#06014:0014000000000000
#0601a:0014000000000000
#0601b:0023
#06117:00140000
#0611a:2414
#06114:0000000000000024
#0621b:0013000000000000
#06215:00130013
#06218:0000001300130000
#06212:0013
#0621a:0000000000000024
#06314:00000013
#06317:00000014000000000000000000000000
#06319:00000023
#06719:00000013
#06714:0000002400001300
#06718:00240000
#06818:00130014
#06815:13
#06812:0000130000000024
#0681b:23
#06915:0014000000000000
#06912:0000001400000000
#06918:0000000000000024
#07012:0013000000000024
#07018:00130013
#07015:0000001300130000
#0701b:0013
#07118:00000013
#07115:00000014000000000000000000002300
#06418:24000013
#06415:0000000000130000
#0641b:0023
#06518:00130000
#0651b:2313
#06512:1300000013000013
#06515:00130000
#06615:0013000000000000
#06618:00130000
#06612:0000001300000024
#0661a:0014
#0661b:23
#0731b:0013
#07316:0023
#07319:0000000000530000
#07318:00000000000000000000005300000000
#0731a:00000000000000000053000000000000
#07317:00000053
#07312:00000063
#07313:00000000000000000000006300000000
#07314:0000000000630000
#07315:00000000000000000063000000000000
#07615:00130013
#07618:0000130000000013
#0761b:13
#07612:23
#07718:0000001300002400
#07715:00130000
#07714:0000000000240000
#08418:1313
#08415:0013000000130000
#08412:0000001300000000
#0841a:00240024
#08515:1313
#08518:0013001300000000
#08512:00240024
#0851a:0000000000240024
#00018:1212
#00016:00120012
#05518:0013
#05512:0023
#01318:0013000000000000
#01315:0000000000130000
#0131b:23
#01312:0023
#0751a:00000014
#07514:00000014
#08018:00130013
#08012:13
#08015:0000130000000013
#0801b:23
#07912:00000014
#07918:00000014
#0451b:0013000000000000
#04515:00130013
#04518:0000001300130000
#04512:0013
#0451a:0000000000000024
#04713:0014
#0471f:11
#04712:24
#04812:14
#04814:0014
#04912:14
#04914:0014
#05012:14
#05013:0014
#05119:0014
#0511a:14
#0521a:14
#05218:0014
#0531a:14
#05318:0014
#0541a:14
#05419:0014
#08115:0000001300000000
#08118:00130000
#0811a:0000000000240000
#00215:00000023
#00218:0000000000000023
#0021b:0000000000230000
#07412:24
#07410:41
#08212:2400640000000064
#08214:00006464
#08213:0000006400000000
#08714:0000000000240000
#08718:00000024
#0101b:2323
#01015:0023000000000000
#01012:0000002300000000
#01018:00230033
#01019:0000000000330000
#02212:2323
#02215:00230033
#02218:0023000000000000
#0221b:0000002300000000
#02214:0000000000330000
#02518:23
#02515:0023
#0781a:24
#07212:0000000000000063
#08312:0000006464000000
#08314:0064000000000000
#00655:00000013
#00652:0063
#01057:0000000000000013
#0145a:5444
#01458:00230000
#01455:00230000
#01452:6434
#01655:53
#01858:00000013
#0185b:0053
#02256:0000000000000013
#02455:53
#01258:53
#02658:5313
#0265b:00530000
#02652:00630000
#02655:6313
#02858:63
#03057:53
#03052:53
#03258:00530000
#0325b:5363
#0335b:0063
#03352:0000000000000063
#03454:0000001400000000
#03458:00140000
#03152:00140000
#03655:00640000
#03652:6454
#03658:0000000000000014
#03654:00000014
#01758:00000024
#0175a:0054
#03752:0000000000000054
#04055:00630000
#04052:6353
#04152:0053
#0415b:0000000000000053
#04258:0000001400000000
#04254:00140000
#0395a:00140000
#04352:53
#04355:00230000
#04358:53
#0435b:00230000
#0435a:0000000000000054
#04457:0064000000000000
#04458:00000014
#04454:0000000000000014
#0445a:0000005400000000
#05755:00630000
#05752:6353
#0575b:5353
#05758:00530000
#05852:0054
#0585a:0000000000000054
#06157:00540000
#0615a:5464
#06154:0000000000000014
#06158:00000014
#05958:0000001400000000
#05954:00140000
#0625a:0000000000000064
#05654:00140000
#0565a:00140000
#06052:54140000
#06058:54140000
#0605a:0024000000000000
#06054:0024000000000000
#05552:0063
#05558:0053
#06858:00230000
#06855:63
#06852:0000230000000054
#0685b:63
#06955:0054000000000000
#06952:0000006400000000
#06958:0000000000000014
#06954:00000014
#07052:0000000000000054
#06558:00530000
#0655b:5363
#06552:6363
#06555:00630000
#06754:0000001400000000
#06758:00140000
#06458:00140000
#06452:00140000
#07155:00000024000000000000000000005300
#07552:0014
#07558:0014
#07652:5333
#07658:0000230000000063
#07655:00230000
#0765b:6343
#07758:0000001300000000
#08157:0000000000000014
#0815a:0000000000540000
#08155:0000001300000000
#08352:0014
#0845a:00140014
#0855a:0000000000000014
#08552:00140000
#0355a:54440000
#03557:0024000000000000
#0135b:53
#01358:0023000000000000
#01355:0000000000230000
#01352:0063
#02558:53
#02555:0063
#0665a:0064
#06652:0000000000000064
#08058:00230000
#08055:0000230000000053
#0805b:6343
#08052:6333
#0795a:0014
#07954:0014
#03856:00000024000000000000000000000000
#04656:00000024000000000000000000000000
#0455a:0000000000000064
#04752:64
#04753:0064
#04852:64
#04854:0064
#04952:64
#04954:0064
#05052:64
#05053:0064
#05159:0054
#0515a:64
#0525a:54
#05258:0054
#0535a:54
#05358:0054
#0545a:54
#05459:0054
#06357:00000024000000000000000000000000
#003320:1323
#0033b1:0013
#0043b1:23
#004320:1323
#0043b1:0013
#0053b1:23
#005320:1323
#0053b1:0013
#0063b1:23
#006321:0013
#006351:00000023
#0073b1:1323
#007320:0013
#008320:23
#0083b1:1323
#008320:0013
#009320:23
#0093b1:1323
#009320:0013
#010320:23
#0103b0:0013
#010390:0000000000330000
#010380:00000033
#010370:0000000000000023
#012380:13
#0123b0:00230000
#0133b0:13230000
#013380:0053000000000000
#013320:00001323
#013350:0000000000530000
#0143a0:1424
#014380:00330000
#014321:1424
#014351:00330000
#016351:13
#016321:00230000
#0173a1:0014
#017381:00000054
#0183a1:24
#0183b1:0013
#018381:00000023
#019321:1323
#0193b0:0013
#0203b0:23
#020321:1323
#0203b0:0013
#0213b0:23
#021321:1323
#0213b0:0013
#0223b0:23
#022320:0013
#022340:0000000000330000
#022350:00000033
#022360:0000000000000023
#024350:13
#024320:00230000
#025380:13
#0253b0:00230000
#025350:0013
#025320:00000023
#026380:1323
#0263b0:00330000
#026351:1323
#026321:00330000
#028381:13
#0283b1:00230000
#028371:00001323
#028320:00001323
#029360:13230000
#0293b1:13230000
#029341:00001323
#029390:00001323
#030370:13
#0303b0:00230000
#030321:13
#030361:00230000
#031321:14240000
#0323b1:1333
#032381:00330023
#0333b1:0013
#033381:00000023
#033321:0000000000000013
#034351:0023000000000000
#0353a1:14240000
#035371:0054000000000000
#036321:1434
#036351:00340000
#036341:00000024
#037321:0000000000000014
#038361:00000054000000000000000000000000
#038321:0024
#0393a1:14240000
#040321:1333
#040351:00330023
#041321:0013
#041351:00000023
#0413b1:0000000000000013
#042381:0023000000000000
#043321:1323
#043351:00530000
#043380:1323
#0433b0:00530000
#0433a0:0000000000000014
#044370:0034000000000000
#0443a0:0000003400000000
#044380:00000024
#0453a0:0000000000000014
#046360:00000054000000000000000000000000
#0463a0:0024
#047320:14
#047330:0034
#048320:34
#048340:0034
#049320:34
#049340:0034
#050320:34
#050330:0034
#051320:24
#0513a1:14
#051391:0034
#0523a1:34
#052381:0034
#0533a1:34
#053381:0034
#0543a1:34
#054391:0034
#0553a1:24
#055321:0013
#055351:00000023
#055380:0013
#0553b0:00000023
#056340:14240000
#0563a1:14240000
#057321:1333
#057351:00330023
#0573b0:1333
#057380:00330023
#058320:0014
#058340:00000024
#0583a0:0000000000000014
#059380:0024000000000000
#060320:14240000
#060340:0054000000000000
#060381:14240000
#0603a1:0054000000000000
#0613a1:1434
#061371:00340000
#061381:00000024
#0623a1:0000000000000014
#063371:00000054000000000000000000000000
#0633a1:0024
#064381:14240000
#064320:14240000
#0653b0:1333
#065380:00330023
#065321:1333
#065351:00330023
#0663a1:0014
#066381:00000024
#066321:0000000000000014
#067341:0024000000000000
#0683b1:1323
#068381:00530000
#068350:1323
#068320:00530000
#068320:0000000000000014
#069350:0034000000000000
#069320:0000003400000000
#069340:00000024
#070320:0000000000000014
#071350:00000054000000000000000000000000
#071320:0024
#071350:0000000000000013
#072320:0000000000000023
#074320:1400340000000034
#074330:0000003400000000
#074340:00003434
#075340:0034000000000000
#075320:0000003424000000
#074381:1400340000000034
#074391:0000003400000000
#0743a1:00003434
#0753a1:0034000000000000
#075381:0000003424000000
#076321:1323
#076351:00330000
#0763b0:1323
#076380:00330000
#076380:0000000000000013
#0773b0:0023000000000000
#0783a0:1400340000000034
#078390:0000003400000000
#078380:00003434
#079380:0034000000000000
#0793a0:0000003424000000
#078341:1400340000000034
#078331:0000003400000000
#078321:00003434
#079321:0034000000000000
#079341:0000003424000000
#0803b1:1323
#080381:00330000
#080320:1323
#080350:00330000
#080350:0000000000000013
#081320:0023000000000000
#0813a0:0000000000140000
#081370:0000000000000024
#030960:0013
#030920:000000000000000000000000000000000000000000000000000000000000000000000000000000000000000000000000000000000000000000000000000000000000000000000000000000000000000000000000000000000000000000000000000000000000000000000000000000000000000000000000000000000000000000000000000000000000000000000000000000000000000000000000000000000000000000000000000000000000000000000000000000000000000000000000000000000000000000000000000000000000000000000000000000000000000000000000000000000000000000000000000000000000000000000000000000000000000000000000000000000000000000000000000000000000000000000000000000000000000000000000000000000000000000000000000000000000000000000000000000000000000000000000000000000000000000000000000000000000000000000000000000000000000000000000000000000000000000000000000000000000000000000000000000000000000000000000000000000000000000000000000000000000000000000000000000000000000000000000000000000000000000000000000000000000000000000000000000000000000000000000000000000000000000000000000000000000000000000000000000000000000000000000000000000000000000000000000000000000000000000000000000000000000000000000000000000000000000000000000000000000000000000000000000000000000000000000000000000000000000000000000000000000000000000000000000000000000000000000000000000000000000000000000000000000000000000000000000000000000000000000000000000000000000000000000000000000000000000000000000000000000000000000000000000000000000000000000000000000000000000000000000000000000000000000000000000000000000000000000000000000000000000000000000000000000000000000000000000000000000000000000000000000000000000000000000000000000000000000000000000000000000000000000000000000000000000000000000000000000000000000000000000000000000000000000000000000000000000000000000000000000000000000000000000000000000000000000000000000000000000000000000000000000000000000000000000000000000000000000000000000000000000000000000000000000000000000000000000000000000000000000000000000000000000000000000000000000000000000000000000000000000000000000000000000000000000000000000000000000000000000000000000000000000000000000000000000000000000000000000000000000000000000000000000000000000000000000000000000000000000000000000000000000000000000000000000000000000000000000000000000000000000000000000000000000000000000000000000000000000000000000000000000000000000000000000000000000000000000000000000000000000000000000000000000000000000000000000000000000000000000000000000000000000000000000000000000000000000000000000000000000000000000000000000000000000000000000000000000000000000000000000000000000000000000000000000000000000000000000000000000000000000000000000000000000000000000000000000000000000000000000000000000000000000000000000000000000000000000000000000000000000000000000000000000000000000000000000000000000000000000000000000000000000000000000000000000000000000000000000000000000000000000000000000000000000000000000000000000000000000053230000000000000000000000000000000000000000000000000000000000000000000000000000000000000000000000000000000000000000000000000000000000000000000000000000000000000000000000000000000000000000000000000000000000000000000000000000000000000000000000000000000000000000000000000000000000000000000000000000000000000000000000000000000000000000000000000000000000000000000000000000000000000000000000000000000000000000000000000000000000000000000000000000000000000000000000000000000000000000000000000000000000000000000000000000000000000000000000000000000000000000000000000000000000000000000000000000000000000000000000000000000000000000000000000000000000000000000000000000000000000000000000000000000000000000000000000000000000000000000000000000000000000000000000000000000000000000000000000000000000000000000000000000000000000000000000000000000000000000000000000000000000000000000000000000000000000000000000000000000000000000000000000000000000000000000000000000000000000000000000
#0309b1:0013
#030971:000000000000000000000000000000000000000000000000000000000000000000000000000000000000000000000000000000000000000000000000000000000000000000000000000000000000000000000000000000000000000000000000000000000000000000000000000000000000000000000000000000000000000000000000000000000000000000000000000000000000000000000000000000000000000000000000000000000000000000000000000000000000000000000000000000000000000000000000000000000000000000000000000000000000000000000000000000000000000000000000000000000000000000000000000000000000000000000000000000000000000000000000000000000000000000000000000000000000000000000000000000000000000000000000000000000000000000000000000000000000000000000000000000000000000000000000000000000000000000000000000000000000000000000000000000000000000000000000000000000000000000000000000000000000000000000000000000000000000000000000000000000000000000000000000000000000000000000000000000000000000000000000000000000000000000000000000000000000000000000000000000000000000000000000000000000000000000000000000000000000000000000000000000000000000000000000000000000000000000000000000000000000000000000000000000000000000000000000000000000000000000000000000000000000000000000000000000000000000000000000000000000000000000000000000000000000000000000000000000000000000000000000000000000000000000000000000000000000000000000000000000000000000000000000000000000000000000000000000000000000000000000000000000000000000000000000000000000000000000000000000000000000000000000000000000000000000000000000000000000000000000000000000000000000000000000000000000000000000000000000000000000000000000000000000000000000000000000000000000000000000000000000000000000000000000000000000000000000000000000000000000000000000000000000000000000000000000000000000000000000000000000000000000000000000000000000000000000000000000000000000000000000000000000000000000000000000000000000000000000000000000000000000000000000000000000000000000000000000000000000000000000000000000000000000000000000000000000000000000000000000000000000000000000000000000000000000000000000000000000000000000000000000000000000000000000000000000000000000000000000000000000000000000000000000000000000000000000000000000000000000000000000000000000000000000000000000000000000000000000000000000000000000000000000000000000000000000000000000000000000000000000000000000000000000000000000000000000000000000000000000000000000000000000000000000000000000000000000000000000000000000000000000000000000000000000000000000000000000000000000000000000000000000000000000000000000000000000000000000000000000000000000000000000000000000000000000000000000000000000000000000000000000000000000000000000000000000000000000000000000000000000000000000000000000000000000000000000000000000000000000000000000000000000000000000000000000000000000000000000000000000000000000000000000000000000000000000000000000000000000000000000000000000000000000000000000000000000000000000000053230000000000000000000000000000000000000000000000000000000000000000000000000000000000000000000000000000000000000000000000000000000000000000000000000000000000000000000000000000000000000000000000000000000000000000000000000000000000000000000000000000000000000000000000000000000000000000000000000000000000000000000000000000000000000000000000000000000000000000000000000000000000000000000000000000000000000000000000000000000000000000000000000000000000000000000000000000000000000000000000000000000000000000000000000000000000000000000000000000000000000000000000000000000000000000000000000000000000000000000000000000000000000000000000000000000000000000000000000000000000000000000000000000000000000000000000000000000000000000000000000000000000000000000000000000000000000000000000000000000000000000000000000000000000000000000000000000000000000000000000000000000000000000000000000000000000000000000000000000000000000000000000000000000000000000000000000000000000000000000000
#073961:0013
#073921:000000000000000000000000000000000000000000000000000000000000000000000000000000000000000000000000000000000000000000000000000000000000000000000000000000000000000000000000000000000000000000000000000000000000000000000000000000000000000000000000000000000000000000000000000000000000000000000000000000000000000000000000000000000000000000000000000000000000000000000000000000000000000000000000000000000000000000000000000000000000000000000000000000000000000000000000000000000000000000000000000000000000000000000000000000000000000000000000000000000000000000000000000000000000000000000000000000000000000000000000000000000000000000000000000000000000000000000000000000000000000000000000000000000000000000000000000000000000000000000000000000000000000000000000000000000000000000000000000000000000000000000000000000000000000000000000000000000000000000000000000000000000000000000000000000000000000000000000000000000000000000000000000000000000000000000000000000000000000000000000000000000000000000000000000000000000000000000000000000000000000000000000000000000000000000000000000000000000000000000000000000000000000000000000000000000000000000000000000000000000000000000000000000000000000000000000000000000000000000000000000000000000000000000000000000000000000000000000000000000000000000000000000000000000000000000000000000000000000000000000000000000000000000000000000000000000000000000000000000000000000000000000000000000000000000000000000000000000000000000000000000000000000000000000000000000000000000000000000000000000000000000000000000000000000000000000000000000000000000000000000000000000000000000000000000000000000000000000000000000000000000000000000000000000000000000000000000000000000000000000000000000000000000000000000000000000000000000000000000000000000000000000000000000000000000000000000000000000000000000000000000000000000000000000000000000000000000000000000000000000000000000000000000000000000000000000000000000000000000000000000000000000000000000000000000000000000000000000000000000000000000000000000000000000000000000000000000000000000000000000000000000000000000000000000000000000000000000000000000000000000000000000000000000000000000000000000000000000000000000000000000000000000000000000000000000000000000000000000000000000000000000000000000000000000000000000000000000000000000000000000000000000000000000000000000000000000000000000000000000000000000000000000000000000000000000000000000000000000000000000000000000000000000000000000000000000000000000000000000000000000000000000000000000000000000000000000000000000000000000000000000000000000000000000000000000000000000000000000000000000000000000000000000000000000000000000000000000000000000000000000000000000000000000000000000000000000000000000000000000000000000000000000000000000000000000000000000000000000000000000000000000000000000000000000000000000000000000000000000000000000000000000000000000000000000000000000000000000000000000053230000000000000000000000000000000000000000000000000000000000000000000000000000000000000000000000000000000000000000000000000000000000000000000000000000000000000000000000000000000000000000000000000000000000000000000000000000000000000000000000000000000000000000000000000000000000000000000000000000000000000000000000000000000000000000000000000000000000000000000000000000000000000000000000000000000000000000000000000000000000000000000000000000000000000000000000000000000000000000000000000000000000000000000000000000000000000000000000000000000000000000000000000000000000000000000000000000000000000000000000000000000000000000000000000000000000000000000000000000000000000000000000000000000000000000000000000000000000000000000000000000000000000000000000000000000000000000000000000000000000000000000000000000000000000000000000000000000000000000000000000000000000000000000000000000000000000000000000000000000000000000000000000000000000000000000000000000000000000000000000
#0739b0:0013
#073970:000000000000000000000000000000000000000000000000000000000000000000000000000000000000000000000000000000000000000000000000000000000000000000000000000000000000000000000000000000000000000000000000000000000000000000000000000000000000000000000000000000000000000000000000000000000000000000000000000000000000000000000000000000000000000000000000000000000000000000000000000000000000000000000000000000000000000000000000000000000000000000000000000000000000000000000000000000000000000000000000000000000000000000000000000000000000000000000000000000000000000000000000000000000000000000000000000000000000000000000000000000000000000000000000000000000000000000000000000000000000000000000000000000000000000000000000000000000000000000000000000000000000000000000000000000000000000000000000000000000000000000000000000000000000000000000000000000000000000000000000000000000000000000000000000000000000000000000000000000000000000000000000000000000000000000000000000000000000000000000000000000000000000000000000000000000000000000000000000000000000000000000000000000000000000000000000000000000000000000000000000000000000000000000000000000000000000000000000000000000000000000000000000000000000000000000000000000000000000000000000000000000000000000000000000000000000000000000000000000000000000000000000000000000000000000000000000000000000000000000000000000000000000000000000000000000000000000000000000000000000000000000000000000000000000000000000000000000000000000000000000000000000000000000000000000000000000000000000000000000000000000000000000000000000000000000000000000000000000000000000000000000000000000000000000000000000000000000000000000000000000000000000000000000000000000000000000000000000000000000000000000000000000000000000000000000000000000000000000000000000000000000000000000000000000000000000000000000000000000000000000000000000000000000000000000000000000000000000000000000000000000000000000000000000000000000000000000000000000000000000000000000000000000000000000000000000000000000000000000000000000000000000000000000000000000000000000000000000000000000000000000000000000000000000000000000000000000000000000000000000000000000000000000000000000000000000000000000000000000000000000000000000000000000000000000000000000000000000000000000000000000000000000000000000000000000000000000000000000000000000000000000000000000000000000000000000000000000000000000000000000000000000000000000000000000000000000000000000000000000000000000000000000000000000000000000000000000000000000000000000000000000000000000000000000000000000000000000000000000000000000000000000000000000000000000000000000000000000000000000000000000000000000000000000000000000000000000000000000000000000000000000000000000000000000000000000000000000000000000000000000000000000000000000000000000000000000000000000000000000000000000000000000000000000000000000000000000000000000000000000000000000000000000000000000000000000000000000000000000000053230000000000000000000000000000000000000000000000000000000000000000000000000000000000000000000000000000000000000000000000000000000000000000000000000000000000000000000000000000000000000000000000000000000000000000000000000000000000000000000000000000000000000000000000000000000000000000000000000000000000000000000000000000000000000000000000000000000000000000000000000000000000000000000000000000000000000000000000000000000000000000000000000000000000000000000000000000000000000000000000000000000000000000000000000000000000000000000000000000000000000000000000000000000000000000000000000000000000000000000000000000000000000000000000000000000000000000000000000000000000000000000000000000000000000000000000000000000000000000000000000000000000000000000000000000000000000000000000000000000000000000000000000000000000000000000000000000000000000000000000000000000000000000000000000000000000000000000000000000000000000000000000000000000000000000000000000000000000000000000000
#082920:1400540000000054
#082940:00005454
#083940:0054000000000000
#083920:000000000000000000000000000000000000000000000000000000000000000000000000000000000000000000000000000000000000000000000000000000000000000000000000000000000000000000000000000000000000000000000000000000000000000000000000000000000000000000000000000000000000000000000000000000000000000000000000000000000000000000000000000000000000000000000000000000000000000000000000000000000000000000000000000000000000000000000000000000000000000000000000000000000000000000000000000000000000000000000000000000000000000000000000000000000000000000000000000000000000000000000000000000000000000000000000000000000000000000000000000000000000000000000000000000000000000000000000000000000000000000000000000000000000000000000000000000000000000000000000000000000000000000000000000000000000000000000000000000000000000000000000000000000000000000000000000000000000000000000000000000000000000000000000000000000000000000000000000000000000000000000000000000000000000000000000000000000000000000000000000000000000000000000000000000000000000000000000000000000000000000000000000000000000000000000000000000000000000000000000000000000000000000000000000000000000000000000000000000000000000000000000000000000000000000000000000000000000000000000000000000000000000000000000000000000000000000000000000000000000000000000000000000000000000000000000000000000000000000000000000000000000000000000000000000000000000000000000000000000000000000000000000000000000000000000000000000000000000000000000540000000000000000000000000000000000000000000000000000000000000000000000000000000000000000000000000000000000000000000000000000000000000000000000000000000000000000000000000000000000000000000000000000000000000000000000000000000000000000000000000000000000000000000000000000000000000000000000000000000000000000000000000000000000000000000000000000000000000000000000000000000000000000000000000000000000000000000000000000000000000000000000000000000000000000000000000000000054545454545454240000000000000000000000000000000000000000000000000000000000000000000000000000000000000000000000000000000000000000000000000000000000000000000000000000000000000000000000000000000000000000000000000000000000000000000000000000000000000000000000000000000000000000000000000000000000000000000000000000000000000000000000000000000000000000000000000000000000000000000000000000000000000000000000000000000000000000000000000000000000000000000000000000000000000000000000000000000000000000000000000000000000000000000000000000000000000000000000000000000000000000000000000000000000000000000000000000000000000000000000000000000000000000000000000000000000000000000000000000000000000000000000000000000000000000000000000000000000000000000000000000000000000000000000000000000000000000000000000000000000000000000000000000000000000000000000000000000000000000000000000000000000000000000000000000000000000000000000000000000000000000000000000000000000000000000000000000000000000000000000000000000000000000000000000000000000000000000000000000000000000000000000000000000000000000000000000000000000000000000000000000000000000000000000000000000000000000000000000000000000000000000000000000000000000000000000000000000000000000000000000000000000000000000000000000000000000000000000000000000000000000000000000000000000000000000000000000000000000000000000000000000000000000000000000000000000000000000000000000000000000000000000000000000000000000000000000000000000000000000000000000000000000000000000000000000000000000000000000000000000000000000000000000000000000000000000000000000000000000000000000000000000000000000000000000000000000000000000000000000000000000000000000000000000000000000000000000000000000000000000000000000000000000000000000000000000000000000000000000000000000000000000000000000000000000000000000000000000000000000000000000000000000000000000000000000000000000000000000000000000000000000000000000000000000000000000000000000000000000000000
