This file was generated by Ched 2.7.0.0.
#TITLE ""
#ARTIST ""
#DESIGNER ""
#DIFFICULTY 0
#PLAYLEVEL
#SONGID ""
#WAVE ""
#WAVEOFFSET 0
#JACKET ""
#REQUEST "ticks_per_beat 480"
#00002: 4
#BPM01: 170
#00008: 01
#TIL00: ""
#VOLUME: ""
#HISPEED 00
#MEASUREHS 00
#00418:0014
#00414:14
#00512:14
#0051a:0014
#01112:2414
#01118:00140000
#01110:41
#01218:14
#01214:0014
#01314:00140000
#0131a:2414
#0031a:0014
#00312:24
#00814:0014
#00818:14
#0091a:14
#00912:0014
#00712:0014
#0071a:24
#01414:14
#01418:0014
#01514:0014
#01518:00140000
#01512:24
#0161a:14
#01616:0014
#01714:00140000
#01718:0014
#0171a:24
#02018:0014
#02014:14
#02112:14
#0211a:0014
#0191a:0014
#01912:24
#0231a:2414
#02314:00140000
#02310:41
#02414:14
#02418:0014
#02518:00140000
#02512:2414
#02618:14
#02614:0014
#02718:0014
#02714:00140000
#0271a:24
#02812:14
#02816:0014
#02918:00140000
#02914:0014
#02912:24
#0311a:0014
#03112:24
#03110:41
#03218:00140000
#03214:1414
#03512:0014
#0351a:24
#03614:00140000
#03618:1414
#03714:0000000000000014
#03712:24
#03912:0014
#0391a:24
#03910:41
#04014:00140000
#0401a:0014
#04018:14
#0431a:0014
#04312:24
#04418:00140000
#04412:0014
#04414:14
#0451a:0000000000000014
#04518:24
#05618:0014
#05614:24
#0561f:21
#05716:00140000
#0571a:0014
#05712:14
#05710:41
#06014:0014
#06018:24
#06116:00140000
#06112:0014
#0611a:14
#06412:0014
#0641a:24
#06518:14141400
#0671a:14
#0681a:0014
#06812:24
#06914:14141400
#0701a:0000000000000014
#07018:24
#07214:14
#0761a:00140000
#07612:14
#07614:00001414
#08012:00140000
#0801a:14
#08018:00001414
#06218:0000000000000014
#0621a:24
#05918:14
#08218:1400343434003400
#0821a:0000000000000014
#08414:0014
#08418:00140000
#08412:24
#08514:00140000
#08518:0014
#0851a:24
#08612:14
#0471f:11
#01018:24
#02214:24
#03018:24
#03318:24
#04112:24
#06612:24
#0741a:24
#07414:00240000
#07418:0024
#07412:00000024
#07410:41
#07518:24
#07514:00240000
#0751a:0024
#0771a:24
#07812:24
#07818:00240000
#07814:0024
#0781a:00000024
#07914:24
#07918:00240000
#07912:0024
#08112:24
#05814:24
#01812:00343434
#0831a:0034003434000000
#01952:14
#03058:54
#03754:0000000000000054
#0455a:0000000000000054
#0555a:0014
#0675a:54
#06652:54
#0705a:0000000000000054
#07058:64
#07252:0000000000000014
#07254:54
#0775a:54
#08152:64
#07952:0014
#0755a:0014
#03254:0014
#03658:0014
#0405a:0014
#04452:0014
#0575a:0014
#06152:0014
#05854:54
#06258:0000000000000064
#0625a:54
#05958:64
#06558:0014
#06954:0014
#0825a:0000000000000024
#08258:64
#08755:00000014
#08652:64
#006340:14
#006330:00340000
#006320:0024
#010380:14
#010390:00340000
#0103a0:0024
#018340:14
#018320:00343434
#019320:24
#022340:14
#022330:00340000
#022320:0024
#030380:14
#0303a0:0024
#033380:14
#0333a0:0024
#034340:14
#034320:0024
#037320:14
#037340:0000000034000034
#038320:0024
#041320:14
#041340:0024
#0423a0:14
#042380:0024
#045380:14
#0453a0:0000000034000034
#046380:0024
#047320:14
#048340:34
#049320:34
#050340:24
#0513a0:14
#052380:34
#0533a0:34
#054380:34
#0553a0:3424
#058340:14
#058320:0024
#059380:14
#0593a0:0024
#0623a0:14
#062380:0000000034000034
#0633a0:0024
#066320:14
#066340:0024
#0673a0:14
#067380:0024
#070380:14
#0703a0:0000000034000034
#071380:0024
#072340:14
#072320:0000000034000024
#0773a0:14
#077380:0000000054342400
#081320:14
#081340:0000000054342400
#082380:1400343434003400
#0823a0:0000000000000034
#0833a0:0034003434000000
#083380:00000024
#086320:14
#087350:5400000000342400
