This file was generated by Ched 2.7.0.0.
#TITLE ""
#ARTIST ""
#DESIGNER ""
#DIFFICULTY 0
#PLAYLEVEL
#SONGID ""
#WAVE ""
#WAVEOFFSET 0
#JACKET ""
#REQUEST "ticks_per_beat 480"
#00002: 4
#BPM01: 239
#00008: 01
#TIL00: ""
#VOLUME: ""
#HISPEED 00
#MEASUREHS 00
#0031a:00000014
#0051a:00140000
#00612:00000014
#00812:00140000
#00918:00000014
#01118:00140000
#01214:00000014
#01414:00140000
#0151a:00000014
#01510:00000041
#02112:00000014
#02118:14
#02014:00140000
#02714:00000014
#02918:00140000
#03012:00000014
#0321a:00140000
#03912:00000014
#03910:00000041
#04018:0014
#04114:00140000
#0421a:00000014
#04314:0014
#04418:00140000
#04512:00000014
#04712:00140000
#0481a:00000014
#0501a:00140000
#08112:16
#08118:00000016
#08212:0016
#08618:00160000
#08718:16
#08712:00000016
#08812:0016
#09517:0016
#09913:00160000
#1021a:14000014
#10314:0014
#10414:00140000
#10518:14000014
#10812:00000016
#10818:26
#1081f:21
#11112:16
#11118:00000016
#11418:16000016
#11712:16000016
#12012:00000016
#12018:26
#12118:0016
#12119:0000000000000014
#12318:00000016
#12312:26
#12412:0016
#12413:0000000000000014
#1261a:2414
#12714:1414
#12818:1414
#12912:1414
#13012:0016
#13018:26
#13112:0016
#13118:26
#13218:2600000000000016
#1331a:0000000000140000
#13714:0014
#13918:14
#14512:16
#05113:00000014
#05110:00000041
#05313:00140000
#05918:00160000
#05718:00000016
#04618:0014
#04914:0014
#0941f:0011
#09418:0026
#02618:00260000
#06312:00000026
#06518:00260000
#06612:00000026
#06818:00260000
#07513:00000024
#07519:00000024
#08018:00260000
#08010:00410000
#09012:00000026
#09812:00260000
#10612:0024
#05513:0034
#06118:0036
#07012:0034
#0731a:0034
#06410:41
#10910:0041
#0155a:00000064
#02152:00000054
#09557:0026
#09458:0066
#09953:00260000
#09852:00560000
#12158:0066
#12159:0000000000000024
#12452:0056
#12453:0000000000000024
#13258:0000000000000066
#1335a:0000000000240000
#14552:66
#0153a0:00000014
#018380:00000024
#021320:00000014
#024340:00000024
#033340:00000014
#035340:00240000
#036380:00000014
#038380:00240000
#054330:00000014
#055330:0034
#056320:00260000
#060380:00000016
#061380:0036
#062390:00240000
#069340:00000014
#070320:0034
#071320:00240000
#072380:00000014
#0733a0:0034
#0743a0:00240000
#075330:00000014
#077330:00240000
#075391:00000014
#077391:00240000
#083381:00160000
#084381:26
#084321:00000016
#085321:0026
#089381:00160000
#090381:26
#090321:00000016
#091321:0036000036000036
#092321:00260000
#094381:0016
#095371:0056
#096381:0026
#098321:00160000
#099331:00360000
#100321:00260000
#109381:0016
#110381:00260000
#112321:0016
#113321:00260000
#115381:0016
#116381:00260000
#118321:0000000016000036
#119321:00260000
#121381:0016
#121391:0000000000000054
#122381:00260000
#124321:0016
#124331:0000000000000054
#125321:00260000
#132381:1600000000000036
#1333a1:0000000000540000
#134381:0026
#140341:0014
#142321:34
#145321:36
#148321:23
