This file was generated by Ched 2.7.0.0.
#TITLE ""
#ARTIST ""
#DESIGNER ""
#DIFFICULTY 0
#PLAYLEVEL
#SONGID ""
#WAVE ""
#WAVEOFFSET 0
#JACKET ""
#REQUEST "ticks_per_beat 480"
#00002: 4
#BPM01: 239
#00008: 01
#TIL00: ""
#VOLUME: ""
#HISPEED 00
#MEASUREHS 00
#00017:12
#00114:00180000
#00217:12
#00418:12
#00416:00120000
#00516:1200000000000012
#00518:0012000000000000
#00514:00120000
#00517:0012
#0051a:00000012
#00618:12
#0061b:0000001200000000
#00916:12000012
#00918:0000000000120000
#00716:12
#00718:00120000
#00818:1200000000000012
#00816:0012000000000000
#0081a:00120000
#00817:0012
#00814:00000012
#01018:1200001200000000
#01016:0012000000000000
#01019:0052
#0101a:0000000000520000
#0101b:00000052
#0101c:0000000000000052
#01114:0013000013000000
#01119:0000130000130000
#01116:0000000000000013
#0121a:0000000000140000
#01216:00000014
#01212:0000005300000014
#01215:53
#01214:0053000000000000
#01213:00530000
#01318:0014001400000000
#01314:0012
#01317:00000012
#0141a:12
#01417:0000000000000012
#01715:00140000
#0171a:00140000
#01717:0000000000140000
#01712:0000000000140000
#01615:00140000
#01614:0014
#01613:00000014
#01917:00140000
#01918:0014
#01919:00000014
#01518:0013
#01512:00000024
#0151a:00000024
#01510:00000041
#02218:1300001300000000
#02215:0013000013000000
#02214:000000000000005300000053
#02213:000000005353
#02212:00000053
#02714:00000000001500000000000000000000
#02712:350035153500350000000000000000000000000000000000
#02715:000000003636000000000000
#02616:000000000000000000000000000035003500350035003500350000350000150000350000350000003500000000000000
#02614:0000000000000015
#02618:26
#02612:000000260000000000000035
#0281b:12
#02819:00120000
#02817:0012
#02815:00000012
#02913:12
#02916:00140000
#03015:00000012
#03019:00000012
#03113:12
#03115:00120000
#03117:0012
#03119:00000012
#0321b:12
#03216:00140000
#03316:1412
#03318:0000000000120000
#0331a:00120000
#03312:00000014
#03416:0013000000000000
#0341a:00000014
#03617:2212
#03615:00000022
#03619:00000022
#04018:13130000
#04015:0013001300000000
#04315:13130000
#04318:0013001300000000
#0431b:00000013
#04416:00130000
#0441b:00130000
#04418:13
#04112:00130000
#04117:00130000
#04514:00130000
#04519:00130000
#04512:13000013
#04517:13000013
#0461a:13
#04615:13
#0461b:0013
#04616:0013
#04619:00000013
#04614:00000013
#0471b:00130000
#04716:00130000
#04713:0013
#04718:0013
#04812:13
#04817:13
#0481a:00000014
#04915:0013001300000000
#04918:00130000
#04919:0015
#04914:0000000000000014
#05018:14160000
#05014:0014000000000000
#0501a:0000000000120000
#05119:00000012
#05114:00222200
#05110:00000041
#05217:12
#05219:00000012
#05215:00120000
#05213:0012
#05317:1212
#05315:00120000
#05319:00000012
#0541b:12
#05415:00120000
#05417:0012
#05614:00120000
#05618:0012
#05616:00000012
#05719:12
#05715:12000012
#05817:12
#05815:00000012
#05819:00120000
#0581b:0012
#05818:000000000000000000000012
#05916:12
#05919:00120000
#05917:0012
#05915:00000012
#06013:12
#06019:00120000
#06017:0012
#06014:00000012
#0601a:00000012
#06116:12
#06118:00120000
#06113:0013
#0611a:0013
#06115:00000013
#06218:13000014
#0621a:00140000
#06212:00140000
#06214:0014
#06312:14000026
#0631a:14
#06912:00240014
#06917:00240014
#0691a:2424
#06915:2424
#07016:0013000000000000
#07014:0013
#07012:0000000000000013
#07114:0000000000150000
#07113:00140000
#0721a:0014
#07218:00000014
#07316:14
#07314:00140000
#07312:0014
#07318:00000014
#07414:14
#07415:00001313
#07418:0000260000130013
#07518:00131300
#07515:0000001300130000
#07512:24
#0751a:00000024
#07612:1324
#07618:0013001300000000
#07615:0000130000000013
#0761b:00000013
#07718:13
#07715:0013000000000000
#0771a:00240000
#07716:00000000003434343434343434343434
#07916:00002400000000000000001400000000
#07912:0014000000000000
#07915:0026
#07816:0000001400000000
#07814:00000014
#0781a:0000002400000000
#07818:00000024
#08015:0000000013000013
#08018:0000000000130000
#0801b:00000013
#08012:00240000
#0801a:00240000
#08010:00410000
#08118:14000013
#08115:0000000000130013
#0811b:0033330000000000
#08214:0014
#08218:1300001300000000
#08215:0013000000000000
#08212:0000130000333300
#0831b:0000000000000013
#08314:00240000
#08318:0024000000000000
#08319:0024
#08313:0000000000240000
#08416:13
#08419:0013000000002400
#08414:00130000
#08417:0000001300000000
#08413:0000000000240000
#08512:0000001300000000
#08517:0013
#08514:2400000000130000
#08519:00000013
#08516:0000000000000013
#08518:0024000000000000
#08616:0000001300000000
#08619:0013
#08615:0000000000130000
#08618:00000013
#08614:0000000000000013
#0861a:0014240000000000
#08717:1400000000000013
#0871b:00003313330000000000000000000000
#08712:0000000000142400
#08814:13
#08818:0013000000000000
#08815:00131400
#08819:0000001300000000
#08812:00000000000000000000331333000000
#08918:0025000000000013
#08913:00250000
#08919:0025
#08912:0000000000250000
#09015:13
#09019:0013000000000000
#09014:00130000
#0901a:0000001300000000
#09012:0000000000260000
#09018:00000026
#09412:34343434160000000000000000000000
#09418:00160000
#0941f:0011
#09419:0024
#09413:0024
#0941a:34343434000000000000000000000000
#09516:0015
#09517:00000015
#09519:25
#09618:15
#09617:001500000000
#09812:0000260000140000
#09814:000000000000000000000014
#09818:66260000
#09916:000000000014000000000000000000000000000000000000
#09913:000000000000000000000000000000000000001500000000
#09912:0000000000150000
#09914:000000000014000000000000
#10218:1600000000540000
#10212:00000016
#10216:0054
#10217:00000000000000000054000000000000
#10219:00000000000000000000005400000000
#1021a:00000054
#10318:0016
#10316:00540000
#10315:00000000005400000000000000000000
#10314:0000005400000000
#10313:00000000000000540000000000000000
#10312:0054
#1071c:12
#10812:0000130000000033
#10815:0000001300001600
#10818:0013
#1081b:0000000000130000
#1081f:21
#10918:0000001300000013
#10915:0013
#10912:3300000000130000
#1091b:00000013
#10910:0041
#11015:13160000
#11012:0013000000000014
#11017:0000000000000024
#1101b:0000003333000000
#11117:14
#11115:0000142400001300
#1111a:0000241400000000
#11118:0000000000130000
#11119:0000000000000013
#11112:24
#11214:13
#1121a:0013002414000000
#11215:0000001424000000
#11212:0000000000001424
#11217:0000000000002414
#11313:0013000000000000
#11319:00130000
#11314:0000001300000000
#11318:0013
#11315:0000000000130000
#1131a:0000000000000014
#11412:0014000000000000
#11417:00140000
#11413:0000001400000000
#11418:00001426
#11414:0000000000140000
#11416:24000000000000000000000000003515
#1151a:0000000000140000
#11515:00000014
#11519:0000000000000014
#11512:0000001400000000
#11516:3524
#11614:14
#11618:0014000000000000
#11615:00000000000035153500000000000000
#11612:0000260000000015
#11617:0000000000000025
#11717:15
#11714:0000152500000000
#11719:0000251500001500
#11712:2500000000150000
#11713:0000000000000015
#11818:15
#11814:0015001525000000
#11819:0000002515000000
#11812:0000000000001525
#11817:0000000000002515
#11912:0016260000000000
#11918:0026160000000000
#12014:0014001400000000
#12018:24140000
#1201a:0000000000140014
#12016:00000024
#12116:14002414
#1211a:0014000000000000
#12112:0000001400140014
#12218:0014001400140000
#12214:00241400
#12212:0000000000000014
#12314:0014000000000000
#12318:2500150000000014
#12312:0000001400000000
#1231a:0000000000140000
#12313:00000025
#1241a:0014000000000000
#12414:0000001400000014
#12412:0000000000140000
#12418:00002616
#12413:15
#12518:0014000000140000
#1251a:0000001400000000
#12512:0000260016000014
#12616:0014000000000000
#12612:00140000
#12618:0000001400000000
#12614:0000000000140000
#1261a:2400000000000014
#12716:0014000000000000
#1271a:00140000
#12714:0000001400000014
#12718:0000000000140000
#12712:24
#12815:0013000000000000
#12812:0000130000150000
#12817:0000001500000000
#12818:2600000000000014
#12918:0013000000000000
#1291b:00130000
#12914:0000001500000000
#12919:0000000000150000
#12912:2600000000000014
#13015:0013001300130000
#13018:26262626
#13118:0013001300130000
#13112:26262626
#13312:0000000000120000
#1331c:0000000000120000
#13916:000000000000000000000000000000000000000000000000000000000000000000000000001200000000000000000000
#1391c:005200000000000000000000000000000000000000000000000000000000000000000000000000000000000000000000
#14018:000000000000001200000000000000000000000000000000000000000000000000000000000000000000000000000000
#13218:0000000000002616
#1321b:23
#13212:0023002400250026
#1321a:00240000
#13219:0025
#04212:00000013
#0421b:00000013
#00313:0000002a00000000
#0181a:00000024
#01812:0000002400002400
#01817:0000002400000000
#02112:26000025
#02113:00240000
#02114:0022
#02119:00000025
#0231a:00240000
#02316:0024
#02312:00530024
#02315:53
#02314:005300000000000000000000
#02313:005300000000
#02417:2363
#02418:00630000000000630063000000000000
#02419:0063006300630000
#0241a:00000063006300000000006300000000
#0241b:00630063
#02512:00260000
#02514:0026
#02516:00000026
#06418:26
#06412:0026
#06414:00000026
#06410:41
#06516:26
#06518:00260000
#06512:0026
#06618:26
#06616:00260000
#06614:0026
#06612:00000026
#06718:26
#06712:0024
#06717:0024
#06715:00000024
#0671a:00000024
#06812:2426
#06817:24
#06818:00260000
#09113:25
#09118:0025000024000023
#09114:0000002400000000
#09115:00000023
#10512:24000000000000000000006665660000
#10516:54
#10515:0066
#10514:00000000000000000066000000000066
#10513:0000000000660066
#1061a:0024
#10615:6665
#10614:000000660000000000000000000000000000000065000000000000000000000000000000000000000000000000000000
#10613:000000660000000065000000000000000000000000000000
#10612:00000066650000000000000000000000
#14517:22
#02012:0000002400000000
#02017:0024
#02015:00000024
#0201a:0000000000000024
#0391b:00000023
#03912:00000023
#03910:00000041
#09216:0022000000000000
#09218:00220000
#09312:000000000000000000000000000000340000340034003400
#0931a:000000000000000000000000000000340000340034003400
#10416:5454
#10417:00540000000000540054000000000054
#10418:0054005400540054
#10419:00000054005400000000005400540000
#1041a:00540054
#14417:0052
#1441c:0052
#09715:00000000660000000000000000660000
#09716:00000000006566000000000066006600
#09717:00000000000000656600006600000066
#09718:00000000000000000065660000000000
#10115:666500000000000000000000000000000000000000000000
#10114:000000006600650000000000000000000000000000650000660000000000000000000000000000000000000000000000
#10113:000000000000000066006500000000650000660000000000000000006600000000000000000000000000000000000000
#10112:000000660000000066660000
#14812:8c
#00353:0000001a00000000
#00057:62
#00154:00680000
#00257:62
#00658:62
#0065b:0000002200000000
#00956:52
#01755:00640000
#0175a:00640000
#01757:0000000000240000
#01752:0000000000240000
#01655:00240000
#01654:0064
#01653:00000024
#01552:00000064
#01957:00240000
#01958:0054
#01959:00000024
#0185a:00000054
#02755:0016
#02754:00000000006500000000000000000000
#02752:0025000000000000
#02652:00660000
#02656:0000000000250000
#02654:0000000000000065
#02956:00640000
#03256:00540000
#03352:00000064
#03456:0023000000000000
#03452:0034
#0345a:00000044
#03655:00000062
#03659:00000062
#04456:00530000
#0445b:00530000
#04152:00630000
#04157:00630000
#04552:00000063
#04557:00000063
#0465a:23
#04655:23
#0475b:00530000
#04756:00530000
#04753:0023
#04758:0023
#0485a:00000014
#04959:0015
#05158:16
#05058:00660000
#0505a:0000000000220000
#05255:00620000
#05253:0022
#05359:00000052
#0545b:22
#05759:62
#05755:52
#05859:00520000
#0585b:0022
#05955:00000062
#06053:22
#06352:24000016
#0635a:24
#06458:16
#06558:00160000
#06552:0016
#06652:00000016
#06758:16
#06858:00160000
#06852:0016
#06952:00000064
#07056:0023000000000000
#07054:0063
#07052:0000000000000023
#07154:0000000000250000
#07153:00640000
#07252:36
#07458:00160000
#07652:0014
#07855:16
#0775a:00640000
#07954:0000000000000018
#07955:0066
#07956:00000000000000000000002400000000
#0815b:0000001300000000
#08158:64
#08254:0054
#08252:0000000000000013
#08457:0000001300000000
#08556:0000000000000013
#08757:64
#08759:0000001300000000
#0875b:00000023000000000000000000000000
#08855:0054
#08852:00000000000000000000002300000000
#08854:0000000000000013
#0905a:0000001300000000
#09453:0014
#09452:00660000
#09458:00660000
#09459:0014
#09556:0025
#09557:00000065
#09559:65
#09658:25
#09657:006500000000
#09858:00460000
#09852:0000660000240000
#09854:000000000000000000000064
#09956:000000000024000000000000000000000000000000000000
#09953:000000000000000000000000000000000000006500000000
#09952:0000000000250000
#09954:000000000064000000000000
#10258:66
#10252:00000056
#10358:0066
#10552:54
#10858:16
#10855:00000066
#1075c:22
#1065a:0064
#10952:0013000000000000
#11055:00560000
#1105b:0000000000130000
#1125a:0013000000000000
#11355:0000000000130000
#1155a:0044000000000000
#11456:00000000000000000000000000000025
#11458:00000056
#11655:00000000000000250000000000000000
#11652:0000660000340000
#11854:0015000000000000
#11952:00660000
#11958:00660000
#12054:0000001400000000
#1215a:0014000000000000
#12152:0000000000000014
#12258:0000000000140000
#12352:0000001400000000
#1245a:0014000000000000
#12454:0000000000000014
#12558:0000000000140000
#12658:0000001400000000
#12654:0000000000140000
#12754:0000001400000000
#12758:0000000000140000
#12857:0000001500000000
#12852:0000000000150000
#12954:0000001500000000
#12959:0000000000150000
#13452:0016
#13458:0016
#13352:0000000000220000
#1335c:0000000000220000
#13252:0000000000000056
#13258:0000000000000066
#14557:22
#09256:0062000000000000
#09258:00620000
#000370:12
#001340:00380000
#002370:32
#003330:0000002a00000000
#0043b0:00001222
#006380:12000022
#0063b0:0000005200000000
#007330:00001222
#009360:12
#009330:0022
#014370:00120022
#0153a0:13230000
#015351:00132300
#015321:00000014
#016351:00540000
#016341:0034
#016331:00000054
#017351:00340000
#017321:0000000000540000
#018351:24
#0173a0:00140000
#017370:0000000000540000
#0183a0:24
#0183a0:00000014
#019370:00540000
#019380:0034
#019390:00000054
#020370:00240000
#026320:000000160000000000000035
#026360:000000000000000000000000000035003500350035003500350000350000350000350000350000003500000000000000
#026340:0000000000000055
#027320:350035553500350000000000000000000000000000000000
#027340:00000000005500000000000000000000
#027350:000000003636260000000000
#029360:00140000
#0303c0:22
#032360:00140000
#033320:22
#033320:00000014
#034360:0053000000000000
#034320:0024
#035370:00120022
#036390:00000012
#038380:00220000
#036351:00000012
#038361:00220000
#0403b1:0013
#040381:00000033
#0413b1:33
#041391:0033000000000000
#041371:00330000
#0423b1:23
#041320:00130000
#042360:23
#043320:0013
#043350:00000033
#044320:33000023
#044340:0033000000000000
#044360:00330000
#0443b1:00130000
#044371:00000023
#0453b1:0013
#045391:0000000000330000
#045371:00000033
#0463a1:53
#046371:00230000
#045360:0013
#045340:0000000000330000
#045320:00000033
#046350:53
#046320:00230000
#047320:13
#047340:0033000000000000
#047360:00330023
#047330:0053
#047371:13
#047391:0033000000000000
#0473b1:00330023
#047381:0053
#048361:00130000
#048321:0023
#0483b0:00130000
#048370:0023
#050380:00160000
#0503a0:0000000000520000
#051380:26
#052350:00120022
#052330:0052
#053390:00000012
#0543b0:52
#054390:00220000
#054390:00000012
#055390:00220000
#055351:00120022
#0553a0:00000012
#0563a0:00220000
#057390:12
#0573b0:0022
#057351:12
#057331:0022
#058391:00120022
#0583b1:0052
#059351:00000012
#060331:52
#060351:00220000
#0633a1:14
#063381:0026
#063320:1426
#069320:00000014
#070360:0053000000000000
#070340:0033
#070320:0000000000000053
#071330:00340000
#071340:0000000000550000
#072320:26
#0773a0:00140000
#077360:00000000003434343434343434343434
#078350:26
#079350:0016
#079360:00000000000000000000005400000000
#079340:0000000000000028
#081380:14
#0813b0:0033332300000000
#082340:0014
#082320:0000000000333323
#087370:14
#0873b0:00003353330000000000000000000000
#087390:0000002300000000
#088350:0014
#088320:00000000000000000000335333000000
#088340:0000000000000023
#092360:0012000000000000
#093320:000000000000000000000000340000340000340034003400
#094320:34343434360000000000000000000000
#094330:0024
#092381:00120000
#0933a1:000000000000000000000000340000340000340034003400
#0943a1:34343434000000000000000000000000
#094381:00360000
#094391:0024
#095391:15
#095361:0055
#095371:00000055
#096381:55
#096371:005500000000
#096351:000000000000000000000000000000000000000000360000360000003600000036000000360000000000360000000000
#097351:363636260000000000000000
#098321:0000160000540000
#098341:000000000000000000000054
#099361:000000000054000000000000000000000000000000000000
#099341:000000000054000000000000
#099321:0000000000550000
#099331:000000000000000000000000000000000000005500000000
#100351:000000000000000036000000360000003600000036000000360000360000360000360000360000003600000036000000
#101351:26
#102381:16
#102361:0024
#102321:00000016
#103361:00240000
#103381:0016
#104361:24
#105321:14
#105351:0026
#1063a1:0014
#1073c1:52
#108381:26
#108351:00000016
#108321:0000000000000033
#109321:3323000000000000
#110351:00160000
#1103b1:0000003333230000
#114381:00000016
#114361:00000000000000000000000000003555
#115361:35
#1153a1:0024000000000000
#116321:0000160000240000
#116351:00000000000035553500000000000000
#119381:00160000
#1193b1:00000023
#119320:00160023
#132380:0000000000001636
#1333c0:0000000000520000
#134380:0026
#132321:0000000000000016
#133321:0000000000520000
#134321:0026
#137381:0012
#137391:000000000000000000000000003200000000000000000000
#1373a1:000000000000003200000000
#1393c1:002200000000000000000000000000000000000000000000000000000000000000000000000000000000000000000000
#140361:0012
#140351:0000000000000000000000000000000000320000000000000000000000000000
#140341:00000000000000000032000000000000
#142321:32
#144371:0022
#142370:12
#1443c0:0022
#145370:12
#148320:2c
#010980:0000001200000000
#0109c0:000000000000000000000000000000000000000000000000000000000000000000000000000000000000000000000000000000000000000000000000000000000000000000000000000000000000000000000000000000000000000000000000000000000000000000000000000000000000000000000000000000000000000000000000000000000000000000000000000000000000000000000000000000000000000000000000000000000000000000000000000000000000000000000000000000000000000000000000000000000000000000000000000000000000000000000000000000000000000000000000000000000000000000000000000000000000000000000000000000000000000000000000000000000000000000000000000000000000000000000000000000000000000000000000000000000000000000000000000000000000000000000000000000000000000000000000000000000000000000000000000000000000000000000000000000000000000000000000000000000000000000000000000000000000000000000000000000000000000000000000000000000000000000000000000000000000000000000000000000000000000000000000000000000000000000000000000000000000000000000000000000000000000000000000000000000000000000000000000000000000000000000000000000000000000000000000000000000000000000000000000000000000000000000000000000000000000000000000000000000000000000000000000000000000000000000000000000000000000000000000000000000000000000000000000000000000000000000000000000000000000000000000000000000000000000000000000000000000000000000000000000000000000000000000000000000000000000000000000000000000000000000000000000000000000000000000000000000000000000000000000000000000000000000000000000000000000000000000000000000000000000000000000000000000000000000000000000000000000000000000000000000000000000000000000000000000000000000000000000000000000000000000000000000000000000000000000000000000000000000052220000000000000000000000000000000000000000000000000000000000000000000000000000000000000000000000000000000000000000000000000000000000000000000000000000000000000000000000000000000000000000000000000000000000000000000000000000000000000000000000
#011960:0000000000000013
#012920:000000000000000000000000000000000000000000000000000000000000000000000000000000000000000000000000000000000000000000000000000000000000000000000000000000000000000000000000000000000000000000000000000000000000000000000000000000000000000000000000000000000000000000000000000000000000000000000000000000000000000000000000000000000000000000000000000000000000000000000000000000000000000000000000000000000000000000000000000000000000000000000000000000000000000000000000000000000000000000000000000000000000000000000000000000000000000000000000000000000000000000000000000000000000000000000000000000000000000000000000000000000000000000000000000000000000000000000000000000000000000000000000000000000000000000000000000000000000000000000053230000000000000000000000000000000000000000000000000000000000000000000000000000000000000000000000000000000000000000000000000000000000000000000000000000000000000000000000000000000000000000000000000000000000000000000000000000000000000000000000000000000000000000000000000000000000000000000000000000000000000000000000000000000000000000000000000000000000000000000000000000000000000000000000000000000000000000000000000000000000000000000000000000000000000000000000000000000000000000000000000000000000000000000000000000000000000000000000000000000000000000000000000000000000000000000000000000000000000000000000000000000000000000000000000000000000000000000000000000000000000000000000000000000000000000000000000000000000000000000000000000000000000000000000000000000000000000000000000000000000000000000000000000000000000000000000000000000000000000000000000000000000000000000000000000000000000000000000000000000000000000000000000000000000000000000000000000000000000000000000000000000000000000000000000000000000000000000000000000000000000000000000000000000000000000000000000000000000000000000000000000000000000000000000000000000000000000000000000000000000000000000000000000000000000000000000000000000000000000000000
#022950:0013
#022920:00000053
#023950:53
#023920:000000000000000000000000000000000000000000000000000000000000000000000000000000000000000000000000000000000000000000000000000000000000000000000000000000000000000000000000000000000000000000000000000000000000000000000000000000000000000000000000000000000000000000000000000000000000000000000000000000000000000000000000000000000000000000000000000000000000000000000000000000000000000000000000000000000000000000000000000000000000000000000000000000000000000000000000000000000000000000000000000000000000000000000000000000000000000000000000000000000000000000000000000000000000000000000000000000000000000000000000000000000000000000000000000000000000000000000000000000000000000000000000000000000000000000000000000000000000000000000000000000000000000000000000000000000000000000000000000000000000000000000000000000000000000000000000000000000000000000000000000000000000000000000000000000000000000000000000000000000000000000000000000000000000000000000000000000000000000000535353230000000000000000000000000000000000000000000000000000000000000000000000000000000000000000000000000000000000000000000000000000000000000000000000000000000000000000000000000000000000000000000000000000000000000000000000000000000000000000000000000000000000000000000000000000000000000000000000000000000000000000000000000000000000000000000000000000000000000000000000000000000000000000000000000000000000000000000000000000000000000000000000000000000000000000000000000000000000000000000000000000000000000000000000000000000000000000000000000000000000000000000000000000000000000000000000000000000000000000000000000000000000000000000000000000000000000000000000000000000000000000000000000000000000000000000000000000000000000000000000000000000000000000000000000000000000000000000000000000000000000000000000000000000000000000000000000000000000000000000000000000000000000000000000000000000000000000000000000000000000000000000000000000000000000000000000000000000000000000000000000000000000000000000000000000000000000000000000000000000000000000000000000000000000000000000000000000000000000000000000000000000000000000000000000000000000000000000000000000000000000000000000000000000000000000000000000000000000000000000000000000000000000000000000000000000000000000000000000000000000000000000000000000000000000000000000000000000000000000000000000000000000000000000000000000000000000000000000000000000000000000000000000000000000000000000000000000000000000000000000000000000000000000000000000000000000000000000000000000000000000000000000000000000000000000000000000000000000000000000000000000000000000000000000000000000000000000000000000000000000000000000000000000000000000000000000000000000000000000000000000000000000000000000000000000000000000000000000000000000000000000000000000000000000000000000000000000000000000000000000000000000000000000000000000000000000000000000000000000000000000000000000000000000000000000000000000000000000000000000000000000000000000000000000000000000000000000000000000000000000000000000000000000000000000000000000000000000000000000000000000000000000000000000000000000000000000000000000000000000000000000000000000000000000000000000000000000000000000000000000000000000000000000000000000000000000000000000000000000000000000000000000000000000000000000000000000000000000000000000000000000000000000000000000000000000000000000000000000000000000000000000000000000000000000000000000000000000000000000000000000000000000000000000000000000000000000000000000000000000000000000000000000000000000000000000000000000000000000000000000000000000000000000000000000000000000000000000000000000000000000000000000000000000000000000000000000000000000000000000000000000000000000000000000000000000000000000000000000000000000000000000000000000000000000000000000000000000000000000000000000000000000000000000000000000000000000000000000000000000000000000000000000000000000000000000000000000000000000000000000
#024970:1353
#0249b0:000000000000000000000000000000000000000000000000000000000000000000000000000000000000000000000000000000000000000000000000000000000000000000000000000000000000000000000000000000000000000000000000000000000000000000000000000000000000000000000000000000000000000000000000000000000000000000000000000000000000000000000000000000000000000000000000000000000000000000000000000000000000000000000000000000000000000000000000000000000000000000000000000000000000000000000000000000000000000000000000000000000000000000000000000000000000000000000000000000000000000000000000000000000000000000000000000000000000000000000000000000000000000000000000000000000000000000000000000000000000000000000000000000000000000000000000000000000000000000000000000000000000000000000000000000000000000000000000000000000000000000000000000000000000000000000000000000000000000000000000000000000000000000000000000000000000000000000000000000000000000000000000000000000000000000000000000000000000000000000000530000000000000000000000000000000000000000000000000000000000000000000000000000000000000000000000000000000000000000000000000000000000000000000000000000000000000000000000000000000000000000000000000000000000000000000000000000000000000000000000000000000000000000000000000000000000000000000000000000000000000000000000000000000000000000000000000000000000000000000000000000000000000000000000000000000000000000000000000000000000000000000000000000000000000000000000000000000000000000000000000000000000000000000000000000000000000000000000000000000000000000000000000000000000000000000000000000000000000000000000000000000000000000000000000000000000000000000000000000000000000000000000000000000000000000000000000000000000000000000000000000000000000000000000000000000000000000000000000000000000000000000000000000000000000000000000000000000000000000000000000000000000000000000000000000000000000000000000000000000000000000000000000000000000000000000000000000000000000000000000000000000000000000000000000000000000000000000000000000000000000000000000000000000000000000000000000000000000000000000000000000000000000000000000000000000000000000000000000000000000000000000000000000000000000000000000000000000000000000000000000000000000000000000000000000000000000000000000000000000000000000000000000000000000000000000000000000000000000000000000000000000000000000000000000000000000000000000000000000000000000000000000000000000000000000000000000000000000000000000000000000000000000000000000000000000000000000000000000000000000000000000000000000000000000000000000000000000000000000000000000000000000000000000000000000000000000000000000000000000000000000000000000000000000000000000000000000000000000000000000000000000000000000000000000000000000000000000000000000000000000000000000000000000000000000000000000000000000000000000000000000000000000000000000000000000000000000000000000000000000000000000000000000000000000000000000000000000000005353535353230000000000000000000000000000000000000000000000000000000000000000000000000000000000000000000000000000000000000000000000000000000000000000000000000000000000000000000000000000000000000000000000000000000000000000000000000000000000000000000000000000000000000000000000000000000000000000000000000000000000000000000000000000000000000000000000000000000000000000000000000000000000000000000000000000000000000000000000000000000000000000000000000000000000000000000000000000000000000000000000000000000000000000000000000000000000000000000000000000000000000000000000000000000000000000000000000000000000000000000000000000000000000000000000000000000000000000000000000000000000000000000000000000000000000000000000000000000000000000000000000000000000000000000000000000000000000000000000000000000000000000000000000000000000000000000000000000000000000000000000000000000000000000000000000000000000000000000000000000000000000000000000000000000000000000000000000000000000000000000000
#097950:00000000160000000000000000560000
#097980:000000000000000000000000000000000000000000000000000000000000000000000000000000000000000000000000000000000000000000000000000000000000000000000000000000000000000000000000000000000000000000000000000000000000000000000000000000000000000000000000000000000000000000000000000000000000000000000000000000000000000000000000000000000000000000000000000000000000000000000000000000000000000000000000000000000000000000000000000000000000000000000000000000000000000000000000000000000000000000000000000000000000000000000000000000000000000000000000000000000000000000000000000000000000000000000000000000000000000000000000000000000000000000000000000000000000000000000000000000000000000000000000000000000000000000000000000000000000000000000000000000000000000000000000000000000000000000000000000000000000000000000000000000000000000000000000000000000000000000000000000000000000000000000000000000000000000000000000000000000000000000000000000000000000000000000000000000000000000000000000000000000000000000000000000000000000000000000000000000000000000000000000000000000000000000000000000000000000000000000000000000000000000000000000000000000000000000000000000000000000000000000000000000000000000000000000000000000000000000000000000000000000000000000000000000000000000000000000000000000000000000000000000000000000000000000000000000000000000000000000000000000000000000000000000000000000000000000000000000000000000000000000000000000000000000000000000000000000000000000000000000000000000000000000000000000000000000000000000000000000000000000000000000000000000000000000000000000000000000000000000000000000000000000000000000000000000000000000000000000000000000000000000000000000000000000000000000000000000000000000000000000000000000000000000000000000000000000000000000000000000000000000000000000000000000000000000000000000000000000000000000000000000000000000000000000000000000000000000000000000000000000000000000000000000000000000000000000000000000000000000000000000000000000000000000000000000000000000000000000000000000000000000000000000000000000000000000000000000000000000000000000000000000000000000000000000000000000000000000000000000000000000000000000000000000000000000000000000000000000000000000000000000000000000000000000000000000000000000000000000000000000000000000000000000000000000000000000000000000000000000000000000000000000000000000000000000000000000000000000000000000000000000000000000000000000000000000000000000000000000560000000000000000000000000000000000000000000000000000000000000000000000000000000000000000000000000000000000000000000000000000000000000000000000000000000000000000000000000000000000000000000000000000000000000000000000000000000000000000000000000000000000000000000000000000000000000000000000000000000000000000000000000000000000000000000000000000000000000000000000000000000000000000000000000000000000000000000000000000000000000000000000000000000000000000000000000000000000000000000000000000000000000000000000000000000000000000000000000000000000000000000000000000000000000000000000000000000000000000000000000000000000000000000000000000000000000000000000000000000000000000000000000000000000000000000000000000000000000000000000000000000000000000000000000000000000000000000000000000000000000000000000000000000000000000000000000000000000000000000000000000000000000000000000000000000000000000000000000000000000000000000000000000000000000000000000000000000000000000000000000000000000000000000000000000000000000000000000000000000000000000000000000000000000000000000000000000000000000000000000000000000000000000000000000000000000000000000000000000000000000000000000000000000000000000000000000000000000000000000000000000000000000000000000000000000000000000000000000000000000000000000000000000000000000000000000000000000000000000000000000000000000000000000000000000000000000000000000000000000000000000000000000000000000000000000000000000000000000000565656
#098980:26
#101950:16
#101920:000000000000000000000000000000000000000000000000000000000000000000000000000000000000000000000000000000000000000000000000000000000000000000000000000000000000000000000000000000000000000000000000000000000000000000000000000000000000000000000000000000000000000000000000000000000000000000000000000000000000000000000000000000000000000000000000000000000000000000000000000000000000000000000000000000000000000000000000000000000000000000000000000000000000000000000000000000000000000000000000000000000000000000000000000000000000000000000000000000000000000000000000000000000000000000000000000000000000000000000000000000000000000000000000000000000000000000000000000000000000000000000000000000000000000000000000000000000000000000000000000000000000000000000000000000000000000000000000000000000000000000000000000000000000000000000000000000000000000000000000000000000000000000000000000000000000000000000000000000000000000000000000000000000000000000000000000000000000000000000000560000000000000000000000000000000000000000000000000000000000000000000000000000000000000000000000000000000000000000000000000000000000000000000000000000000000000000000000000000000000000000000000000000000000000000000000000000000000000000000000000000000000000000000000000000000000000000000000000000000000000000000000000000000000000000000000000000000000000000000000000000000000000000000000000000000000000000000000000000000000000000000000000000000000000000000000000000000000000000000000000000000000000000000000000000000000000000000000000000000000000000000000000000000000000000000000000000000000000000000000000000000000000000000000000000000000000000000000000000000000000000000000000000000000000000000000000000000000000000000000000000000000000000000000000000000000000000000000000000000000000000000000000000000000000000000000000000000000000000000000000000000000000000000000000000000000000000000000000000000000000000000000000000000000000000000000000000000000000000000000000000000000000000000000000000000000000000000000000000000000000000000000000000000000000000000000000000000000000000000000000000000000000000000000000000000000000000000000000000000000000000000000000000000000000000000000000000000000000000000000000000000000000000000000000000000000000000000000000000000000000000000000000000000000000000000000000000000000000000000000000000000000000000000000000000000000000000000000000000000000000000000000000000000000000000000000000000000000000000000000000000000000000000000000000000000000000000000000000000000000000000000000000000000000000000000000000000000000000000000000000000000000000000000000000000000000000056000000000000000000000000000000000000000000000000000000000000000000000000000000000000000000000000000000000000000000000000000000000000000000000000000000000000000000000000000000000000000000000000000000000000000000000000000000000000000000000000000000000000000000000000000000000000000000000000000000000000000000560056565656260000000000000000000000000000000000000000000000000000000000000000000000000000000000000000000000000000000000000000000000000000000000000000000000000000000000000000000000000000000000000000000000000000000000000000000000000000000000000000000000000000000000000000000000000000000000000000000000000000000000000000000000000000000000000000000000000000000000000000000000000000000000000000000000000000000000000000000000000000000000000000000000000000000000000000000000000000000000000000000000000000000000000000000000000000000000000000000000000000000000000000000000000000000000000000000000000000000000000000000000000000000000000000000000000000000000000000000000000000000000000000000000000000000000000000000000000000000000000000000000000000000000000000000000000000000000000000000000000000000000000000000000000000000000000000000000000000000000000000000000000000000000000000000000000000000000000000000000000000000000000000000000000000000000000000000000000000000000000000000000
#101940:0056
#102960:0014
#1029a0:000000000000000000000000000000000000000000000000000000000000000000000000000000000000000000000000000000000000000000000000000000000000000000000000000000000000000000000000000000000000000000000000000000000000000000000000000000000000000000000000000000000000000000000000000000000000000000000000000000000000000000000000000000000000000000000000000000000000000000000000000000000000000000000000000000000000000000000000000000000000000000000000000000000000000000000000000000000000000000000000000000000000000000000000000000000000000000000000000000000000000000000000000000000000000000000000000000000000000000000000000000000000000000000000000000000000000000000000000000000000000000000000000000000000000000000000000000000000000000000000000000000000000000000000000000000000000000000000000000000000000000000000000000000000000000000000000000000000000000000000000000000000000000000000000000000000000000000000000000000000000000000000000000000000000000000000000000000000000000000000000000000000000000000000000000000000000000000000000000000000000000000000000000000000000000000000000000000000000000000000000000000000000000000000000000000000000000000000000000000000000000000000000000000000000000000000000000000000000000000000000000000000000000000000000000000000000000000000000000000000000000000000000000000000000000000000000000000000000000000000000000000000000000000000000000000000000000000000000000000000000000000000000000000000000000000000000000000000000000000000000000000000000000000000000000000000000000000000000000000000000000000000000000000000000000000000000000000000000000000000000000000000000000000000000000000000000000000000000000000000000000000000000000000000000000000000000000000000000000000000000000000000000000000000000000000000000000000000000000000000000000000000000000000000000000000000000000000000000000000000000000000000000000000000000000000000000000000000000000000000000000000000000000000000000000000000000000000000000000000000000000000000000000000000000000000000000000000000000000000000000000000000000000000000000000000000000000000000000000000000000000000000000000000000000000000000000000000000000000000000000000000000000000000000000000000000000000000000000000000000000000000000000000000000000000000000000000000000000000000000000000000000000000000000000000000000000000000000000000000000000000000000000000000000000000000000000000000000000000000000000000000000000000000000000000000000000000000000000000000000000000000000000000000000000000000000000000000000000000000000000000000000000000000000000000000000000000000000000000000000000000000000000000000000000000000000000000000000000000000000000000000000000000000000000000000000000000000000000000000000000000000000000000000000000000000000000000000000000000000000000000000000000000000000000000000000000000000000000000000000000000000000000000000000000000000000000000000000000000000000000000000000000000000000000000000000000000000000000000005454240000000000000000000000000000000000000000000000000000000000000000000000000000000000000000000000000000000000000000000000000000000000000000000000000000000000000000000000000000000000000000000000000000000000000000000000000000000000000000000000000000000000000000000000000000000000000000000000000000000000000000000000000000000000000000000000000000000000000000000000000000000000000000000000000000000000000000000000000000000000000000000000000000000000000000000000000000000000000000000000000000000000000000000000000000000000000000000000000000000000000000000000000000000000000000000000000000000000000000000000000000000000000000000000000000000000000000000000000000000000000000000000000000000000000000000000000000000000000000000000000000000000000000000000000000000000000000000000000000000000000000000000000000000000000000000000000000000000000000000000000000000000000000000000000000000000000000000000000000000000000000000000000000000000000000000000000000000000000000000000
#103960:00140000
#103920:000000000000000000000000000000000000000000000000000000000000000000000000000000000000000000000000000000000000000000000000000000000000000000000000000000000000000000000000000000000000000000000000000000000000000000000000000000000000000000000000000000000000000000000000000000000000000000000000000000000000000000000000000000000000000000000000000000000000000000000000000000000000000000000000000000000000000000000000000000000000000000000000000000000000000000000000000000000000000000000000000000000000000000000000000000000000000000000000000000000000000000000000000000000000000000000000000000000000000000000000000000000000000000000000000000000000000000000000000000000000000000000000000000000000000000000000000000000000000000000000000000000000000000000000000000000000000000000000000000000000000000000000000000000000000000000000000000000000000000000000000000000000000000000000000000000000000000000000000000000000000000000000000000000000000000000000000000000000000000000000000000000000000000000000000000000000000000000000000000000000000000000000000000000000000000000000000000000000000000000000000000000000000000000000000000000000000000000000000000000000000000000000000000000000000000000000000000000000000000000000000000000000000000000000000000000000000000000000000000000000000000000000000000000000000000000000000000000000000000000000000000000000000000000000000000000000000000000000000000000000000000000000000000000000000000000000000000000000000000000000000000000000000000000000000000000000000000000000000000000000000000000000000000000000000000000000000000000000000000000000000000000000000000000000000000000000000000000000000000000000000000000000000000000000000000000000000000000000000000000000000000000000000000000000000000000000000000000000000000000000000000000000000000000000000000000000000000000000000000000000000000000000000000000000000000000000000000000000000000000000000000000000000000000000000000000000000000000000000000005454240000000000000000000000000000000000000000000000000000000000000000000000000000000000000000000000000000000000000000000000000000000000000000000000000000000000000000000000000000000000000000000000000000000000000000000000000000000000000000000000000000000000000000000000000000000000000000000000000000000000000000000000000000000000000000000000000000000000000000000000000000000000000000000000000000000000000000000000000000000000000000000000000000000000000000000000000000000000000000000000000000000000000000000000000000000000000000000000000000000000000000000000000000000000000000000000000000000000000000000000000000000000000000000000000000000000000000000000000000000000000000000000000000000000000000000000000000000000000000000000000000000000000000000000000000000000000000000000000000000000000000000000000000000000000000000000000000000000000000000000000000000000000000000000000000000000000000000000000000000000000000000000000000000000000000000000000000000000000000000000000000000000000000000000000000000000000000000000000000000000000000000000000000000000000000000000000000000000000000000000000000000000000000000000000000000000000000000000000000000000000000000000000000000000000000000000000000000000000000000000000000000000000000000000000000000000000000000000000000000000000000000000000000000000000000000000000000000000000000000000000000000000000000000000000000000000000000000000000000000000000000000000000000000000000000000000000000000000000000000000000000000000000000000000000000000000000000000000000000000000000000000000000000000000000000000000000000000000000000000000000000000000000000000000000000000000000000000000000000000000000000000000000000000000000000000000000000000000000000000000000000000000000000000000000000000000000000000000000000000000000000000000000000000000000000000000000000000000000000000000000000000000000000000000000000000000000000000000000000000000000000000000000000000000000000000000000000000000000000000000
#104960:140000000000000000000000000000000000000000000000000000000000000000000000000000000000000000000000000000000000000000000000000000000000000000000000000000000000000000000000000000000000000000000000000000000000000000000000000000000000000000000000000000000000000000000000000000000000000000000000000000000000000000000000000000000000000000000000000000000000000000000000000000000000000000000000000000000000000000000000000000000000000000000000000000000000000000000000000000000000000000000000000000000000000000000000000000000000000000000000000000000000000000000000000000000000000000000000000000000000000000000000000000000000000000000000000000000000000000000000000000000000000000000000000000000000000000000000000000000000000000000000000000000000000000000000000000000000000000000000000000000000000000000000000000000000000000000000000000000000000000000000000000000000000000000000000000000000000000000000000000000000000000000000000000000000000000000000000000000000000000000000000000000000000000000000000000000000000000000000000000000000000000000000000000000000000000000000000000000000000000000000000000000000000000000000000000000000000000000000000000000000000000000000000000000000000000000000000000000000000000000000000000000000000000000000000000000000000000000000000000000000000000000000000000000000000000000000000000000000000000000000000000000000000000000000000000000000000000000000000000000000000000000000000000000000000000000000000000000000000000000000000000000000000000000000000000000000000000000000000000000000000000000000000000000000000000000000000000000000000000000000000000000000000000000000000000000000000000000000000000000000000000000000000000000000000000000000000000000000000000000000000000000000000000000000000000000000000000000000000000000000000000000000000000000000000000000000000000000000000000000000000000000000000000000000000000000000000000000000000000000000000000000000000000000000000000000000000000000000000000000000540000000000000000000000000000000000000000000000000000000000000000000000000000000000000000000000000000000000000000000000000000000000000000000000000000000000000000000000000000000000000000000000000000000000000000000000000000000000000000000000000000000000000000000000000000000000000000000000000000000000000000000000000000000000000000000000000000000000000000000000000000000000000000000000000000000000000000000000000000000000000000000000000000000000000000000000000000000000000000000000000000000000000000000000000000000000000000000000000000000000000000000000000000000000000000000000000000000000000000000000000000000000000000000000000000000000000000000000000000000000000000000000000000000000000000000000000000000000000000000000000000000000000000000000000000000000000000000000000000000000000000000000000000000000000000000000000000000000000000000000000000000000000000000000000000000000000000000000000000000000000000000000000000000000000000000000000000000000000000000000000000000000000000000000000000000000000000000000000000000000000000000000000000000000000000000000000000000000000000000000000000000000000000000000000000000000000000000000000000000000000000000000000000000000000000000000000000000000000000000000000000000000000000000000000000000000000000000000000000000000000000000000000000000000000000000000000000000000000000000000000000000000000000000000000000000000000000000000000000000000000000000000000000000000000000000000000000000000000000000000000000000000000000000000000000000000000000000000000000000000000000000000000000000000000000000000000000000000000000000000000000000000000000000000000000000000000000000000000000000000000000000000000000000000000000000000000000000000000000000000000000000000000000000000000000000000000000000000000000000000000000000000000000000000000000000000000000000000000000000000000000000000000000000000000000000000000000000000000000000000000000000000000000000000000000000000000000000000005454545454
#1049a0:00540054
#105960:24
#105950:0016
#105920:00000000000000000000005655560000
#106950:560000000000000000000000000000000000000000000000000000000000000000000000000000000000000000000000000000000000000000000000000000000000000000000000000000000000000000000000000000000000000000000000000000000000000000000000000000000000000000000000000000000000000000000000000000000000000000000000000000000000000000000000000000000000000000000000000000000000000000000000000000000000000000000000000000000000000000000000000000000000000000000000000000000000000000000000000000000000000000000000000000000000000000000000000000000000000000000000000000000000000000000000000000000000000000000000000000000000000000000000000000000000000000000000000000000000000000000000000000000000000000000000000000000000000000000000000000000000000000000000000000000000000000000000000000000000000000000000000000000000000000000000000000000000000000000000000000000000000000000000000000000000000000000000000000000000000000000000000000000000000000000000000000000000000000000000000000000000000000000000000000000000000000000000000000000000000000000000000000000000000000000000000000000000000000000000000000000000000000000000000000000000000000000000000000000000000000000000000000000000000000000000000000000000000000000000000000000000000000000000000000000000000000000000000000000000000000000000000000000000000000000000000000000000000000000000000000000000000000000000000000000000000000000000000000000000000000000000000000000000000000000000000000000000000000000000000000000000000000000000000000000000000000000000000000000000000000000000000000000000000000000000000000000000000000000000000000000000000000000000000000000000000000000000000000000000000000000000000000000000000000000000000000000000000000000000000000000000000000000000000000000000000000000000000000000000000000000000000000000000000000000000000000000000000000000000000000000000000000000000000000000000000000000000000000000000000000000000000000000000000000000000000000000000000000000000000000000000555555555555250000000000000000000000000000000000000000000000000000000000000000000000000000000000000000000000000000000000000000000000000000000000000000000000000000000000000000000000000000000000000000000000000000000000000000000000000000000000000000000000000000000000000000000000000000000000000000000000000000000000000000000000000000000000000000000000000000000000000000000000000000000000000000000000000000000000000000000000000000000000000000000000000000000000000000000000000000000000000000000000000000000000000000000000000000000000000000000000000000000000000000000000000000000000000000000000000000000000000000000000000000000000000000000000000000000000000000000000000000000000000000000000000000000000000000000000000000000000000000000000000000000000000000000000000000000000000000000000000000000000000000000000000000000000000000000000000000000000000000000000000000000000000000000000000000000000000000000000000000000000000000000000000000000000000000000000000000000000000000000000000000000000000000000000000000000000000000000000000000000000000000000000000000000000000000000000000000000000000000000000000000000000000000000000000000000000000000000000000000000000000000000000000000000000000000000000000000000000000000000000000000000000000000000000000000000000000000000000000000000000000000000000000000000000000000000000000000000000000000000000000000000000000000000000000000000000000000000000000000000000000000000000000000000000000000000000000000000000000000000000000000000000000000000000000000000000000000000000000000000000000000000000000000000000000000000000000000000000000000000000000000000000000000000000000000000000000000000000000000000000000000000000000000000000000000000000000000000000000000000000000000000000000000000000000000000000000000000000000000000000000000000000000000000000000000000000000000000000000000000000000000000000000000000000000000000000000000000000000000000000000000000000000000000000000000000000000000000000000000000000
#106920:00000056550000000000000000000000
