This file was generated by Ched 2.7.0.0.
#TITLE ""
#ARTIST ""
#DESIGNER ""
#DIFFICULTY 0
#PLAYLEVEL
#SONGID ""
#WAVE ""
#WAVEOFFSET 0
#JACKET ""
#REQUEST "ticks_per_beat 480"
#00002: 4
#BPM01: 239
#00008: 01
#TIL00: ""
#VOLUME: ""
#HISPEED 00
#MEASUREHS 00
#0031a:00000014
#00418:0000000000000014
#00612:00000014
#00714:0000000000000014
#00918:00000014
#01018:0014
#01114:00140000
#01214:14
#0121a:00000014
#01412:00140000
#02018:00140000
#02114:14
#0211a:00000014
#0221a:0014
#02312:00140000
#02412:14
#02618:00140000
#0271a:14
#02814:0014
#02918:00140000
#03014:00000014
#03118:0014
#03214:00140000
#0401a:0014
#04114:00140014
#04118:0014
#04218:14
#04212:00000014
#04312:0014
#04418:00140014
#04414:0014
#04814:14
#04818:00140000
#04812:00000014
#0491a:0014
#05014:00140000
#05012:00003434
#05119:00000014
#05110:00000041
#0521a:0014
#05319:00140000
#05418:14
#05512:0014
#05713:00000014
#0571a:14
#05812:0014
#05913:00140000
#06014:14
#0611a:0014
#05616:00140000
#06312:14
#06318:00000024
#06216:00140000
#06413:0014
#06418:00000014
#06410:41
#06514:14
#06519:00240000
#06612:14
#06618:00140000
#06614:0014
#0661a:00000024
#06712:0015
#06718:00000015
#06813:15
#06819:00250000
#06918:00260016
#06912:2626
#07518:16
#07512:00000026
#08014:0014
#08018:00000014
#0801a:00240000
#08010:00410000
#08114:14
#0811a:00140000
#08112:00000014
#08218:1414
#08214:00140000
#08212:00000014
#08318:0000000034143400
#0831a:00140000
#08514:3414340000000000
#08412:00000014
#08614:0014
#08619:00000014
#0861a:00240000
#08713:14
#08718:00140000
#08712:00000014
#08818:14
#08813:00140000
#08819:0014
#08814:00000014
#08918:0000000034143400
#0891a:00140000
#09314:0000001600000000
#09212:00160000
#09718:00160000
#09719:00000014
#10112:16
#10113:0014
#10218:00001414
#10214:0000000000140000
#10314:00141400
#10318:0000001400000000
#10418:14
#10414:00140000
#10412:00003434
#1071b:00130000
#10812:00140000
#10818:0014
#10814:00000014
#1081f:21
#11117:0000351535000000
#11118:16000026
#11214:0000000000003515
#11212:0016
#1141a:14
#11414:00140000
#11418:0014
#11412:00000014
#1091a:14000014
#10912:0014
#10910:0041
#11012:0014
#11018:00140000
#11014:14
#1151a:14
#11512:0014
#11518:00000014
#11614:14
#1161a:00140000
#11612:0014
#11717:0000351535000000
#11718:16000026
#12618:2414
#12614:00140000
#1281a:14
#12814:00140000
#12818:0014
#12912:14
#12918:00140000
#12914:0014
#1301a:2414
#13014:00140014
#13112:00140014
#13118:2414
#1401b:0013
#14218:13
#12014:0000001400000000
#12018:00000014
#1201a:24
#12112:0014000000000000
#1211a:0014
#12118:0000000000003414
#12318:0000001400000000
#12314:00000014
#12312:24
#1241a:0014000000000000
#12412:0014
#12414:0000000000003414
#12714:1414
#12718:00140000
#07216:14
#07212:00000023
#0941f:0011
#09412:0026
#01519:00000024
#01513:00000024
#01510:00000041
#03619:00000024
#03613:00000024
#0391a:00000024
#03910:00000041
#07818:0000002600000000
#07812:00000026
#07918:0026000000000000
#07912:0026
#09012:00000026
#09112:0026000000000000
#09118:0000000026000026
#1051a:0024
#10514:00000024
#10618:2426
#10612:00240000
#11312:00260000
#11314:35
#11812:0000000025000025
#11819:0000000025000025
#14512:25
#14519:25
#11919:00250000
#11912:00250000
#13218:26262626
#13212:0026002600260026
#07713:00003434
#1391b:00000033
#12218:34
#12514:34
#1441b:0053
#13712:0053
#14812:63
#1481b:63
#0035a:00000064
#00458:0000000000000024
#00652:00000054
#00754:0000000000000024
#0125a:00000064
#01452:00540000
#02658:00640000
#02758:00000014
#0275a:24
#02958:00640000
#03254:00540000
#04554:00000014
#04758:00140000
#04852:00000014
#0495a:0014
#05054:00640000
#05159:00000064
#0525a:0024
#05359:00640000
#05458:24
#05753:00000054
#05852:0024
#05953:00540000
#06054:24
#06358:00000014
#06559:00140000
#0665a:00000014
#06859:00150000
#06958:00000066
#07452:00160000
#07252:00000023
#07558:16
#07552:00000066
#07852:16
#0845a:44
#08452:00000054
#08358:0000000000240000
#0835a:00640000
#08554:0024000000000000
#08552:0034
#08958:0000000000240000
#0895a:00640000
#0905a:44
#08758:00140000
#08854:00000014
#09452:0016
#09354:0000002600000000
#09252:00660000
#09858:00160000
#09758:00660000
#09759:00000024
#10152:56
#10153:0024
#10252:16
#10552:14
#10454:00540000
#10858:16
#1075b:00230000
#10658:0066
#11157:0000002500000000
#11158:66000046
#11254:0000000000000025
#11252:0056
#11352:00360000
#1095a:14
#11052:0014
#1155a:14
#11652:0014
#11757:0000002500000000
#11758:66000046
#12858:0014
#12954:0014
#1405b:0063
#14258:63
#11959:00150000
#11952:00150000
#1215a:0064
#12158:0000000000000024
#1225a:00440000
#12452:0054
#12454:0000000000000024
#12552:00340000
#14552:65
#14559:65
#13252:0000000000000016
#0033a0:00000014
#004380:0000000000000054
#0063a0:24
#006320:00000014
#007340:0000000000000054
#009320:24
#0123a0:00000014
#013380:0024
#014320:00140000
#015340:24
#015390:00000014
#018380:00000026
#015331:00000014
#018321:00000026
#024381:00000014
#0253a1:0034
#026381:00340000
#0273a1:54
#027381:00000024
#029381:00140000
#0303a1:24
#032341:00140000
#033321:24
#0333a1:00000014
#0343a1:0024
#035321:00140000
#036321:24
#036391:00000014
#038391:00240000
#036330:00000014
#038330:00240000
#045340:14343424
#046380:00001434
#047380:34240000
#050340:00140000
#050320:00003434
#051320:24
#051390:00000014
#0523a0:0034
#053390:00340000
#054380:34
#054390:00000024
#057330:00000014
#058320:0034
#059330:00340000
#060340:34
#060330:00000024
#069380:00000016
#0713b0:00230000
#072320:00000013
#074320:00260000
#075320:00000016
#077330:00343434
#078320:26
#0833a0:00140000
#083380:0000000034543400
#0843a0:24
#084320:00000014
#085340:3454340000000000
#085320:0024
#0893a0:00140000
#089380:0000000034543400
#0903a0:24
#092320:00160000
#093340:0000005600000000
#094320:0026
#096380:00001656
#096390:00000000000000000054000000540000
#097380:56360000
#097390:00540000000000000000000054000000
#098380:00260000
#100320:00165656
#100330:00000000005400000054000000540000
#101320:36
#101330:0054
#102320:26
#104340:00140000
#104320:00003434
#105320:24
#106380:0016
#1073b0:00530000
#108380:26
#111380:16000026
#111370:0000355535000000
#112320:0016
#112340:0000000000003555
#113340:35
#113320:00260000
#117380:16000026
#117370:0000355535000000
#1213a0:0014
#121380:0000000000003454
#122380:34
#1223a0:00240000
#124320:0014
#124340:0000000000003454
#125340:34
#125320:00240000
#134350:0013
#137320:0023
#139380:13
#1393b0:00000033
#1403b0:0033
#142380:33
#1443b0:0023
#145320:15
#148320:23
#145391:15
#1483b1:23
