This file was generated by Ched 2.7.0.0.
#TITLE ""
#ARTIST ""
#DESIGNER ""
#DIFFICULTY 0
#PLAYLEVEL
#SONGID ""
#WAVE ""
#WAVEOFFSET 0
#JACKET ""
#REQUEST "ticks_per_beat 480"
#00002: 4
#BPM01: 130
#00008: 01
#TIL00: ""
#VOLUME: ""
#HISPEED 00
#MEASUREHS 00
#0011a:1414
#00114:00140000
#00212:1414
#00218:00140000
#0031a:1414
#00314:00140000
#00412:1414
#00418:00140000
#00514:0014
#00518:00000014
#00510:41
#00612:14
#0061a:00140000
#00614:0014
#00714:0014
#0071a:00000014
#00812:14
#00818:00140000
#00814:0014
#0081a:00000014
#00918:0014
#00914:00000014
#0101a:14
#01012:00140000
#01018:0014
#01118:0014
#01112:00000014
#0121a:14
#01214:00140000
#01218:0014
#01212:00000014
#02114:00140000
#02118:2614
#02112:00000014
#02110:41
#02212:00140000
#0221a:0014
#02214:00000014
#02218:26
#02312:00140014
#02318:2614
#02414:00140000
#02418:26
#02518:00140000
#02514:0014
#0251a:00000014
#02512:26
#0261a:00140000
#02612:2614
#02618:00000014
#0271a:00140014
#02714:0014
#02712:26
#02818:00140000
#02812:26
#03114:14
#0311a:14
#03218:14
#03212:14
#03314:14
#0331a:14
#03514:14
#0351a:14
#03618:14
#03612:14
#03714:14
#0371a:14
#03812:1414
#03818:00140000
#0381f:11
#0391a:1414
#03914:00140000
#04012:1414
#04018:00140000
#0411a:1414
#04114:00140000
#04212:1414
#04218:00140014
#04314:1414
#0431a:00140014
#04412:1414
#04418:00140014
#04512:14
#04614:00140000
#04618:2614
#04612:00000014
#0461f:21
#04712:00140000
#0471a:0014
#04714:00000014
#04716:26
#04710:41
#04814:00140000
#04818:2614
#04812:00000014
#04912:00140000
#04916:26
#05018:00140000
#05014:0014
#0501a:00000014
#05012:26
#0511a:00140000
#05112:0014
#05118:00000014
#05114:26
#05218:00140000
#05214:0014
#0521a:00000014
#05212:26
#0531a:00140000
#05314:26
#05412:00140014
#05416:0014
#05418:26
#05514:00140014
#05518:2614
#05612:00140014
#05616:0014
#05618:26
#05712:00140000
#05716:26
#05710:41
#0581a:00140014
#05816:0014
#05812:26
#05918:00140014
#05914:0014
#05912:26
#0601a:00140014
#06016:0014
#06012:26
#0611a:00140000
#06114:26
#03018:24
#03012:24
#03418:24
#03412:24
#01310:41
#02910:0041
#02158:16
#02458:00000014
#02552:16
#02854:00000014
#04658:16
#04958:00000016
#05352:00000016
#05052:16
#05458:16
#05852:16
#05758:00000016
#06152:00000016
#0053a0:14240000
#007380:14240000
#009320:14240000
#011340:14240000
#0133a0:14
#013380:0034
#0143a0:34
#014380:0024
#015340:14
#015320:0034
#016340:34
#016320:0024
#017380:14
#0173a0:0034
#018380:34
#0183a0:0024
#019320:14
#019340:0034
#020320:34
#020340:0024
#024380:00001424
#028340:00001424
#049380:00001626
#053320:00001626
#057380:00001626
#061320:00001626
#062380:16260000
#062320:00001626
#063380:15250000
#063330:00001525
#064380:14240000
#064340:00001424
#065380:13230000
#065350:00001323
