This file was generated by Ched 2.7.0.0.
#TITLE ""
#ARTIST ""
#DESIGNER ""
#DIFFICULTY 0
#PLAYLEVEL
#SONGID ""
#WAVE ""
#WAVEOFFSET 0
#JACKET ""
#REQUEST "ticks_per_beat 480"
#00002: 4
#BPM01: 136
#00008: 01
#TIL00: ""
#VOLUME: ""
#HISPEED 00
#MEASUREHS 00
#01112:14
#01115:00000000000033331300000000000000
#0111a:24
#01118:00000000000033332300000000000000
#01518:00001300000000230000000013000000
#0151b:2300130000000013
#01515:0000001300000023
#01512:1300130000130000
#01510:41
#0171b:0000001300000000
#01712:13
#01718:23
#01716:0000002300000000
#0181b:0000130000000023
#01812:00130013
#01815:0013
#01818:0023
#02112:00000013
#0211b:13001313
#02118:0000130000000023
#02115:23
#02318:1313130000000013
#02312:0000130000130000
#0231b:0000001300130000
#02315:00000000000000130000000013000000
#02310:41
#02515:13
#02512:0000001300000000
#0251b:13130000
#02518:00001313
#02612:00130000
#0261b:1300000000000013
#02617:00130013
#02616:0013
#02918:00000013000000000000000000000000
#02912:13130013
#0291b:1300000000000000000000000000000000000013000000000000000000000000
#02915:0013000013000000
#03215:0000001300000000
#03212:2313
#0321b:13000023
#03218:0013
#0341b:0000000013000023
#03418:1300000000130000
#03415:23000013
#03412:0000000013000013
#0351b:0000000013000013
#03515:0013230000000000
#03518:00130000
#03516:0000000000000013
#03612:13
#03614:00000013000000000000000000000000
#03615:0000000000000013
#03617:13
#03619:00000013000000000000000000000000
#03616:0000001300000000
#03618:00000000000000000000000013000013
#0361b:0000001300000000
#03915:00001300130000000000000000000013
#03919:00130000
#03912:0000001300001400
#03917:00000000000000130000000000000000
#0391b:0000000000000000000000000000000000000013000000000000000000000000
#03918:2600000000000013
#0391f:21
#04012:0000000013000000130000000000000000000013000000000000000013000000
#0401b:1300001300000000
#04017:00130000
#0401a:00000014
#04016:00000000000000230000000000000000
#04010:41
#0411b:1313
#04115:0000000000130000
#04118:00000000000000000000001300000000
#04112:00000013000000001300000000000000
#04116:23
#04117:00000023000000000000000000000000
#0471a:24002400000000140000000000000000
#04715:0000000000000013
#04712:0014001400001400
#04716:00140000
#04718:00000000000000000000000000000013
#04816:0000140000000013
#0481b:0000000000000013
#0481a:0014001400001400
#04812:24002400000000240000000000000000
#04912:2300000023000014
#04917:13
#0491b:00000013000000001300000000000000
#04916:00000023000000000000000000000000
#0491a:0000000000000024
#0421b:00000013
#04212:24002413
#0421a:00241400
#04215:0000000000000013
#04218:00000000000000000000000000000013
#04216:14140000
#05817:140000000000000000000000000000000000000000000000000000000000000000000000000000000000000000000000000000000000000000000000000000000000000000000000000000000000000000000000000000000000000000000000000000000000000000000000000000000000000000000000000000000000000000000000000000000000000000000000000000000000000000000000000000000000000000000000000000000000000000000000000000000000000000000000000000000000000000000000000000000000000000000000000000000000000000000000000000000000000000000000000000000000000000000000000000000000000000000000000000000000000000000000000000000000000000000000000000000000000000000000000000000000000000000000000000000000000000000000000000000000000000000000000000000000000000000000000000000000000000000000000000000000000000000000000000000000000000000000000000000000000000000000000000000000000000000000000000000000000000000000000000000000000000000000000000000000000000000000000000000000000000000000000000000000000000000000000000000000000000000000000000000000000000000000000000000000000000000000000000000000000000000000000000000000000000000000000000000000000000000000000000000000000000000000000000000000000000000000000000000000000000000000000000000000000000000000000000000000000000000000000000000000000000000000000000000000000000000000000000000000000000000000000000000000000000000000000000000000000000000000000000000000000000000000000000000000000000000000000000000000000000000000000000000000000000000000000000000000000000000000000000000000000000000000000000000000000000000000000000000000000000000000000000000000000000000000000000000000000000000000000000000000000000000000000000000000000000000000000000000000000000000000000000000000000000000000000000000000000000000000000000000000000000000000000000000000000000000000000000000000000000000000000000000000000000000000000000000000000000000000000000000000000000000000000000000000000000000000000000000000000000000000000000000000000000000000000000000000000000000000000000000000000000000000000000000000000000000000000000000000000000000000000000000000000000000000000000000000000000000000000000000000000000000000000000000000000000000000000000000000000000000000000000000000000000000000000000000000000000000000000000000000000000000000000000000000000000000000000000000000000000000000000000000000000000000000000000000000000000000000000000000000000000000000000000000000000000000000000000000000000000000000000000000000000000000000000000000000000000000014000000000000000000000000000000000000000000000000000000000000000000000000000000000000000000000000000000000000000000000000000000000000000000000000000000000000000000000000000000000000000000000000000000000000000000000000000000000000000000000000000000000000000000000000000000000000000000000000000000000000000000000000000000000000000000000000000000000000000000000000000000000000000000000000000000000000000000000000000000000000000000000000000000000000000000000000000000000000000000000000000000000000000000000000000000000000000000000000000000000000000000000000000000000000000000000000000000000000000000000000000000000000000000000000000000000000000000000000000000000000000000000000000000000000000000000000000000000000000000000000000000000000000000000000000000000000000000000000000000000000000000000000000000000000000000000000000000000000000000000000000000000000000000000000000000000000000000000000000000000000000000000000000000000000000000000000000000000000000000000000000000000000000000000000000000000000000000000000000000000000000000000000000000000000000000000000000000000000000000000000000000000000000000000000000000000000000000000000000000000000000000000000000000000000000000000000000000000000000000000000000000000000000000000000000000000000000000000000000000000000000000000000000000000000000000000000000000000000000000000000000000000000000000000000000000000000000000000000000000000000000000000000000000000000000000000000000000000000000000000000
#05812:1424
#05815:0000140000140000
#0581a:00141400
#06512:1314
#06515:0013000000000013
#06518:00130013
#0651b:0000001300130000
#0651a:14
#06517:0013
#00217:0013
#00219:00000013
#00212:0023
#00214:00000023
#0031b:13
#00316:23
#00516:13
#0051b:13
#00517:0023
#00612:1414
#00614:00140000
#00618:00240000
#0061a:0024
#00716:13
#0071b:23
#00710:41
#00817:13
#00812:23
#00917:0013
#0091b:13
#00916:23
#0101a:00140000
#01018:00001414
#01012:24240000
#01014:00002424
#01312:1313
#0131b:1313
#01318:0013001300001300
#01315:0000130000130013
#01415:00130000000013001300000013002300
#0141b:00001300000000230000000000000000
#01418:23000000001300000013001300130013
#01412:0000230000230000
#02015:0013130023000000
#02012:0000000000000013
#0201b:00000000130000000000002300000000
#0191b:0000001300000000
#01918:00130013
#01915:0013002300000000
#01919:0000000000000033
#02215:13000000000000002300230000000023
#02212:00130023
#02218:00000000000000000023000000002300
#0221b:00000023
#02412:1300000013000013
#02415:00000000130000000000001300000000
#0241b:0013
#02418:00000000000000000000001300000000
#02715:0013000000000000
#02718:00130000
#0271b:0000001300000000
#02712:0000001300002300
#0281b:13131300
#02812:00000000000000000000001300000000
#02818:0000000000000013
#02815:0023000000000000
#01618:00000000000000000000001300000000
#0161b:0000130013000013
#01615:00000000000000000000001300000000
#01612:0023
#03012:13000023
#03015:00000000130000230023000000002300
#03018:00002600000023002300230000000023
#0301b:00000000000000000000000000230000
#03010:41
#03118:00000013000013001300000000000000
#03115:23000000000000000000001300001300
#03112:00000033000000001300000000000000
#0311f:11
#0311b:00000000000000000000003300000000
#0331b:00000013000013002300000000000000
#03312:13000000000000000000001300001300
#03316:00000033000000001300000000000000
#03317:00000000000000000000003300000000
#03712:23000000000000001400002400000000
#0371b:0013
#03812:14000000240000000013000000000013
#03816:0014000000000000
#0381a:24140000
#03818:0000001300232323
#03815:00000000000000230000001300130000
#0381b:0013
#04318:00001300130000000000000000000013
#04314:00130000
#0431b:0000001300000000
#04312:1300000000000000000000000000000000000013000000000000000000000000
#0431a:00000014
#04315:0000000000000013
#04316:00000000000000230000000000000000
#0441b:0000000013000000130000000000000000000013000000000000000000000000
#04412:1300001300001400
#04416:00130000
#04417:00000000000000130000000000000000
#04418:0000000000000013
#04512:1323
#0451b:1300000023000013
#04515:00001300000023000000002300000000
#04518:00000013000000000000230000000000
#0461b:00000013000000000000000000000000
#04618:1300000000000013
#04615:23000000000000000000000000000013
#04612:00000023000000000000000000000000
#05012:14140014
#05016:0024001400240000
#05018:0000000000000013
#05015:00000000000000000000000000000013
#0501a:2424
#05216:0000000000000000000000000000000000000014000000000000000013000000
#0521b:0023000000000013
#05218:0000001300000000
#05212:00000000000000130000000000000000
#0521a:00000014
#05215:00130000
#05312:1400002300000014
#05318:00001400000000000000002400000000
#05314:00000014000000000000240000000000
#05317:0000002300000000
#0531a:0000000024000024
#05412:14000000000000130000000000000000
#05415:00000013000000000000000000000000
#0541a:24
#0541b:00000000000000230000000000000000
#05418:00000023000000000000000000000000
#05518:0013001300000000
#05515:00130000
#0551b:13000013
#05512:13000000000000230000000000000000
#05516:0000000000000013
#05514:00000000000000000000000000000053
#0561b:13000000000000130000000000000000
#05615:0013001300000000
#05618:00130000
#05612:5300000000232323
#05716:00000013000000001300000000000000
#0571b:00000013000000001300000000000000
#05715:0000000000130013
#05712:13
#05717:13
#05718:00000000000000000000001300000000
#06112:1313000000000000
#0611b:1300000000001313
#06118:0000131300000000
#06115:0000000013130000
#06218:00130013000000000000000013000000
#06215:0013001300000000
#0621b:00000000001300130000000000000000
#06212:2400240024240000
#06214:00000000000000000000000000240024
#06618:00130000000013001300000000130000
#06615:00001300001300000013000013000000
#06612:24000000000000240000000000002400
#0661a:0000240000240000
#05918:00130000
#05915:0013001300000000
#05912:13000013
#0591b:13000000000000130000000000000000
#05917:0000000000000013
#05919:00000000000000000000000000000053
#05115:0000001300000013
#05116:0000000000000000000000000000000000000014000000000000000000000000
#05112:00000014
#05118:00000000130000000000000000000013
#0511b:23000000000000230000000000000000
#05110:41
#0601b:5300000000131300
#06012:13000000000000130000000000000000
#06018:0013001300000000
#06015:00130000
#06316:0013
#0631a:2424
#00412:13
#00417:23
#06715:29
#0701c:00000062
#0115a:54
#01152:54
#01158:0023
#01155:0023
#0635a:6454
#06356:0053
#0175b:0000006300000000
#01758:53
#01756:0000005300000000
#02358:0000000000000053
#02555:63
#02552:0000005300000000
#0265b:0000000000000053
#02657:00530000
#02656:0063
#02958:00000053000000000000000000000000
#0295b:0000000000000000000000000000000000000023000000000000000000000000
#03252:6353
#0325b:63000063
#0385a:14
#03852:00140000
#03957:00000000000000530000000000000000
#0395b:0000000000000000000000000000000000000023000000000000000000000000
#0425a:00141400
#04256:14140000
#04252:1414
#06755:69
#0035b:53
#00356:53
#00556:53
#00557:0053
#00652:1414
#00654:00140000
#00658:00140000
#0065a:1414
#00756:53
#0075b:53
#00857:63
#00852:53
#00957:0063
#00956:63
#0105a:14140000
#01058:00001414
#01052:14140000
#01054:00001414
#0245b:0053
#02458:00000000000000000000005300000000
#0275b:0000006300000000
#02752:00000053
#02855:0053000000000000
#0285b:0063
#02852:00000000000000000000005300000000
#01655:00000000000000000000006300000000
#01652:0053
#03158:0053
#03155:63
#03352:53
#0335b:0063
#03458:63
#0345a:00140000
#03452:00140000
#03455:63
#0345b:0000000000000053
#03656:0000006300000000
#03756:0000001300000000
#0375a:0000001400000000
#03757:0000000000000013
#03752:5300000000000014
#0375b:0053
#04052:0000000000000000000000000000000000000023000000000000000000000000
#04056:00000000000000530000000000000000
#04152:00000063000000000000000000000000
#04156:53
#04157:00000053000000000000000000000000
#04352:0000000000000000000000000000000000000023000000000000000000000000
#04356:00000000000000530000000000000000
#04457:00000000000000530000000000000000
#0445b:0000000000000000000000000000000000000023000000000000000000000000
#04558:00000053000000000000000000000000
#04555:00000000000000000000005300000000
#0465b:00000063000000000000000000000000
#04652:00000063000000000000000000000000
#04957:63
#04952:6363
#04956:00000063000000000000000000000000
#0495b:00000063000000006300000000000000
#05056:0024002400240000
#0505a:54445400
#05052:34543400
#0525b:0000000000000053
#05252:00000000000000530000000000000000
#05256:0000000000000000000000000000000000000024000000000000000000000000
#05352:0000005300000000
#05452:54000000000000230000000000000000
#0545a:54
#0545b:00000000000000230000000000000000
#05455:00000053000000000000000000000000
#05458:00000053000000000000000000000000
#0565b:00000000000000630000000000000000
#05852:14005434
#05857:140000000000000000000000000000000000000000000000000000000000000000000000000000000000000000000000000000000000000000000000000000000000000000000000000000000000000000000000000000000000000000000000000000000000000000000000000000000000000000000000000000000000000000000000000000000000000000000000000000000000000000000000000000000000000000000000000000000000000000000000000000000000000000000000000000000000000000000000000000000000000000000000000000000000000000000000000000000000000000000000000000000000000000000000000000000000000000000000000000000000000000000000000000000000000000000000000000000000000000000000000000000000000000000000000000000000000000000000000000000000000000000000000000000000000000000000000000000000000000000000000000000000000000000000000000000000000000000000000000000000000000000000000000000000000000000000000000000000000000000000000000000000000000000000000000000000000000000000000000000000000000000000000000000000000000000000000000000000000000000000000000000000000000000000000000000000000000000000000000000000000000000000000000000000000000000000000000000000000000000000000000000000000000000000000000000000000000000000000000000000000000000000000000000000000000000000000000000000000000000000000000000000000000000000000000000000000000000000000000000000000000000000000000000000000000000000000000000000000000000000000000000000000000000000000000000000000000000000000000000000000000000000000000000000000000000000000000000000000000000000000000000000000000000000000000000000000000000000000000000000000000000000000000000000000000000000000000000000000000000000000000000000000000000000000000000000000000000000000000000000000000000000000000000000000000000000000000000000000000000000000000000000000000000000000000000000000000000000000000000000000000000000000000000000000000000000000000000000000000000000000000000000000000000000000000000000000000000000000000000000000000000000000000000000000000000000000000000000000000000000000000000000000000000000000000000000000000000000000000000000000000000000000000000000000000000000000000000000000000000000000000000000000000000000000000000000000000000000000000000000000000000000000000000000000000000000000000000000000000000000000000000000000000000000000000000000000000000000000000000000000000000000000000000000000000000000000000000000000000000000000000000000000000000000000000000000000000000000000000000000000000000000000000000000000000000000000000000000000000000024000000000000000000000000000000000000000000000000000000000000000000000000000000000000000000000000000000000000000000000000000000000000000000000000000000000000000000000000000000000000000000000000000000000000000000000000000000000000000000000000000000000000000000000000000000000000000000000000000000000000000000000000000000000000000000000000000000000000000000000000000000000000000000000000000000000000000000000000000000000000000000000000000000000000000000000000000000000000000000000000000000000000000000000000000000000000000000000000000000000000000000000000000000000000000000000000000000000000000000000000000000000000000000000000000000000000000000000000000000000000000000000000000000000000000000000000000000000000000000000000000000000000000000000000000000000000000000000000000000000000000000000000000000000000000000000000000000000000000000000000000000000000000000000000000000000000000000000000000000000000000000000000000000000000000000000000000000000000000000000000000000000000000000000000000000000000000000000000000000000000000000000000000000000000000000000000000000000000000000000000000000000000000000000000000000000000000000000000000000000000000000000000000000000000000000000000000000000000000000000000000000000000000000000000000000000000000000000000000000000000000000000000000000000000000000000000000000000000000000000000000000000000000000000000000000000000000000000000000000000000000000000000000000000000000000000000000000000000000000000000
#0585a:00145444
#05855:0000140000240000
#0185b:0000000000000053
#01858:0053
#01955:0000005300000000
#01958:00000053
#0205b:00000000530000000000005300000000
#02055:0053
#03058:0046000000000000
#05156:0000000000000000000000000000000000000024000000000000000000000000
#0515b:00000000000000530000000000000000
#05757:53
#0575b:00000053000000000000000000000000
#05756:00000053000000000000000000000000
#05758:00000000000000000000005300000000
#06052:00000000000000530000000000000000
#0595b:00000000000000630000000000000000
#06456:0000000000140000
#06452:0000000000130000
#00452:63
#00457:63
#01558:00000000000000530000000000000000
#01555:0000000000000053
#02155:53
#02158:0000000000000053
#03555:00530000
#05552:00000000000000530000000000000000
#0475a:00000000000000240000000000000000
#04852:00000000000000240000000000000000
#003360:13
#003320:0023
#0033b1:13
#003371:0023
#004371:13
#0043b1:0023
#004320:13
#004360:0023
#005360:13
#005320:0024
#005371:0013
#0063a1:24
#007361:13
#007321:0023
#0073b0:13
#007370:0023
#008370:13
#0083b0:0023
#008321:13
#008361:0023
#009361:13
#009321:0024
#009370:0013
#0103a0:24
#0113a0:14
#011380:00000000000033333300000000000000
#012380:00000026
#011321:14
#011351:00000000000033333300000000000000
#012321:00000026
#015381:00000000000000130000000000000000
#0153b1:0000000000230000
#015351:0000000000000013
#016321:00230000
#016321:0000000013000023
#016351:00000000000000000000003300000000
#017381:13
#0173b1:0000003300000000
#018371:23
#017360:0000001300000000
#018320:23
#018380:0013
#0183b0:00000023
#0183b0:0000000000000013
#019380:0023000000000000
#019350:0000001300000000
#019320:00000023
#019381:00000013
#019391:0000000000000033
#0203b1:0033330000000000
#020381:0023
#020350:0013
#020320:00000000000000000000002300000000
#0203b1:00000000000000000000001300000000
#020381:0000000000000023
#021351:13
#021321:0023
#021381:0000000000000013
#0223b1:0023
#023381:0000000000000013
#0243b1:00230000
#0243b1:0000000013000023
#024381:00000000000000000000003300000000
#025351:13
#025321:0000333300000000
#026351:23
#026371:00130000
#0263b1:0023
#026360:0013
#026320:00000023
#0263b0:0000000000000013
#027380:0023000000000000
#0273b0:0000001300000000
#027370:00000023
#027321:00000013
#027351:0000000000000033
#028351:0033000000000000
#028321:00332300
#0283b0:0013
#028380:00000000000000000000002300000000
#028321:00000000000000000000001300000000
#028351:0000000000000023
#029381:00000013000000000000000000000000
#0293b1:0000000000000000000000000000000000000053000000000000000000000000
#030381:23
#031351:13
#031321:00000033000023000000000000000000
#031381:0013
#0313b1:00000000000000000000003300002300
#0323b1:13
#032381:00240000
#032320:13
#032340:00240000
#032320:0013
#032360:00000023
#0323b1:00000013
#033371:23
#033320:13
#033360:00000033000023000000000000000000
#0333b0:0013
#033370:00000000000000000000003300002300
#034380:13
#0343a0:00240000
#034351:13
#034321:00240000
#0343b1:0000000000000013
#035381:0023000000000000
#035351:00130000
#035321:0023
#036361:0000001300000000
#036321:00000023
#037321:13
#037361:00000033000023000000000000000000
#0373a0:00000014000024000000000000000000
#0373b0:0013
#037370:00000000000000000000003300002300
#037321:00000000000000000000001400002400
#039371:00000000000000130000000000000000
#0393b1:0000000000000000000000000000000000000053000000000000000000000000
#039361:00000024
#040361:00000000000000130000000024000000
#040321:0000000000000000000000000000000000000053000000000000000000000000
#041361:1300002300000000
#041321:00000033000000000000000000000000
#041370:00000013000000000000000000000000
#0413b0:0000002300000000
#041320:0000000000000014
#042320:24
#043360:00000000000000130000000024000000
#043320:0000000000000000000000000000000000000053000000000000000000000000
#044370:00000000000000130000000000000000
#0443b0:0000000000000000000000000000000000000053000000000000000000000000
#044360:00000024
#045380:00000013000000000000000000000000
#0453b0:0000002300000000
#045350:00000000000000000000001300000000
#045320:0000000000000023
#0463b0:00000013000000000000000000000000
#046380:00000026
#046321:00000013000000000000000026000000
#0473a1:00000000000000140000000000000000
#047361:00000028
#048321:00000000000000140000000028000000
#049371:1300002300000000
#0493b1:00000033000000000000000000000000
#049320:1300002300000000
#049360:00000033000000000000000000000000
#0493b0:0013
#049380:00000000000000000000332300000000
#049321:0013
#049351:00000000000000000000332300000000
#0503a1:14240000
#050361:0054000000000000
#050320:00142400
#050360:0000005400000000
#0503a1:00001424
#050361:0000000000540000
#0513b1:1323000000000000
#051320:0013230000000000
#0513b0:00000000000000130000000000000000
#051360:0000000000000000000000000000000000000054000000000000000000000000
#0513a0:00000024
#052320:1323000000000000
#0523b1:0013230000000000
#052321:00000000000000130000000024000000
#052361:0000000000000000000000000000000000000054000000000000000000000000
#0523b1:0000000000000013
#053361:24
#053321:0000001300000000
#053361:0024
#054321:14000000000000530000000026000000
#054351:00000033000000000000000000000000
#0543a0:14
#054380:00000033000000000000000026000000
#0543b0:00000000000000530000000000000000
#055320:00000000000000130000000000000000
#055360:00000023
#0563b0:00000000000000130000000000000000
#056370:0000000000000023
#057370:1300002300000000
#0573b0:00000033000000000000000000000000
#057361:00000013000000000000000000000000
#057321:0000002300000000
#057381:00000000000000000000001300000000
#0573b1:0000000000000023
#058321:00001424
#058351:0000000000540000
#0583a0:00001424
#058370:000000000000000000000000000000000000000000000000000000000000000000000000000000000000000000000000000000000000000000000000000000000000000000000000000000000000000000000000000000000000000000000000000000000000000000000000000000000000000000000000000000000000000000000000000000000000000000000000000000000000000000000000000000000000000000000000000000000000000000000000000000000000000000000000000000000000000000000000000000000000000000000000000000000000000000000000000000000000000000000000000000000000000000000000000000000000000000000000000000000000000000000000000000000000000000000000000000000000000000000000000000000000000000000000000000000000000000000000000000000000000000000000000000000000000000000000000000000000000000000000000000000000000000000000000000000000000000000000000000000000000000000000000000000000000000000000000000000000000000000000000000000000000000000000000000000000000000000000000000000000000000000000000000000000000000000000000000000000000000000000000000000000000000000000000000000000000000000000000000000000000000000000000000000000000000000000000000000000000000000000000000000000000000000000000000000000000000000000000000000000000000000000000000000000000000000000000000000000000000000000000000000000000000000000000000000000000000000000000000000000000000000000000000000000000000000000000000000000000000000000000000000000000000000000000000000000000000000000000000000000000000000000000000000000000000000000000000000000000000000000000000000000000000000000000000000000000000000000000000000000000000000000000000000000000000000000000000000000000000000000000000000000000000000000000000000000000000000000000000000000000000000000000000000000000000000000000000000000000000000000000000000000000000000000000000000000000000000000000000000000000000000000000000000000000000000000000000000000000000000000000000000000000000000000000000000000000000000000000000000000000000000000000000000000000000000000000000000000000000000000000000000000000000000000000000000000000000000000000000000000000000000000000000000000000000000000000000000000000000000000000000000000000000000000000000000000000000000000000000000000000000000000000000000000000000000000000000000000000000000000000000000000000000000000000000000000000000000000000000000000000000000000000000000000000000000000000000000000000000000000000000000000000000000000000000000000000000000000000000000000000000000000000000000000000000000000000000000000000000000054000000000000000000000000000000000000000000000000000000000000000000000000000000000000000000000000000000000000000000000000000000000000000000000000000000000000000000000000000000000000000000000000000000000000000000000000000000000000000000000000000000000000000000000000000000000000000000000000000000000000000000000000000000000000000000000000000000000000000000000000000000000000000000000000000000000000000000000000000000000000000000000000000000000000000000000000000000000000000000000000000000000000000000000000000000000000000000000000000000000000000000000000000000000000000000000000000000000000000000000000000000000000000000000000000000000000000000000000000000000000000000000000000000000000000000000000000000000000000000000000000000000000000000000000000000000000000000000000000000000000000000000000000000000000000000000000000000000000000000000000000000000000000000000000000000000000000000000000000000000000000000000000000000000000000000000000000000000000000000000000000000000000000000000000000000000000000000000000000000000000000000000000000000000000000000000000000000000000000000000000000000000000000000000000000000000000000000000000000000000000000000000000000000000000000000000000000000000000000000000000000000000000000000000000000000000000000000000000000000000000000000000000000000000000000000000000000000000000000000000000000000000000000000000000000000000000000000000000000000000000000000000000000000000000000000000000000000000000000000000000
#0593b0:00000000000000130000000000000000
#059370:00000023
#060320:00000000000000130000000000000000
#060360:00000023
#0633a0:1434
#063360:0000003400000000
#063380:00000000000000340000000000000000
#064360:0000000000240000
#063321:0000001300000000
#063341:00000000000000330000000000000000
#063361:0033
#064321:0000000000230000
#067351:19
#0703c1:00000022
#055960:0000000000000013
#056920:23
#059970:0000000000000013
#0609b0:23
